#TITLE:Clanker's Cavern;
#SUBTITLE:Banjo-Kazooie;
#ARTIST:Rareware;
#TITLETRANSLIT:;
#SUBTITLETRANSLIT:;
#ARTISTTRANSLIT:;
#CREDIT:;
#BANNER:cc-bn.PNG;
#BACKGROUND:cc-bg.png;
#LYRICSPATH:;
#CDTITLE:kyka06.png;
#MUSIC:ClankersCavern.mp3;
#OFFSET:-1.160;
#SAMPLESTART:59.607;
#SAMPLELENGTH:12.500;
#SELECTABLE:YES;
#BPMS:0.000=99.990;
#STOPS:;
#BGCHANGES:;
// cache tags:
#FIRSTBEAT:0.000;
#LASTBEAT:200.000;
#SONGFILENAME:Songs/new/BK - Clanker's Cavern/cc.sm;
#HASMUSIC:1;
#HASBANNER:1;
#MUSICLENGTH:157.265;
// end cache tags

//---------------dance-single - ----------------
#NOTES:
     dance-single:
     :
     Hard:
     8:
     0.336,0.302,0.064,0.013,0.486,358.000,10.000,2.000,0.000,0.000:
0100
0000
0000
0001
0000
0000
1000
0000
0000
0010
1000
0001
,
0100
0000
0000
1000
0000
0000
0100
0000
0000
0001
0010
1000
,
0001
0000
0000
0100
0000
0010
1000
0000
0000
0001
0000
0000
,
0100
0000
0000
0000
0001
0000
0000
0000
1000
0000
0000
0000
0010
0000
0000
0000
0000
0000
0000
0000
0001
0000
0000
0000
1000
0000
0000
0010
0000
0000
0100
0000
0000
0001
0000
0000
0010
0000
0000
1000
0000
0000
0001
0000
0000
0010
0000
0000
,
1000
0100
0010
1000
,
0001
0000
0100
1000
0000
0001
0010
1000
0001
0100
0000
1000
,
0001
0000
0000
0010
0000
1000
0001
0000
0000
0100
0000
0000
,
1000
0000
0000
0000
0001
0000
0000
0000
0010
0000
0000
0000
1000
0000
0000
0000
0000
0000
0000
0000
0010
0000
0000
0000
0001
0000
0000
0010
0000
0000
0100
0000
0000
0001
0000
0000
1000
0000
0000
0001
0000
0000
0100
0000
0000
0001
0000
0000
,
0010
0000
1000
0001
0100
1000
0100
0000
0001
1000
0000
0010
,
0001
0000
1000
0100
0000
0010
0100
0000
0001
0110
0000
0000
,
1000
0000
0001
0100
1000
0001
0010
0000
1000
0001
0000
0100
,
1000
0000
0001
0000
0010
0000
1000
0000
0000
0000
0001
0000
0220
0000
0000
0000
0000
0000
0000
0000
0000
0330
0000
0000
,
0100
0000
1000
0001
0010
1000
0100
0000
0001
1000
0000
0010
,
0001
0000
1000
0100
0010
0001
1000
0000
0010
0001
0000
1000
,
0100
0000
0000
0010
0000
1000
0001
0000
0000
0100
0000
0000
,
1000
0000
0000
0000
0001
0000
0000
0000
0010
0000
0000
0000
1000
0000
0000
0000
0000
0000
0000
0000
0001
0000
0000
0000
0010
0000
0000
1000
0000
0000
0100
0000
0000
1000
0000
0000
0001
0000
0000
0010
0000
0000
1000
0000
0000
0100
0000
0000
,
0010
1000
0001
0100
1000
0001
0010
0000
1000
0001
0000
0100
,
1000
0000
0001
0010
0000
1000
0100
0000
1000
0110
0000
0000
,
1000
0000
0100
0010
0000
0001
1000
0000
0100
0001
1000
0010
,
0001
0000
1000
0100
0000
0001
1000
0000
0010
0001
1000
0001
,
0010
0000
0000
1000
0000
0001
0100
0000
0000
1000
0000
0000
,
0001
0000
0000
0000
0010
0000
0000
0000
1000
0000
0000
0000
0001
0000
0000
0000
0000
0000
0000
0000
0100
0000
0000
0000
0010
0000
0000
1000
0000
0000
0100
0000
0000
0001
0000
0000
1000
0000
0000
0100
0000
0000
0001
0000
0000
0010
0000
0000
,
0001
0010
1000
0001
,
0100
0000
1000
0001
0000
0010
1000
0001
0100
0010
0000
0001
,
0010
0000
0000
1000
0000
0001
0100
0000
0000
1000
0000
0000
,
0001
0000
0000
0000
0010
0000
0000
0000
1000
0000
0000
0000
0001
0000
0000
0000
0000
0000
0000
0000
0100
0000
0000
0000
1000
0000
0000
0100
0000
0000
0001
0000
0000
0100
0000
0000
0010
0000
0000
0100
0000
0000
0001
0000
0000
0100
0000
0000
,
0010
0000
0010
1000
0001
0100
1000
0000
0001
0010
0000
1000
,
0001
0000
0100
1000
0000
0001
0010
0000
0100
0110
0000
0000
,
1000
0000
0000
0001
0000
0001
0100
0000
0000
1000
0000
0000
,
0010
0000
0000
1000
0000
0001
0100
0000
0000
0000
0000
0010
,
1000
0000
0000
0001
0000
0100
0010
0000
0000
1100
0000
0000
,
0001
0000
1000
0100
0000
0010
0001
0000
0000
1001
0000
0000
,
0001
0000
0000
1000
0000
1000
0010
0000
0000
0001
0000
0000
,
0100
0000
0000
0001
0000
1000
0010
0000
0000
0000
0000
0100
,
0001
0000
0000
1000
0000
0010
0100
0000
0000
0011
0000
0000
,
1000
0000
0001
0010
0000
0100
1000
0000
0000
1001
0000
0000
,
0001
0000
0000
1000
0000
0001
0100
0000
0000
1000
0000
0000
,
0001
0000
0000
1000
0000
0001
0100
0000
0000
0000
0000
0001
,
1000
0000
0000
1000
0000
0010
0001
0000
0000
1000
0000
0000
,
0100
0000
0001
1000
0000
0010
0001
0000
0000
0100
0000
0000
,
0010
0000
0000
1000
0000
0001
0100
0000
0000
1000
0000
0000
,
0001
0000
0000
0010
0000
1000
0001
0000
0000
0000
0000
0100
,
1000
0000
0000
0001
0000
0010
1000
0000
0000
0001
0000
0000
,
0100
0000
1000
0001
0000
0010
1000
0000
0000
0001
0000
0000
,
0100
0000
1000
0001
0010
1000
0001
0000
0100
1000
0000
0001
,
0010
0100
1000
0001
0000
1000
0010
0000
0000
0000
0000
0000
,
0100
0000
1000
0001
0010
1000
0001
0000
0100
1000
0000
0001
,
0010
0000
1000
0001
0100
1000
0001
0000
0010
0100
0000
0001
,
1000
0000
0000
0100
0000
0000
0010
0000
0000
0001
1000
0001
,
1001
0000
0000
0100
0000
0000
0010
0000
0000
1000
0001
0100
,
0101
0000
0000
0000
;

//---------------dance-single - ----------------
#NOTES:
     dance-single:
     :
     Medium:
     6:
     0.203,0.207,0.064,0.013,0.006,211.000,10.000,2.000,0.000,0.000:
0010
0000
1000
0000
0001
0000
0100
1000
,
0010
0000
0001
0000
0010
0000
1000
0001
,
1000
0010
0001
1000
,
0010
0000
0100
0000
0001
0010
0100
0010
,
0001
0010
0100
0001
,
1000
0001
0100
0010
,
1000
0100
1000
0010
,
0001
0000
0001
0000
1000
0100
0001
0010
,
0100
1000
0010
0001
,
1000
0010
0010
0110
,
0001
0010
0100
1000
,
0001
0000
0001
0000
0220
0000
0000
0330
,
0010
1000
0010
0001
,
1000
0010
0001
1000
,
0010
0100
1000
0010
,
0001
0000
0001
0000
0100
0001
1000
0001
,
0100
0010
0100
1000
,
0001
0100
0010
0110
,
0001
0100
0001
1000
,
1000
0010
0001
1000
,
0100
0001
0010
0001
,
1000
0000
1000
0000
0100
0010
0001
0010
,
1000
0100
0001
1000
,
0010
1000
0001
0100
,
0100
0001
0010
0001
,
1000
0000
1000
0000
0001
0010
0100
0010
,
0100
0001
0001
0100
,
1000
0001
0100
0110
,
1000
0001
0100
0010
,
1000
0000
0000
0001
0000
0000
0100
0000
0000
0000
0000
0001
,
1000
0010
1000
0001
,
1100
1100
0101
0101
,
1000
0001
0100
0010
,
1000
0000
0000
0100
0000
0000
0010
0000
0000
0000
0000
0001
,
0100
0010
1000
0100
,
0010
0101
0010
1100
,
1000
0001
0010
0001
,
1000
0001
0010
0000
,
0001
0001
1000
0001
,
0010
0001
1000
0010
,
0100
0001
0010
0001
,
1000
0100
1000
0000
,
0001
1000
0001
1000
,
0010
1000
0001
1000
,
0010
1000
1000
0001
,
0100
1000
0100
0000
,
0010
1000
1000
0001
,
0100
1000
1000
0010
,
0001
0000
0010
0000
0100
0000
1000
0010
,
1000
0000
0010
0000
0100
0000
0001
1000
,
0010
0000
0000
0000
;

//---------------dance-single - ----------------
#NOTES:
     dance-single:
     :
     Challenge:
     9:
     0.396,0.382,0.312,0.013,0.572,385.000,49.000,2.000,0.000,0.000:
1000
0000
0000
0100
0000
0000
0010
0000
0000
0001
0010
0100
,
1000
0000
0001
0010
0000
0100
1000
0000
0010
0100
0001
0010
,
0100
0000
0000
1000
0000
0001
0010
0000
0000
0100
0000
0000
,
1000
0000
0100
0000
0010
0000
0001
0000
0000
0000
0100
0000
0010
1000
0010
1000
0001
0100
0001
0100
0010
0100
0010
0100
,
0010
1000
0001
0010
,
0100
0000
1000
0010
0000
0100
0001
0010
0100
1000
0000
0010
,
0100
0000
0000
0001
0000
0010
0100
0000
0000
1000
0000
0000
,
0010
0000
0100
0000
0001
0000
0010
0000
0000
0000
0001
0000
0100
1000
0100
1000
0010
0100
0010
0100
0001
1000
0001
1000
,
0001
0000
0010
0100
1000
0010
1000
0000
0100
0010
0000
0001
,
0100
0000
0000
0000
0010
0000
1000
0000
0000
0000
0001
0000
1000
0000
0000
0000
0100
0001
1001
0000
0000
0000
0000
0000
,
0010
0000
0100
1000
0010
0100
0001
0000
0010
0100
0000
1000
,
0010
0000
0100
0000
0001
0000
0010
0000
0000
0000
0100
0000
2002
0000
0000
0000
0000
0000
0000
0000
0000
3003
0000
0000
,
1000
0000
0010
0100
0001
0010
1000
0000
0100
0010
0000
0001
,
0100
0000
0010
1000
0001
0100
0010
0000
0001
0100
0000
0010
,
1000
0000
0000
0001
0000
0010
0100
0000
0000
1000
0000
0000
,
0010
0000
0100
0000
0001
0000
0010
0000
0000
0000
0100
0000
0001
0010
0100
1000
0001
0010
0100
1000
0001
0010
0100
1000
,
0001
0010
0100
1000
0010
0100
0001
0000
0010
0100
0000
1000
,
0010
0000
0000
0000
0100
0000
0001
0000
0000
0000
0010
0000
1000
0000
0000
0000
0010
1000
1001
0000
0000
0000
0000
0000
,
0010
0000
1000
0001
0000
0100
0010
0000
1000
0100
0010
0001
,
0100
0000
0010
1000
0000
0100
0010
0000
0001
0100
0010
0100
,
0001
0000
0000
0010
0000
0100
1000
0000
0000
0010
0000
0000
,
0100
0000
0001
0000
0010
0000
0100
0000
0000
0000
1000
0000
0001
0100
0010
1000
0001
0100
0010
1000
0001
0100
0010
1000
,
0100
0001
0010
0100
,
1000
0000
0010
0100
0000
0001
0010
0100
1000
0001
0000
0100
,
0001
0000
0000
0010
0000
0100
1000
0000
0000
0010
0000
0000
,
0100
0000
0001
0000
0010
0000
0100
0000
0000
0000
1000
0000
0010
0100
0010
0100
0001
1000
0001
1000
0010
0100
0010
0100
,
0001
0000
0001
0010
0100
1000
0010
0000
0100
0001
0000
0010
,
0100
0000
0000
0000
1000
0000
0010
0000
0000
0000
0100
0000
0001
0000
0000
0000
1000
0001
1001
0000
0000
0000
0000
0000
,
1001
0000
0000
1100
0000
0110
1001
0000
0000
0101
0000
0000
,
1001
0000
0000
1100
0000
1001
0110
0000
0000
0000
0000
0101
,
1100
0000
0000
0101
0000
1001
1100
0000
0000
0110
0000
0000
,
1001
0000
0101
1100
0000
0101
1001
0000
0000
1001
0000
0000
,
1100
0000
0000
0110
0000
0101
1001
0000
0000
1010
0000
0000
,
0110
0000
0000
1001
0000
0110
1100
0000
0000
0000
0000
1001
,
0101
0000
0000
0101
0000
1001
1100
0000
0000
0110
0000
0000
,
1001
0000
1100
0101
0000
0101
1001
0000
0000
1100
0000
0000
,
0101
0000
0000
0010
0000
0100
1000
0000
0000
0010
0000
0000
,
0100
0000
0000
0010
0000
0100
1000
0000
0000
0000
0000
0100
,
0010
0000
0000
0010
0000
0001
0100
0000
0000
0010
0000
0000
,
1000
0000
0100
0010
0000
0001
0100
0000
0010
1000
0000
0000
,
0001
0000
0000
0010
0000
0100
1000
0000
0000
0010
0000
0000
,
0100
0000
0000
0001
0000
0010
0100
0000
0000
0000
0000
1000
,
0010
0000
0000
0100
0000
0001
0010
0000
0000
0100
0000
0000
,
1000
0000
0010
0100
0000
0001
0010
0000
0000
0100
0000
0000
,
1000
0000
0010
0100
0001
0010
0100
0000
1000
0010
0000
0100
,
0001
1000
0010
0100
0000
0010
0001
0000
0000
0000
0000
0000
,
1000
0000
0010
0100
0001
0010
0100
0000
1000
0010
0000
0100
,
0001
0000
0010
0100
1000
0010
0100
0000
0001
1000
0000
0100
,
0010
0000
0000
1000
0000
0000
0001
0000
0000
0100
0100
0100
,
0110
0000
0000
1000
0000
0000
0001
0000
0000
0010
0010
1000
,
1100
0000
0000
0000
;

//---------------dance-single - ----------------
#NOTES:
     dance-single:
     :
     Easy:
     3:
     0.116,0.143,0.000,0.006,0.000,127.000,0.000,1.000,0.000,0.000:
0001
0000
0010
1000
,
0001
0000
0001
0100
,
0100
0000
0010
0000
,
0001
0000
0010
0000
,
0010
0000
1000
0000
,
0100
0000
1000
0000
,
0100
0000
0100
0000
,
0010
0000
0100
0000
,
1000
0000
0001
0000
,
0100
0000
0001
1000
,
0010
0000
1000
0000
,
0010
0000
0100
0000
0002
0000
0000
0003
,
0001
0000
0001
0000
,
0100
0000
0010
0000
,
0001
0000
0100
0000
,
0010
0000
1000
0000
,
1000
0000
1000
0000
,
0010
0000
0001
1000
,
0010
0000
0010
0000
,
0100
0000
0010
0000
,
1000
0000
0001
0000
,
0100
0000
1000
0000
,
0100
0000
0010
0000
,
0001
0000
0010
0000
,
1000
0000
0001
0000
,
0100
0000
0010
0000
,
1000
0000
0010
0000
,
0100
0000
1000
0001
,
1000
0001
0010
1000
,
0001
0001
0010
1000
,
0001
0001
0010
1000
,
0001
1000
0010
1000
,
0001
0001
0010
1000
,
0001
0001
0010
1000
,
0001
0001
0010
1000
,
0001
1000
0010
1000
,
0001
0000
0001
0000
,
0100
0000
0001
0000
,
0010
0000
0100
0000
,
0001
0000
0100
0000
,
1000
0000
0001
0000
,
0100
0000
0100
0000
,
0010
0000
0010
0000
,
0001
0000
0010
0000
,
0001
0000
0100
0000
,
1000
0000
1000
0000
,
0001
0000
0100
0000
,
1000
0000
0100
0001
,
0010
0001
1000
0100
,
1000
0000
1000
0010
,
1000
0000
0000
0000
;
