#TITLE:Hysteria;
#SUBTITLE:;
#ARTIST:Muse;
#TITLETRANSLIT:;
#SUBTITLETRANSLIT:;
#ARTISTTRANSLIT:;
#CREDIT:;
#BANNER:Hysteria-bn.png;
#BACKGROUND:Hysteria-bg.png;
#LYRICSPATH:;
#CDTITLE:;
#MUSIC:Hysteria.ogg;
#OFFSET:-3.831;
#SAMPLESTART:63.048;
#SAMPLELENGTH:12.000;
#SELECTABLE:YES;
#DISPLAYBPM:93.000;
#BPMS:0.000=92.288,1.000=92.285,4.000=94.825,8.000=92.285,9.000=92.288,10.000=92.285,12.000=93.373,14.000=93.376,15.000=93.370,16.000=93.518,20.000=93.963,23.000=93.966,24.000=92.285,26.000=92.288,27.000=92.285,28.000=91.551,31.000=91.544,32.000=93.117,37.000=93.120,38.000=93.117,44.000=93.963,48.000=93.117,52.000=93.963,56.000=92.699,60.000=93.538,64.000=93.117,68.000=93.294,71.000=93.287,72.000=93.215,76.000=93.338,80.000=93.119,84.000=93.632,88.000=93.119,92.000=93.563,96.000=93.140,99.000=93.154,100.000=93.538,104.000=92.937,108.000=93.323,116.000=93.337,120.000=92.726,124.000=92.298,128.000=92.286,131.000=93.880,132.000=92.117,136.000=92.639,144.000=92.859;
#STOPS:;
#BGCHANGES:;
// cache tags:
#FIRSTBEAT:12.000;
#LASTBEAT:149.250;
#SONGFILENAME:Songs/lvsb tourney pack/Hysteria/Hysteria.sm;
#HASMUSIC:1;
#HASBANNER:1;
#MUSICLENGTH:104.308;
// end cache tags

//---------------dance-single - ----------------
#NOTES:
     dance-single:
     :
     Hard:
     8:
     0.375,0.411,0.038,0.048,0.307,265.000,4.000,5.000,0.000,0.000:
0000
0000
0000
0000
,
0000
0000
0000
0000
,
0000
0000
0000
0000
,
1000
0001
0000
0100
,
0001
0010
0000
0100
,
1000
0010
0000
1000
,
0001
0100
0000
0001
,
0010
0000
0001
0100
0001
0000
0010
0100
0000
0000
1000
0010
1000
0000
0001
0000
,
0010
0000
0100
1000
0100
0000
1000
0001
0000
0000
0100
0001
0100
0000
0010
0000
,
1000
0000
0001
0010
0001
0000
0100
0010
0000
0000
1000
0010
1000
0000
0001
0000
,
0010
0000
0100
1000
0100
0000
0010
0001
0100
0000
0010
0000
1000
0000
0001
0000
,
0010
0000
0001
1000
0001
0000
0100
0010
0000
0000
1000
0100
1000
0000
0010
0000
,
0100
0000
0001
0100
0001
0000
1000
0010
0000
0000
1000
0100
1000
0000
0010
0000
,
0100
0000
0001
0010
0001
0000
0100
0001
0000
0000
1000
0100
1000
0000
0100
0000
,
0010
0000
0001
0100
0001
0000
1000
0010
1000
0000
0100
0000
0010
0000
0001
0000
,
0100
0010
1000
0002
0000
0010
0013
0000
,
0001
0100
0010
2000
0000
0100
3100
0000
,
1000
0010
0100
0010
0000
1000
0000
0001
,
0000
0010
0000
0001
0100
0010
1000
0000
,
0100
0010
0001
0200
0000
0010
0310
0000
,
1000
0100
0010
0002
0000
1000
1003
0000
,
0010
0100
0001
1000
0000
1100
0000
1001
,
0000
0001
0100
0010
1000
0010
0100
0001
,
1001
0000
1000
0000
0100
0000
0000
0010
0000
0000
0001
0000
0100
0000
0010
0000
,
1000
0000
0010
0000
0100
0000
0000
0001
0000
0000
1000
0000
0100
0000
1000
0000
,
0010
0000
0100
0000
0001
0000
0010
0000
0001
0000
0000
0100
0000
0000
0010
0000
,
1000
0001
0100
0001
0010
0100
1000
0001
,
0101
0000
0001
0000
0010
0000
0000
0100
0000
0000
1000
0000
0010
0000
0100
0000
,
0001
0000
1000
0000
0100
0000
0000
1000
0000
0000
0010
0000
0100
0000
0001
0000
,
0010
0000
0100
0000
1000
0000
0010
0000
0100
0000
0000
0001
0000
0000
1000
0000
,
0100
0010
0001
0100
0010
1000
0001
0010
,
0001
0010
0001
0000
0100
0010
0000
1000
0000
0100
0010
0000
0001
1000
0000
0010
,
1000
0100
1000
0000
0010
0100
0000
0001
0000
0010
0100
0000
1000
0010
0000
0100
,
0001
0010
0001
0000
0100
0010
0000
1000
0000
0001
0010
0000
0100
0010
0000
0001
,
1000
0001
1000
0000
0010
0100
0000
0001
0000
0100
0010
0000
1000
0100
0000
0010
,
0001
1000
0001
0000
0100
0010
0000
1000
0000
0100
1000
0000
0010
0100
0000
0001
,
1000
0001
1000
0000
0010
0100
0000
0001
0000
0100
0010
0000
1000
0100
0000
0010
,
0002
0000
0000
0000
0000
0003
0000
0000
0000
0000
0000
0000
0000
0000
0000
0000
;

//---------------dance-single - ----------------
#NOTES:
     dance-single:
     :
     Challenge:
     9:
     0.572,0.585,0.182,0.010,0.824,398.000,19.000,1.000,0.000,0.000:
0000
0000
0000
0000
,
0000
0000
0000
0000
,
0000
0000
0000
0000
,
0020
0100
0000
0100
,
0000
1000
0000
1000
,
0000
0100
0000
0100
,
0000
0000
0001
0000
0000
0000
0001
0030
,
0110
0000
0001
1000
0100
0000
0010
0100
1000
0000
0001
0100
0010
0000
1000
0000
,
1100
0000
1000
0001
0100
0000
0010
0100
0001
0000
0010
0100
1000
0000
0001
0000
,
0011
0000
0001
1000
0010
0000
0100
0010
1000
0000
0100
0010
0001
0000
0100
0000
,
0110
0000
0010
1000
0100
0000
0010
0001
1000
0000
0010
1000
0010
0001
0010
0000
,
0011
0000
0010
1000
0100
0000
1000
0001
0100
0000
0001
1000
0100
0000
0010
0000
,
0011
0000
0001
0100
0010
0000
1000
0010
0100
0000
0001
1000
0100
0000
1000
0000
,
1010
0000
0010
0100
0001
0000
0010
0100
1000
0000
0001
0100
0010
0000
1000
0000
,
1100
0000
1000
0001
0100
0000
0010
0100
0001
0000
1000
0100
0001
0100
1000
0000
,
0010
0100
0001
1000
0100
1000
0010
1000
0001
0010
0001
0100
0010
1000
0100
0010
,
0001
0100
0010
0100
0001
1000
0100
1000
0010
0100
0001
0010
0001
0100
0010
1000
,
0001
0100
0001
1000
0010
0100
0010
1000
0100
0010
0001
0100
0010
1000
0001
1000
,
0010
0100
0001
0010
0001
0100
0010
1000
0100
1000
0010
0100
0001
1000
0001
0010
,
0001
0100
0010
1000
0100
1000
0010
0100
0001
1000
0100
1000
0010
0100
0001
0010
,
0001
0100
0010
1000
0001
0010
0001
0100
0010
1000
0100
1000
0001
0100
0010
0100
,
0001
0010
0100
1000
0001
0100
0010
1000
0010
0100
0001
0100
0010
1000
0001
0010
,
0001
0001
0001
0010
0010
0010
0100
0100
0100
1000
1000
1000
0001
1000
0100
0010
,
0110
0000
0001
1000
0100
0000
1000
0010
0000
0010
1000
0000
0100
0010
0001
0100
,
0001
0000
0101
0000
0100
0000
0010
1000
0000
0001
1000
0000
0100
0010
0001
0100
,
0001
0000
1000
0100
1000
0000
0010
0100
0000
0001
0010
0000
0001
0100
0010
1000
,
0100
0000
1000
0001
1000
0000
0010
0100
0000
0001
0010
0100
1000
0001
0100
0010
,
1010
0000
0010
0100
0001
0000
0010
0001
0000
0100
0010
0000
1000
0010
1000
0000
,
0001
0000
1001
0000
1000
0000
0100
1000
0000
0010
0100
0000
0001
0010
0001
0000
,
0100
0000
0010
1000
0010
0000
0100
0001
0000
0010
0001
0000
0100
0010
1000
0001
,
1000
0100
0010
0100
0001
0100
0010
0100
1000
0100
0010
0100
1000
0010
0100
0001
,
0010
0001
0010
0100
1000
0001
0000
1001
0000
0001
0100
0000
0010
1000
0000
0100
,
1000
0010
0100
0010
1000
0100
0000
1100
0000
1000
0001
0000
0100
0010
0000
1000
,
0001
0010
0001
0100
0010
1000
0000
1100
0000
1000
0001
0000
0100
0010
0000
0100
,
0001
0010
0001
0100
0010
1000
0000
1010
0000
1000
0100
0000
0010
0100
0000
1000
,
0001
0100
0010
0100
0001
0010
0000
0011
0000
0001
0100
0000
0010
0100
0000
0001
,
1000
0100
0010
0001
0100
0001
0000
1001
0000
1000
0100
0000
0010
0001
0010
0001
,
0011
0000
0000
0000
;

//---------------dance-single - ----------------
#NOTES:
     dance-single:
     :
     Easy:
     2:
     0.123,0.160,0.048,0.000,0.000,85.000,5.000,0.000,0.000,0.000:
0000
0000
0000
0000
,
0000
0000
0000
0000
,
0000
0000
0000
0000
,
0000
1000
0000
1000
,
0000
1000
0000
1000
,
0000
1000
0000
1000
,
0000
1000
0000
1000
,
0001
0100
0000
0010
,
1000
0001
0000
0010
,
0001
0100
0000
0010
,
1000
0001
0000
0100
,
0010
1000
0000
0100
,
1000
0010
0000
1000
,
0001
0100
0000
0001
,
1000
0100
0000
1000
,
0010
0000
0100
0000
,
0001
0000
1000
0000
,
0100
0000
1000
0000
,
0010
0000
0000
0100
,
0100
0000
0001
0000
,
0010
0000
0001
0000
,
1000
0000
0010
0000
,
0100
0000
0001
1000
,
1001
0000
0010
0100
,
0110
0000
0010
1000
,
0100
0000
0010
0000
,
0001
0000
0100
0010
,
0110
0000
1000
0001
,
1001
0000
0001
0010
,
0001
0000
0100
0000
,
0010
1000
0100
0010
,
0100
0000
1000
0000
,
0010
0000
0100
0000
,
0001
0000
0010
0000
,
0001
0000
0100
0000
,
0010
0000
1000
0000
,
0001
0000
1000
0000
,
1001
0000
0000
0000
;

//---------------dance-single - Blank----------------
#NOTES:
     dance-single:
     Blank:
     Beginner:
     1:
     0.079,0.089,0.038,0.010,0.000,53.000,4.000,1.000,0.000,0.000:
0000
0000
0000
0000
,
0000
0000
0000
0000
,
0000
0000
0000
0000
,
0002
0000
0000
0000
,
0000
0000
0000
0000
,
0000
0000
0000
0000
,
0000
0000
0000
0000
,
1003
1000
0000
0000
,
0100
0100
0000
0000
,
0010
0010
0000
0000
,
0001
0001
0000
0000
,
0001
0001
0000
0000
,
0010
0010
0000
0000
,
0100
0100
0000
0000
,
1000
1000
0000
0000
,
0100
0000
0100
0000
,
1000
0000
1000
0000
,
0010
0000
0010
0000
,
0100
0000
0100
0000
,
0001
0000
0001
0000
,
0010
0000
0010
0000
,
0001
0000
0001
0000
,
1000
0000
0000
0000
,
0110
0000
0000
0000
,
0110
0000
0000
0000
,
1000
0000
0000
0000
,
1000
0000
0000
0000
,
1001
0000
0000
0000
,
1001
0000
0000
0000
,
0100
0000
0000
0000
,
0100
0000
0000
0000
,
0010
0000
0010
0000
,
1000
0000
1000
0000
,
0001
0000
0001
0000
,
0100
0000
0100
0000
,
0001
0000
0001
0000
,
1000
0000
1000
0000
,
0100
0000
0000
0000
;
