#TITLE:Last Christmas;
#SUBTITLE:;
#ARTIST:Billie;
#TITLETRANSLIT:;
#SUBTITLETRANSLIT:;
#ARTISTTRANSLIT:;
#CREDIT:;
#BANNER:last christmas.png;
#BACKGROUND:last christmas-bg.png;
#LYRICSPATH:;
#CDTITLE:cd.png;
#MUSIC:Last Christmas.mp3;
#OFFSET:-1.440;
#SAMPLESTART:20.880;
#SAMPLELENGTH:12.000;
#SELECTABLE:YES;
#DISPLAYBPM:106.000;
#BPMS:0.000=107.000;
#STOPS:;
#BGCHANGES:;
// cache tags:
#FIRSTBEAT:4.000;
#LASTBEAT:195.000;
#SONGFILENAME:Songs/DDRExtreme.co.uk presents ChristmasMix/Last Christmas/Last Christmas.sm;
#HASMUSIC:1;
#HASBANNER:1;
#MUSICLENGTH:111.394;
// end cache tags

//---------------dance-single - ----------------
#NOTES:
     dance-single:
     :
     Beginner:
     1:
     0.119,0.088,0.000,0.000,0.000,93.000,0.000,0.000,0.000,0.000:  // measure 1
0000
0000
0000
0000
,  // measure 2
0000
0000
0000
0001
,  // measure 3
0000
1000
0000
0100
,  // measure 4
0000
0010
0000
0001
,  // measure 5
0000
0100
0000
0010
,  // measure 6
0000
1000
0000
0001
,  // measure 7
0000
0100
0000
0010
,  // measure 8
0000
1000
0000
0001
,  // measure 9
0000
1000
0000
0100
,  // measure 10
0000
0010
0000
0001
,  // measure 11
0000
0100
0000
0010
,  // measure 12
0000
1000
0000
0100
,  // measure 13
0000
0010
0000
0001
,  // measure 14
0000
0100
0000
0010
,  // measure 15
0000
0100
0000
0010
,  // measure 16
0000
1000
0000
1000
,  // measure 17
0000
1000
0000
0000
,  // measure 18
0000
0010
0000
1000
,  // measure 19
0000
0001
0000
0100
,  // measure 20
0000
0010
0000
1000
,  // measure 21
0000
0100
0000
1000
,  // measure 22
0000
0100
0000
0010
,  // measure 23
0000
0100
0000
1000
,  // measure 24
0000
0010
0000
0100
,  // measure 25
0000
0001
0000
0100
,  // measure 26
0000
0010
0000
1000
,  // measure 27
0000
0100
0000
0010
,  // measure 28
0000
0001
0000
0100
,  // measure 29
0000
0010
0000
1000
,  // measure 30
0000
0010
0000
0100
,  // measure 31
0000
0001
0000
1000
,  // measure 32
0000
0010
0000
0100
,  // measure 33
0000
0001
0000
0010
,  // measure 34
0000
0100
0000
1000
,  // measure 35
0000
0010
0000
0100
,  // measure 36
0000
0001
0000
0100
,  // measure 37
0000
0010
0000
1000
,  // measure 38
0000
0010
0000
0100
,  // measure 39
0000
0010
0000
1000
,  // measure 40
0000
0010
0000
0100
,  // measure 41
0000
0001
0000
0010
,  // measure 42
0000
0100
0000
1000
,  // measure 43
0000
1000
0000
1000
,  // measure 44
0000
0100
0000
0010
,  // measure 45
0000
0001
0000
0000
,  // measure 46
0000
1000
0000
0010
,  // measure 47
0000
0100
0000
0001
,  // measure 48
0000
0100
0000
0010
,  // measure 49
0000
1000
0000
0001
;

//---------------dance-single - ----------------
#NOTES:
     dance-single:
     :
     Hard:
     6:
     0.358,0.372,0.171,0.153,0.018,243.000,19.000,17.000,0.000,0.000:  // measure 1
0000
0000
0000
0000
,  // measure 2
1000
0001
1000
0100
1000
0000
1001
0000
,  // measure 3
0010
1000
0010
0100
0010
0000
1010
0000
,  // measure 4
0100
0001
0100
0010
0100
0000
0101
0000
,  // measure 5
0010
0100
0010
1000
0010
0000
0110
0000
,  // measure 6
0100
0001
0010
1000
0100
0000
0001
0000
,  // measure 7
0010
0100
1000
0010
1000
0000
1001
0000
,  // measure 8
0001
0100
0101
0100
0001
0000
0101
0000
,  // measure 9
0010
1000
0100
0001
0100
0000
1000
0000
,  // measure 10
0002
0000
0000
2003
3000
0010
0000
1000
,  // measure 11
0100
1000
0001
0100
0000
0000
0010
1000
,  // measure 12
0001
0100
0010
0000
1000
0000
0000
0001
,  // measure 13
1000
0000
0100
0000
0001
0000
0100
0000
0000
0000
0000
0000
0000
0000
0000
2000
,  // measure 14
0000
0000
0000
3000
0000
0000
1001
0000
0000
0000
0000
0000
0000
0000
0001
0000
,  // measure 15
1000
0001
0010
0100
0000
0000
0000
1000
,  // measure 16
0010
0100
0001
1000
0000
0010
0000
1000
,  // measure 17
0000
0010
0000
0000
0000
0000
0000
0000
0000
0000
0000
0000
0000
0000
0000
0000
,  // measure 18
2000
0000
3000
0002
0000
0203
0000
0310
,  // measure 19
1000
0001
0100
0001
0000
0000
1000
0010
,  // measure 20
1000
0010
0200
0000
0310
0000
0000
0010
,  // measure 21
0100
0000
0100
0000
0001
0000
0010
0000
0000
0000
0000
0000
0000
0000
0000
2000
,  // measure 22
0000
0000
3000
0002
0000
0000
0003
0010
,  // measure 23
0100
1000
0010
0100
0000
0000
0000
0010
,  // measure 24
1000
0100
0001
0100
0000
1000
0000
0010
,  // measure 25
0000
0001
0000
0000
0000
0000
0000
0000
,  // measure 26
1001
0000
0000
0000
2002
0000
3003
0001
,  // measure 27
2000
0000
3000
0000
0010
1000
0010
0100
,  // measure 28
0010
1000
1000
0000
,  // measure 29
0000
0000
0000
0000
0001
1000
0001
0010
,  // measure 30
1000
0000
1000
0000
0010
0001
0010
0000
,  // measure 31
1000
0000
1000
0000
1000
0010
0001
0010
,  // measure 32
1000
0000
0010
0000
0001
0001
0001
0000
,  // measure 33
0100
0000
0010
0000
1000
0010
0001
0000
,  // measure 34
0020
0000
2030
0000
3001
0100
0000
0010
,  // measure 35
2000
0000
0000
0000
3000
0020
0000
0000
0000
0000
0000
0030
0000
0000
0000
0000
,  // measure 36
0000
1000
0001
0100
1000
0100
0000
0010
,  // measure 37
0001
0010
0000
1000
0000
0010
0000
1000
,  // measure 38
0000
0000
0010
1000
0010
0100
0000
0000
,  // measure 39
0010
0001
0010
1000
0010
0100
0000
0000
,  // measure 40
0020
0000
0030
1000
0100
0000
0000
0010
,  // measure 41
0100
1000
0010
0100
0000
0001
0000
0000
,  // measure 42
1000
0100
0010
0001
0100
0010
1001
0000
,  // measure 43
0010
1000
0100
1000
0010
0100
0101
0000
,  // measure 44
0001
0100
0010
1000
0100
0001
0010
0000
,  // measure 45
0100
1000
0100
0010
0001
0010
0110
0000
,  // measure 46
0100
0001
0010
0100
1000
0010
0101
0000
,  // measure 47
0100
0001
0010
1000
0100
0001
1001
0000
,  // measure 48
1000
0001
0100
0010
0100
0001
0101
0000
,  // measure 49
1000
0010
1010
0000
1100
0000
1001
0000
;

//---------------dance-single - ----------------
#NOTES:
     dance-single:
     :
     Challenge:
     8:
     0.476,0.438,0.440,0.054,0.000,316.000,49.000,6.000,0.000,0.000:  // measure 1
0000
0000
0000
0000
,  // measure 2
1000
0001
1001
1000
1001
0000
1001
0000
,  // measure 3
0010
1000
1010
0010
0110
0000
1010
0000
,  // measure 4
0100
0001
0101
0001
1001
0000
0101
0000
,  // measure 5
1000
0100
0010
0011
0011
0000
0011
0000
,  // measure 6
0001
0010
0100
0110
0110
0000
0110
0000
,  // measure 7
0010
0100
0010
0100
0010
0000
0110
0000
,  // measure 8
0001
1000
1010
0100
0010
0000
0101
0000
,  // measure 9
0100
0010
0010
0100
0001
0000
1000
0000
,  // measure 10
0001
1000
0100
0001
0100
1000
1100
1000
,  // measure 11
0100
0001
0100
1000
0100
0001
0101
0100
,  // measure 12
1000
0010
0100
0001
0100
0010
0110
0100
,  // measure 13
1000
0100
0010
0001
0010
0100
1100
0000
,  // measure 14
0100
0001
0010
1000
0010
0100
0010
0001
,  // measure 15
0100
0010
0100
1000
0100
0010
0100
0010
,  // measure 16
1000
0100
1000
0001
1000
0100
1000
0010
,  // measure 17
0001
0100
0001
0010
0001
0100
0001
1000
,  // measure 18
0100
0010
1000
0001
0010
0001
0101
0000
,  // measure 19
0010
0010
1000
1000
0100
0100
0010
0010
,  // measure 20
0001
0001
0100
0100
0010
0010
1000
1000
,  // measure 21
0010
0100
0001
0100
0010
0100
1000
0100
,  // measure 22
0001
0010
0100
1000
0010
0100
0001
0010
,  // measure 23
0001
0100
0001
1000
0001
0100
0110
0010
,  // measure 24
1000
0100
0010
0001
0100
0010
1010
0000
,  // measure 25
1001
0000
0101
0000
0001
1000
0100
0000
,  // measure 26
0220
0000
0330
0000
0022
0000
0033
0100
,  // measure 27
0020
0000
0030
0000
0100
1000
0100
0010
,  // measure 28
0100
0001
1000
0000
,  // measure 29
0000
0000
0000
0000
0010
0100
1000
0100
,  // measure 30
0001
0000
1000
0000
0100
0001
0100
0000
,  // measure 31
1000
0000
0010
0000
0100
0001
0100
0010
,  // measure 32
0100
0000
0010
0000
1000
0100
0100
0000
,  // measure 33
0010
0000
0001
0000
0100
0010
1000
0000
,  // measure 34
0200
0000
1300
0000
0001
1000
0100
0000
,  // measure 35
1000
0001
1000
0100
1000
0001
1001
0000
,  // measure 36
0001
1000
1100
0100
0010
0011
0001
0000
,  // measure 37
1000
0010
1010
0010
0100
0101
0100
0000
,  // measure 38
0001
1000
1001
0001
0100
0110
0100
0000
,  // measure 39
0001
1000
0010
0100
0001
0100
0110
0010
,  // measure 40
0100
0001
0100
1000
0100
0010
0001
0010
,  // measure 41
0100
1000
0100
0010
1000
0100
1100
0000
,  // measure 42
1000
0100
0001
0100
1000
0010
0001
0000
,  // measure 43
0010
1000
0100
0010
0001
0100
0101
0000
,  // measure 44
0001
0100
0010
0010
0100
0010
1000
0000
,  // measure 45
0100
1000
0100
0010
0001
0010
0110
0000
,  // measure 46
0100
1000
0010
0100
0010
0100
0110
0000
,  // measure 47
0100
0001
1000
0100
1100
1000
1001
0000
,  // measure 48
1000
0010
1010
0010
0100
0101
0101
0000
,  // measure 49
0100
0010
0110
0000
0101
0000
1001
0000
;

//---------------dance-single - ----------------
#NOTES:
     dance-single:
     :
     Medium:
     5:
     0.291,0.306,0.251,0.000,0.000,199.000,28.000,0.000,0.000,0.000:  // measure 1
0000
0000
0000
0000
,  // measure 2
0001
0100
0100
0010
,  // measure 3
0010
0000
1000
0100
0010
0000
0001
0000
,  // measure 4
0100
0010
1000
1100
,  // measure 5
0100
0000
1000
0010
0100
0000
0101
0000
,  // measure 6
0001
1000
0100
1000
,  // measure 7
0010
0000
0100
0100
0001
0000
0100
0000
,  // measure 8
0001
1000
0001
0100
,  // measure 9
0010
0000
1000
0100
1000
0000
0001
0000
,  // measure 10
0001
0000
0001
0100
0000
0100
0001
0000
,  // measure 11
1000
0000
1000
0010
0000
0010
1000
0000
,  // measure 12
0001
0000
0001
1000
0000
1000
0010
0000
,  // measure 13
1000
0000
0010
0100
0000
0100
0001
0000
,  // measure 14
0100
0000
0010
1000
0000
0100
1000
0000
,  // measure 15
1000
0000
0001
0100
0000
0010
0100
0000
,  // measure 16
0010
0000
1000
1000
0000
0001
0001
0000
,  // measure 17
0100
0000
0010
0010
0000
0100
0100
0000
,  // measure 18
0010
0100
0010
0000
0110
0000
1001
0000
,  // measure 19
1000
0001
1001
0110
,  // measure 20
0100
0001
0100
0000
0101
0000
1010
0000
,  // measure 21
0010
0100
0101
1010
,  // measure 22
1000
0001
0100
0000
0011
0000
1100
0000
,  // measure 23
1000
0100
1100
1001
,  // measure 24
0001
0100
0010
0000
1010
0000
0110
0000
,  // measure 25
0010
0010
1010
0101
,  // measure 26
0001
1000
0100
0000
1000
0000
0000
0001
,  // measure 27
0000
0000
1000
0001
,  // measure 28
0100
0010
1000
0000
,  // measure 29
0000
0000
0000
0000
0010
1000
0000
1000
,  // measure 30
0010
0000
0000
0000
,  // measure 31
0000
0000
0000
0000
1000
0001
0000
0001
,  // measure 32
0100
0000
1001
0000
1000
0001
1000
0000
,  // measure 33
0010
0000
1000
0000
0001
0001
0000
0000
,  // measure 34
1001
0000
0000
0000
0010
1000
0100
0000
,  // measure 35
1001
0000
0000
0000
0001
0100
0000
0000
,  // measure 36
1001
0000
0000
0000
0010
0100
0010
0000
,  // measure 37
0110
0000
0000
0000
0010
1000
0000
0000
,  // measure 38
1100
0000
0000
0000
1000
0100
1000
0000
,  // measure 39
1100
0000
0000
0000
0001
0010
0000
0000
,  // measure 40
0011
0000
0000
0000
0001
1000
0100
0000
,  // measure 41
1001
0000
0000
0000
0100
0010
0000
0000
,  // measure 42
0010
1000
0010
0000
0000
0000
0100
0000
,  // measure 43
0001
0010
0001
0000
0000
0000
0010
0000
,  // measure 44
0100
1000
0100
0000
0000
0000
1000
0000
,  // measure 45
0010
0100
0001
0000
0000
0000
0010
0000
,  // measure 46
0100
1000
0010
0000
0000
0000
0100
0000
,  // measure 47
0010
0010
0010
0000
0000
0000
0100
0000
,  // measure 48
0001
0010
0100
0000
0000
0000
1000
0000
,  // measure 49
0010
0100
0010
0000
1000
0000
1001
0000
;

//---------------dance-single - ----------------
#NOTES:
     dance-single:
     :
     Easy:
     4:
     0.218,0.197,0.054,0.000,0.000,164.000,6.000,0.000,0.000,0.000:  // measure 1
0000
0000
0000
0000
,  // measure 2
0010
1000
0100
1000
,  // measure 3
0010
0100
0001
0010
,  // measure 4
0100
1000
0001
1001
,  // measure 5
0000
0000
0000
0000
,  // measure 6
0010
0100
0001
0100
,  // measure 7
0001
0100
0010
0100
,  // measure 8
0010
0100
0010
1000
,  // measure 9
0100
1000
0100
1100
,  // measure 10
0000
1000
0001
0100
,  // measure 11
0000
0000
0010
1000
,  // measure 12
0100
0000
0010
0001
,  // measure 13
0010
0000
0100
1000
,  // measure 14
0100
0000
0010
0100
,  // measure 15
0010
0000
0001
1000
,  // measure 16
0001
0000
0100
0010
,  // measure 17
1000
0000
0100
0010
,  // measure 18
0001
0000
0100
0010
,  // measure 19
1000
0100
0010
0001
,  // measure 20
0010
0100
1000
0010
,  // measure 21
0100
0010
1000
0100
,  // measure 22
0010
0001
1000
0100
,  // measure 23
0010
0001
1000
0100
,  // measure 24
0010
0001
1000
0010
,  // measure 25
0100
0001
1000
1001
,  // measure 26
1000
1000
0000
0000
0001
0000
0000
0100
,  // measure 27
0000
0010
1000
0100
,  // measure 28
1000
0010
1010
0000
,  // measure 29
0000
0000
1000
0001
,  // measure 30
0010
0000
0000
0000
,  // measure 31
0000
0000
0010
1000
,  // measure 32
0100
0000
0000
0000
,  // measure 33
0000
0000
1000
0001
,  // measure 34
0100
0010
1000
0010
,  // measure 35
1000
0010
0100
0001
,  // measure 36
0100
0001
1000
0001
,  // measure 37
1000
0100
0010
0100
,  // measure 38
0010
0100
1000
0010
,  // measure 39
0100
0001
0010
0100
,  // measure 40
1000
0100
1000
0010
,  // measure 41
1000
0100
1000
0010
,  // measure 42
0100
0001
0100
0001
,  // measure 43
1000
0010
0100
0010
,  // measure 44
0100
0001
0010
0100
,  // measure 45
1000
0010
0100
0001
,  // measure 46
0010
0100
1000
0010
,  // measure 47
0100
0010
0100
0010
,  // measure 48
0100
0001
0010
0100
,  // measure 49
1000
0010
1001
1001
;
