#TITLE:GoodNES;
#SUBTITLE:;
#ARTIST:Black Ace;
#TITLETRANSLIT:;
#SUBTITLETRANSLIT:;
#ARTISTTRANSLIT:;
#CREDIT:;
#BANNER:goodnes bn.png;
#BACKGROUND:goodnes bg.png;
#LYRICSPATH:;
#CDTITLE:;
#MUSIC:GoodNES.ogg;
#OFFSET:0.010;
#SAMPLESTART:27.191;
#SAMPLELENGTH:13.688;
#SELECTABLE:YES;
#BPMS:0.000=250.000;
#STOPS:;
#BGCHANGES:;
// cache tags:
#FIRSTBEAT:32.000;
#LASTBEAT:562.500;
#SONGFILENAME:Songs/SPEEEDCOOOORE 3/GoodNES - [Aoreo]/GoodNES.sm;
#HASMUSIC:1;
#HASBANNER:1;
#MUSICLENGTH:135.522;
// end cache tags

//---------------dance-single - J. Nero----------------
#NOTES:
     dance-single:
     J. Nero:
     Challenge:
     11:
     1.000,1.000,0.118,0.885,0.317,830.000,16.000,120.000,4.000,0.000:
0000
0000
0000
0000
,
0000
0000
0000
0000
,
0000
0000
0000
0000
,
0000
0000
0000
0000
,
0000
0000
0000
0000
,
0000
0000
0000
0000
,
0000
0000
0000
0000
,
0000
0000
0000
0000
,
0001
0000
0010
0000
0100
0000
1000
0000
0000
0000
0000
0000
,
0001
0000
0000
0000
0000
0000
1001
0000
0000
1000
0100
1000
,
0001
0000
0101
0000
,
0100
0000
0000
0000
0000
0000
1010
0000
0000
0000
1000
0000
,
0001
0000
1001
0000
,
1000
0000
1100
0000
,
0200
0000
0000
0300
,
1000
0000
0000
0000
0000
0000
0001
0000
0100
0000
0001
0000
4000
0000
0000
0000
0000
0000
0000
0000
0000
3000
0000
0000
,
0001
0010
0100
0000
0110
0000
0010
0010
,
0002
0003
1000
0000
0001
0100
0020
0030
,
0100
0001
0010
0000
0110
0000
0100
0100
,
2000
3000
0001
0000
1000
0010
0200
0300
,
0001
0010
0100
0000
1100
0000
1000
1000
,
0020
0030
0100
0000
0001
0010
0200
0300
,
1000
0001
0100
0000
0101
0000
0001
0001
,
2000
3000
0000
0000
1000
0000
2000
3000
,
0001
0010
0100
0010
0001
1000
0010
0100
,
0010
1000
0001
0010
0100
1000
0100
1000
,
0001
0100
0010
0100
0001
0010
0100
1000
,
0000
0001
1000
0000
0010
0000
0010
0000
,
0100
0001
0100
0010
1000
0010
0100
0001
,
0010
0100
1000
0001
1000
0100
0010
0100
,
1000
0001
0100
0010
0100
0001
1000
0001
,
0010
0000
0100
0000
1000
0000
0010
0000
0100
0000
0001
0010
0100
0000
1000
0001
,
1000
0000
0001
0100
0001
0100
0010
0000
1000
0100
1000
0100
,
0010
0000
0000
0000
0000
0000
0000
0000
0000
0000
0000
0000
0000
0000
0000
0000
0000
0000
0000
0000
0000
0000
0000
0000
0000
0000
0000
0000
0000
0000
0000
0000
0001
0000
0000
0000
0000
0000
0000
0000
0000
0000
0000
0000
0000
0000
0000
0000
0100
0000
0000
0000
0000
0000
0000
0000
0000
0000
0000
0000
0000
0000
0000
0000
0000
0000
0000
0000
0000
0000
0000
0000
0000
0000
0000
0000
0000
0000
0000
0000
0001
0000
0000
0000
0000
0000
0000
0000
0000
0000
0000
0000
0000
0000
0000
0000
2000
0000
0000
0000
0000
0000
3000
0000
0000
0000
0000
0000
0000
0000
0000
0000
0000
0000
0000
0000
0000
0000
0000
0000
0000
0000
0000
0000
0000
0000
0000
0000
0000
0000
0000
0000
0000
0000
0000
0000
0000
0000
0000
0000
0000
0000
0000
0000
2000
0000
0000
0000
0000
0000
3000
0000
0000
0000
0000
0000
0000
0000
0000
0000
0000
0000
0000
0000
0000
0000
0000
0000
0000
0000
0000
0000
0000
0000
0000
0000
0000
0000
0000
0000
0000
0000
0000
0000
0000
0000
0000
0000
0000
0000
0000
0000
,
0001
0000
0010
0001
0010
0100
1000
0000
0001
1000
0001
1000
,
0010
0000
0100
0001
1000
0100
0020
0000
0030
0000
0000
0001
,
1000
0000
0001
0100
0001
0100
0010
0000
1000
0100
1000
0001
,
0010
0000
0000
0000
0000
0000
0000
0000
0000
0000
0000
0000
0000
0000
0000
0000
0000
0000
0000
0000
0000
0000
0000
0000
0000
0000
0000
0000
0000
0000
0000
0000
0100
0000
0000
0000
0000
0000
0000
0000
0000
0000
0000
0000
0000
0000
0000
0000
1000
0000
0000
0000
0000
0000
0000
0000
0000
0000
0000
0000
0000
0000
0000
0000
0000
0000
0000
0000
0000
0000
0000
0000
0000
0000
0000
0000
0000
0000
0000
0000
0001
0000
0000
0000
0000
0000
0000
0000
0000
0000
0000
0000
0000
0000
0000
0000
0200
0000
0000
0000
0000
0000
0300
0000
0000
0000
0000
0000
0000
0000
0000
0000
0000
0000
0000
0000
0000
0000
0000
0000
0000
0000
0000
0000
0000
0000
0000
0000
0000
0000
0000
0000
0000
0000
0000
0000
0000
0000
0000
0000
0000
0000
0000
0000
0200
0000
0000
0000
0000
0000
0300
0000
0000
0000
0000
0000
0000
0000
0000
0000
0000
0000
0000
0000
0000
0000
0000
0000
0000
0000
0000
0000
0000
0000
0000
0000
0000
0000
0000
0000
0000
0000
0000
0000
0000
0000
0000
0000
0000
0000
0000
0000
,
0001
0000
0100
0010
0100
0001
1000
0000
0001
0010
0100
0010
,
0001
0000
0100
0000
0010
0000
0100
0000
0001
0000
1000
0100
1000
0000
0001
1000
,
0001
0000
0000
0000
0001
0000
0000
0100
,
0000
0100
0000
0000
0100
0000
0000
0010
,
0000
0010
0000
0000
0010
0000
0000
1000
,
0000
1000
0001
1000
0100
0010
0100
1000
,
0001
0100
0001
1000
0010
0100
0001
0010
,
0100
1000
0001
0010
0100
1000
0010
1000
,
0001
0100
0010
0100
0001
1000
0010
1000
,
0001
0010
0100
1000
0010
0100
0010
1000
,
0001
0000
0100
0000
0010
0100
0010
0000
1000
0010
1000
0000
0001
0010
0001
1000
,
0100
0010
0100
1000
0001
0100
0001
1000
,
0100
0010
0001
0100
0010
0100
0001
1000
,
0100
0010
0100
1000
0001
0100
0001
1000
,
0002
0000
0000
0000
0003
0000
0000
0000
0002
0000
0000
0000
0003
0000
1000
0010
,
0100
0001
1000
0100
,
1000
0002
0023
0230
,
2300
0000
3001
0200
0320
0000
1030
0000
,
0001
0010
0001
2000
,
3020
0130
0001
0010
,
0100
2000
3200
0320
,
0032
0000
1003
0020
0230
0300
0002
0000
,
0000
0000
0000
0000
0000
0000
2003
3000
,
0002
1003
0100
1000
0001
0010
0100
1000
,
0001
0100
0020
0130
0002
1003
0200
0310
,
0002
0000
1003
0000
0100
0000
2000
3000
0002
0000
0013
0000
0100
0000
0010
0000
,
0001
1000
0020
0130
0020
1030
0002
0103
,
0002
0000
1003
0000
0100
0000
0020
0030
0002
0003
1000
0000
0020
0000
0130
0000
,
0020
0030
2000
3000
0002
0003
0010
0000
0200
0300
2000
3000
0002
0003
0100
0000
,
0002
1003
0100
0010
0001
1000
0001
0100
,
0010
1000
0001
0010
0001
1000
0100
0010
,
0001
0000
0000
0000
1000
0100
1000
0000
0001
0000
0100
0000
0000
0000
0001
0000
,
0100
0001
1000
0000
0001
0000
0010
0000
0100
0000
0000
0000
0100
0000
1000
0000
,
0001
0000
0000
0000
0100
0001
0100
0000
0010
0000
0000
0000
0000
0000
1000
0000
,
0001
0100
0001
0000
0010
0000
0100
0000
1000
0000
0000
0000
0000
0000
0001
0100
,
0020
0030
1000
0000
0020
0030
0100
0000
0001
0000
0010
0000
0100
0000
1000
0000
,
0001
0000
0100
0000
0010
0000
0100
0000
0002
0003
2000
0000
0000
0000
3000
0000
,
0002
0013
0100
1000
0010
0100
0001
1000
,
0100
0000
0010
0000
0100
0000
1000
0000
0002
0003
0200
0000
0000
0000
0300
0000
,
0002
1003
0100
0010
0100
1000
0001
0100
,
0010
0000
1000
0000
0001
0000
1000
0000
0200
0300
0020
0000
0000
0000
0030
0000
,
0004
1003
0100
1000
2002
3003
0000
0000
,
0001
0000
0010
0000
0220
0330
0000
0000
,
0200
0300
1000
0000
0010
0000
0100
0000
0020
0030
1000
0000
0001
0000
0010
0000
,
0200
0300
1000
0000
0001
0000
1000
0000
0200
0300
0010
0000
0001
0000
1000
0000
,
0002
0003
0100
0000
0020
0030
0200
0300
0001
0000
1000
0000
0002
0003
0020
0030
,
0100
0000
1000
0000
0010
0000
1000
0000
0002
0003
0100
0000
0001
0000
1000
0000
,
0200
0300
0010
0000
0002
0003
0200
0300
0010
0000
1000
0000
0020
0030
0200
0300
,
0001
0000
1000
0000
0200
0300
0010
0000
0002
0003
1000
0000
0002
0003
0200
0300
,
0010
0000
2000
3000
0200
0300
2000
3000
0001
0000
0010
0000
0100
0000
1000
0000
,
0001
0100
0010
0100
0001
1000
0010
0100
,
0002
0003
1000
0000
0010
0000
0100
0000
0020
0030
1000
0000
0001
0000
0010
0000
,
0200
0300
1000
0000
0001
0000
1000
0000
0200
0300
0010
0000
0001
0000
1000
0000
,
0002
0003
0100
0000
0020
0030
0200
0300
0001
0000
1000
0000
0002
0003
0020
0030
,
0100
0000
1000
0000
0010
0000
1000
0000
0002
0003
0100
0000
0001
0000
1000
0000
,
0200
0300
0010
0000
0002
0003
0200
0300
0010
0000
1000
0000
0020
0030
0200
0300
,
0001
0000
1000
0000
0200
0300
0010
0000
0002
0003
2000
3000
0002
0003
0200
0300
,
0020
0030
2000
3000
0200
0300
2000
3000
0001
0000
0010
0000
0100
0000
1000
0000
,
0001
0100
0001
0100
0001
0100
0001
0100
,
0001
0000
0001
0000
0001
0000
0001
0000
0000
0040
0000
0000
,
0000
0000
0000
0030
0000
0000
0100
0000
1000
0000
0001
0000
,
0100
0000
0000
0000
0100
0000
0000
0100
0000
0000
0100
0000
0000
0100
0000
0000
,
0040
4000
0000
0000
0000
0000
0000
0000
0000
0030
3000
0000
,
0001
0001
0001
4000
,
0000
0000
0000
0000
0000
3000
0001
0000
0100
0000
0010
0000
,
0400
0000
0000
0000
0300
0000
0000
0000
0000
0400
0000
0000
0300
0000
0000
0000
0000
0000
0400
0000
0000
0300
0000
0000
,
M000
M000
M000
M000
,
0001
0100
0010
1000
0000
1000
0000
1000
,
0100
0010
0100
1000
,
0001
0100
0010
1000
0000
1000
0000
1000
,
0001
0000
0010
0000
0200
0300
0000
0000
,
1000
0001
0100
0010
0000
0010
0000
0010
,
1000
0100
1000
0001
,
0100
0010
1000
0001
0000
0001
0000
1000
,
0100
0010
0001
0000
,
1000
0000
0100
0000
1000
0000
0001
0000
0100
0000
0010
0000
0100
0000
0001
1000
,
0100
0000
0000
0000
0100
0000
0000
0000
0100
0000
0000
0000
0100
0000
0000
0000
0000
0000
0100
0000
0000
1000
0000
0000
,
0001
0000
0100
0000
0010
0000
0100
0000
0001
0000
1000
0000
0100
0000
0010
0001
,
1000
0000
0000
0000
1000
0000
0000
0000
1000
0000
0000
0000
1000
0000
0000
0000
0000
0000
1000
0000
0000
0010
0000
0000
,
0100
0000
0004
0003
0010
0000
0400
0300
0010
0000
0004
0003
1000
0000
0020
0030
,
0100
0000
0004
0003
0010
0000
0400
0300
0010
0000
0004
0003
1000
0000
0020
1030
,
0001
0100
0001
1000
0100
0010
0001
0100
,
0010
0000
1000
0000
0001
0000
0100
0000
0001
0000
1000
0000
0100
0010
0100
0010
,
0001
1000
0010
0100
0010
1000
0001
0100
,
0001
0010
0100
0010
0001
1000
0100
0010
,
0001
1000
0010
0100
0001
1000
0001
0100
,
0001
1000
0100
1000
0001
0010
0100
1000
,
0001
0100
0010
0100
0001
1000
0010
0100
,
0001
1000
0100
0010
0100
1000
0001
0010
,
0001
1000
0010
0100
0001
1000
0001
0100
,
0010
1000
0100
0010
0001
1000
0100
1000
,
0004
0000
0000
0000
0000
0000
0000
0003
,
1000
0100
0100
0001
1000
0100
0100
0001
,
1000
0010
0010
0001
1000
0010
0010
0001
,
1000
0100
0100
0010
1000
0100
0100
0010
,
1000
0010
0010
0100
1000
0010
0010
0100
,
1000
0100
0100
0001
1000
0100
0100
0001
,
1000
0010
0010
0001
1000
0010
0010
0001
,
1000
0000
0000
0000
0000
0000
0000
0000
0000
0000
0010
0000
0000
0000
0000
0000
0000
0000
0000
0100
0000
0000
0000
0000
0000
0000
0000
0000
0000
0010
0000
0000
0000
0000
0000
0000
0000
0000
1000
0000
0000
0000
0000
0000
0000
0000
0000
0001
0000
0000
0000
0000
0000
0000
0000
0000
0000
0000
0010
0000
0000
0000
0000
0000
,
0000
0000
0000
0000
0100
0000
0000
0000
0000
0000
0000
2002
0000
0000
0000
0000
0000
0000
0000
0000
0000
0000
0000
0000
0000
0000
0000
0000
0000
0000
0000
0000
,
0000
0000
0000
0000
0000
3003
0000
0000
,
0001
1000
0001
1000
0010
0000
0100
0000
,
0000
0000
0011
1100
0022
0033
0000
0000
;
