#TITLE:Here We Go;
#SUBTITLE:;
#ARTIST:m1dy;
#TITLETRANSLIT:;
#SUBTITLETRANSLIT:;
#ARTISTTRANSLIT:;
#CREDIT:;
#BANNER:../fallback-bn.png;
#BACKGROUND:../fallback-bg.png;
#LYRICSPATH:;
#CDTITLE:;
#MUSIC:Here We Go.ogg;
#OFFSET:-1.030;
#SAMPLESTART:15.055;
#SAMPLELENGTH:12.000;
#SELECTABLE:YES;
#BPMS:0.000=400.000,123.000=133.330,124.000=400.000,308.000=200.000,312.000=400.000,376.000=100.000,392.000=200.000,520.000=100.000,528.000=50.000,530.000=20.000,532.000=400.000,588.000=50.000,589.000=400.000;
#STOPS:118.500=0.020
,118.750=0.020
,119.000=0.020
,119.250=0.020
,119.500=0.020
,119.750=0.020
,120.000=0.020
,120.250=0.020
,120.500=0.020
,120.750=0.020
,121.000=0.020
,121.250=0.020
,121.500=0.020
,121.750=0.020
,122.000=0.020
;
#BGCHANGES:;
// cache tags:
#FIRSTBEAT:64.000;
#LASTBEAT:918.000;
#SONGFILENAME:Songs/SSSC PACK/[Windeu] - Here We Go/Here We Go.sm;
#HASMUSIC:1;
#HASBANNER:1;
#MUSICLENGTH:181.995;
// end cache tags

//---------------dance-single - WinDEU----------------
#NOTES:
     dance-single:
     WinDEU:
     Challenge:
     14:
     1.000,1.000,0.451,0.418,0.143,1182.000,82.000,76.000,0.000,0.000:

0000
0000
0000
0000
,
0000
0000
0000
0000
,
0000
0000
0000
0000
,
0000
0000
0000
0000
,
0000
0000
0000
0000
,
0000
0000
0000
0000
,
0000
0000
0000
0000
,
0000
0000
0000
0000
,
0000
0000
0000
0000
,
0000
0000
0000
0000
,
0000
0000
0000
0000
,
0000
0000
0000
0000
,
0000
0000
0000
0000
,
0000
0000
0000
0000
,
0000
0000
0000
0000
,
0000
0000
0000
0000
,
2200
0000
0000
0000
,
0000
0000
0000
0000
,
0000
0000
0000
0000
,
0000
0000
3300
0000
,
0022
0000
0000
0000
,
0000
0000
0000
0000
,
0000
0000
0000
0000
,
0000
0000
0033
0000
,
0202
0000
0000
0000
,
0000
0000
0303
0000
,
2020
0000
0000
0000
,
0000
0000
3030
0000
,
1001
0000
1001
0000
,
0001
0100
0010
1000
0001
0000
0000
0000
,
0000
0000
0000
1001
,
0001
0100
0010
0100
,
0001
1000
0100
0010
,
0001
0000
1000
0010
0100
0000
0001
0000
,
0100
0010
1000
0000
0100
0000
0010
0001
,
1000
0010
0100
0010
,
1000
0001
0010
0100
,
1001
0000
0100
0001
0100
0000
1001
0000
,
0010
0000
1000
0010
0100
0000
0001
0010
,
0100
1000
0100
0010
,
0001
0100
0010
1000
,
0100
0000
0010
0001
1000
0000
0010
0000
,
0100
0010
1000
0000
0100
0000
0010
0000
,
0001
1000
0010
0100
,
0010
1000
0100
0022
,
0000
0033
0001
1000
0001
0000
1010
0000
,
1000
0010
0100
0001
0010
0000
0100
1000
,
0001
0100
0010
1000
,
0100
0010
0001
0200
,
0310
0000
1000
0001
0010
0000
0200
0000
,
1300
0100
1000
0100
0020
0000
0031
0100
,
0010
1000
0010
0100
,
0001
0010
0100
2000
,
3100
0010
0001
1000
0010
0000
0100
0001
,
0100
0010
1000
0001
0020
0000
0130
1000
,
0001
0100
0010
1000
,
0010
0100
0001
2000
,
3100
0000
0010
0001
1000
0000
0020
0000
,
0130
0001
1000
0100
1000
0000
0001
0000
,
1100
0001
1100
0001
1100
0001
1100
0001
,
1100
0001
1100
0001
1100
0001
2100
0000
,
0000
0000
3001
0100
0001
0000
1000
0000
,
0010
0100
0001
1000
0200
0000
0300
0000
,
1000
0010
0100
0010
,
1000
0001
0010
0100
,
1000
0001
0100
0010
,
1000
0000
0010
0000
0100
0000
0010
1000
,
0001
0010
0100
0010
,
0001
0000
1000
0000
0010
1000
0002
0000
,
0000
0000
0013
0100
1000
0000
0101
0000
,
1000
0000
0001
1000
0020
0000
0130
0001
,
1000
0100
0010
0001
,
0010
0100
1000
0010
,
0100
0001
0010
0100
,
0010
0000
0001
0000
0100
0000
0010
1000
,
0001
0101
0101
0101
,
0101
0101
0101
0101
,
0001
0000
1000
0001
0100
0000
0001
1000
0010
0000
1000
0001
0100
0000
0000
0000
,
0001
0100
0010
1000
,
0100
0010
0001
1000
,
0010
0000
0100
0010
1000
0000
0001
0000
,
0010
0100
1000
0100
0010
0000
0001
0000
,
0100
0010
1000
0010
,
0100
0001
1000
0100
,
0010
0001
0100
0010
1000
0000
0010
0100
,
0001
0000
1000
0000
0100
1000
0100
0000
,
0010
0000
0001
1000
0001
0000
1010
0000
,
0100
0001
0100
0000
1010
0000
0100
0001
,
0010
0100
1000
0010
0100
0001
0010
0100
,
1000
0000
0001
0000
0100
0010
1000
0000
,
0010
0100
0001
1000
0100
1000
0001
0100
,
0010
1000
0001
1000
0100
0000
1001
0000
,
0000
0100
1001
0000
,
2002
0000
3003
0000
,
0002
0000
0000
0020
0000
0000
0033
0000
0200
0000
0000
2000
0000
0000
3300
0000
,
0020
0000
0000
0000
0000
0000
2000
0000
0000
0000
0000
0000
3030
0000
0000
0000
0010
0000
0010
1000
0010
0000
1000
0000
1010
0000
0002
0000
0000
0000
0003
0000
,
0020
0000
0000
0200
0000
0000
0330
0000
2000
0000
0000
0002
0000
0000
3003
0000
,
0200
0000
0000
0000
0000
0000
0002
0000
0000
0000
0000
0000
0303
0000
0000
0000
0100
0000
0100
0001
0100
0000
0001
0000
0101
0000
2000
0000
0000
0000
3000
0000
,
0100
0000
1000
0100
1000
0000
0001
0000
0100
0001
0100
0000
0010
0000
1000
0010
,
1000
0000
0001
0000
0010
0001
0010
0000
0100
0000
1000
0100
1000
0000
0001
0000
,
0100
0000
0010
1000
0010
0000
0100
0000
0001
0100
0001
0000
1000
0000
0100
1000
,
0100
0000
0010
0000
0001
1000
0001
0000
1000
0000
0010
1000
0010
0000
0100
0000
,
0001
0000
1000
0100
1000
0000
0100
0000
0010
0100
0010
0000
0001
0000
1000
0001
,
1000
0000
0010
0000
1000
0010
1000
0000
0010
0000
0100
0010
0100
0000
0001
0000
,
1000
0000
0001
0100
0001
0000
1000
0000
0100
1000
0100
0000
1000
0000
1001
0000
,
0000
0000
0101
0000
1100
0000
0000
0000
1001
0000
0000
1000
0001
0000
1000
0000
,
0001
0100
0010
1000
0100
1000
0010
0100
,
0001
1000
0100
0010
0100
1000
0010
0100
,
0001
1000
0100
1000
0010
0100
0001
1000
,
0100
0000
1000
0100
0010
0000
0001
0000
0011
0000
1000
0000
0010
0000
0100
0000
,
0010
1000
0001
1000
0100
0010
0100
1000
,
0001
0010
0100
0010
0001
1000
0010
0100
,
0001
0100
0010
1000
0100
1000
0010
0100
,
0001
0000
0100
0010
1000
0000
0010
0000
1010
0000
0001
1000
0100
0000
1000
0000
,
0100
0010
0001
0100
0010
0100
0001
0010
,
0100
1000
0010
0100
0010
1000
0100
0010
,
0001
0100
0010
1000
0100
0010
0001
0100
,
0001
0000
0010
0100
1000
0000
0100
0000
1100
0000
0001
0000
0100
0000
0010
0000
,
1000
0100
1000
0010
0100
0001
1000
0100
,
0010
0001
0100
0001
0010
0100
1000
0010
,
0100
0010
1000
0001
0100
0010
1000
0100
,
1000
0000
0001
0100
0010
0000
1000
0000
1010
0000
0001
0000
1000
0001
0100
0000
,
0010
0000
0010
0000
0010
0000
0010
0010
,
0010
0000
0000
0000
0010
0000
0000
0000
0010
0000
0000
0100
0010
0000
0010
0000
,
0010
0000
0010
0000
0010
0000
0010
0010
,
0010
0000
0000
0100
0010
0000
0010
0000
0010
0000
0010
0000
0010
0000
0010
0000
,
0010
0000
0010
0000
0010
0000
0010
0010
,
0010
0000
0000
0000
0010
0000
0000
0000
0010
0000
0000
0100
0010
0000
0010
0000
,
0010
0000
0010
0000
0010
0000
0010
0010
,
0010
0000
0000
0100
0010
0000
0010
0000
0010
0000
0010
0000
0010
0000
0010
0000
,
1002
0000
0000
0200
0000
0000
0303
0000
2001
0000
0000
0200
0000
0000
3300
0000
,
1002
0000
0000
0000
0000
0000
0200
0000
0000
0000
0000
0000
0303
0000
0000
0000
0001
0000
0100
0010
1000
0000
0001
0000
0011
0000
1000
0000
0000
0000
0000
0000
,
2000
0000
0000
0000
3020
0000
0000
0000
0230
0000
0000
0000
0000
0000
0000
0300
,
0001
0100
0010
1000
0100
0010
0001
0100
,
0010
1000
0100
0010
0001
0100
0010
1000
,
0010
1000
0001
0100
0001
1000
0100
1000
,
0001
0010
0100
0010
0001
1000
0001
0100
,
0010
0100
0001
0100
0010
1000
0010
0100
,
0010
1000
0001
1000
0100
1000
0001
0010
,
0001
0100
0010
1000
0001
1000
0100
0010
,
0100
1000
0001
0010
0001
0100
0001
1000
,
0010
0100
0010
1000
0001
0010
0100
1000
,
0100
0010
0001
1000
0010
0100
0001
0100
,
0010
1000
0001
1000
0100
0010
0001
1000
,
0001
0100
0010
1000
0100
1000
0010
0100
,
0001
1000
0100
0010
0001
1000
0001
0100
,
0010
1000
0010
0100
0010
1000
0001
1000
,
0002
0000
0000
0003
1100
0000
0001
0000
1100
0000
0001
0000
1100
0000
0001
0000
,
1100
0001
1100
0001
1100
0001
1100
0001
,
1100
0001
0100
0000
0001
0100
0010
1000
,
0010
1000
0001
0010
0100
0010
0100
1000
,
0001
0100
0001
1000
0010
0100
0010
1000
,
0010
0100
0001
0100
0010
1000
0001
0010
,
0001
1000
0001
0100
0001
1000
0100
1000
,
0001
0010
0100
0010
0001
1000
0010
1000
,
0001
0010
0001
1000
0010
0100
0001
0100
,
0001
1000
0100
1000
0001
0100
0001
1000
,
0010
0100
0010
1000
0001
0010
0100
0010
,
0001
1000
0010
0100
0010
1000
0001
0010
,
0001
1000
0100
1000
0001
0010
0100
0010
,
0001
1000
0010
1000
0001
0100
0001
1000
,
0010
0100
0001
1000
0001
1000
0001
1000
,
0001
1000
0001
1000
0001
1000
0001
1000
,
0002
0000
0000
0000
1003
0010
1000
0000
,
0002
0000
1003
0100
1000
0001
2000
0000
,
3000
0000
0010
0100
0001
1000
0100
0010
,
0001
1000
0010
0100
0001
1000
0001
0010
,
0100
1000
0001
0100
0010
1000
0001
0010
,
0100
1000
0010
0100
0010
1000
0001
0010
,
0100
0010
0001
0100
0010
1000
0010
0100
,
0001
1000
0100
1000
0010
1000
0001
0010
,
0002
0000
0000
0000
1003
0100
1000
0000
,
0002
0000
1003
0000
0001
0100
0001
0000
,
1000
0100
1000
0010
0100
0001
0010
0100
,
1000
0001
0100
0010
0100
0001
1000
0100
,
0010
0001
0100
0010
1000
0100
1000
0001
,
0100
0010
0100
0001
1000
0100
0010
0100
,
1000
0001
0010
0100
0010
0001
1000
0010
,
0100
0010
1000
0010
0100
0001
0100
0010
,
1000
0000
0011
1000
0011
1000
0011
1000
,
0011
1000
0011
1000
0011
1000
0011
1000
,
0011
0000
1000
0010
0100
0001
0100
0010
,
1000
0001
0010
0100
1000
0100
0010
0001
,
1000
0001
0100
0010
1000
0010
0100
0001
,
1000
0100
1000
0001
1000
0100
0010
0001
,
0010
0100
1000
0001
0100
0010
0100
0001
,
1000
0100
1000
0001
0100
0001
1000
0010
,
1000
0001
0010
0001
0100
0010
1000
0100
,
1000
0010
0100
0001
0010
0001
0100
0010
,
1000
0001
0010
0100
1000
0100
0010
0001
,
0010
0100
0010
0001
1000
0010
0100
0001
,
0100
0010
1000
0010
0100
0010
1000
0001
,
0100
0010
1000
0001
0010
0001
1000
0100
,
1000
0000
0101
1000
0101
1000
0101
1000
,
0101
1000
0101
1000
0101
1000
0101
1000
,
0102
0000
0000
0000
1003
0100
1000
0000
,
0020
0000
0130
0001
0100
0010
1000
0000
,
0000
2002
0000
0000
,
0000
0000
0000
3003
,
0001
0000
1000
0000
0010
0100
0001
0000
,
1000
0000
0100
0010
0001
0000
1000
0000
,
0010
2020
0000
0000
,
0000
0000
0000
3030
,
0010
0000
0100
0000
0001
1000
0100
0000
,
0010
0000
0001
1000
0010
0000
0100
0000
,
0001
0202
0000
0000
,
0000
0000
0000
0303
,
0100
0000
0010
0000
1000
0001
0010
0000
,
0100
0000
0010
0001
1000
0000
0010
0000
,
0100
0220
0000
0000
,
0000
0000
0000
0330
,
0010
0000
1000
0000
0001
0010
0100
0000
,
0010
0000
0001
1000
0010
0000
1000
0000
,
0100
2200
0000
0000
,
0000
0000
0000
0000
,
0000
0000
0000
0000
,
0000
0000
0000
3300
,
0000
0022
0000
0000
,
0000
0000
0000
0000
,
0000
0000
0000
0000
,
0000
0000
0000
0033
,
0000
2002
0000
0000
,
0000
0000
0000
3003
,
0000
2020
0000
0000
,
0000
0000
0000
3030
,
0000
0202
0303
2200
,
3300
0000
0100
1000
0100
0010
0001
0000
,
1000
0000
0010
0000
0100
0001
1000
0000
,
0100
0000
1000
0001
0010
0000
0110
0000
,
2002
0000
3003
0000
;
