#TITLE:Reunion;
#SUBTITLE:;
#ARTIST:Tatsh;
#TITLETRANSLIT:;
#SUBTITLETRANSLIT:;
#ARTISTTRANSLIT:;
#CREDIT:;
#BANNER:../banner.png;
#BACKGROUND:../bg.png;
#LYRICSPATH:;
#CDTITLE:;
#MUSIC:Reunion.ogg;
#OFFSET:-0.126;
#SAMPLESTART:82.300;
#SAMPLELENGTH:21.060;
#SELECTABLE:YES;
#BPMS:0.000=184.000;
#STOPS:;
#BGCHANGES:;
// cache tags:
#FIRSTBEAT:10.000;
#LASTBEAT:366.000;
#SONGFILENAME:Songs/Cirque du Lykan/Reunion - [Zaia]/Reunion.sm;
#HASMUSIC:1;
#HASBANNER:1;
#MUSICLENGTH:120.293;
// end cache tags

//---------------dance-single - Zaia - 13(high)----------------
#NOTES:
     dance-single:
     Zaia - 13(high):
     Challenge:
     13:
     1.000,1.000,0.341,0.532,0.985,834.000,41.000,64.000,0.000,28.000:
0000
0000
0000
0000
,
0000
0000
0000
0000
,
0000
0000
0000
0000
0000
0000
0000
0000
1000
0100
0010
0001
1000
0001
0100
0010
,
1000
0100
1000
0001
0100
0001
1000
0100
,
0010
0001
1000
0010
0100
0001
1000
0010
,
1000
0001
0010
0001
1000
0010
1000
0001
,
1000
0000
0100
0000
0010
0000
0100
0000
1000
0000
0001
0000
0100
0000
0000
0010
,
1000
0001
0010
0100
0010
0001
1000
0010
,
1000
0001
0010
0100
1000
0001
0100
0001
,
1000
0100
0010
0100
1000
0001
1000
0010
0100
0001
1000
0001
0010
0001
1000
0010
,
0200
0000
0000
0000
0000
0000
0000
0300
0001
0000
0100
0010
0100
0000
0001
1000
,
0001
0010
0100
1000
0010
1000
0100
1000
,
0001
0100
0001
0010
0001
0100
0001
1000
,
0100
0010
0100
1000
0001
1000
0010
0100
,
0010
1000
0001
0100
0001
0010
0100
1000
,
0100
0010
0100
1000
0001
0100
0010
0100
,
0001
1000
0100
1000
0001
0010
0001
1000
,
0010
0100
0001
0010
0100
1000
0001
0100
,
0010
0000
1000
0000
1000
0000
0000
0000
0001
0100
0010
1000
0001
1000
0100
0010
,
0001
1000
0001
1000
0001
0100
0001
0100
0010
0100
0010
0100
0010
1000
0010
1000
,
0100
1000
0100
1000
0100
0010
0100
0010
0001
0010
0001
0010
0001
1000
0010
0100
,
0001
0010
0001
0010
0100
1000
0100
1000
0001
0100
0001
0100
0010
1000
0010
1000
,
0001
1000
0001
1000
0100
0010
0100
0010
0001
0100
0001
0100
0010
1000
0001
1000
,
0100
0010
0100
0010
0001
0010
0001
0010
0100
1000
0100
1000
0010
1000
0010
1000
,
0001
0100
0001
0100
0001
1000
0001
1000
0100
0010
0100
0010
0100
1000
0010
0100
,
0001
1000
0001
1000
0001
0010
0001
0010
0100
1000
0100
1000
0010
0100
0010
0100
,
0001
1000
0100
1000
0001
1000
0010
0100
0001
1000
0001
0010
0100
1000
0010
0100
,
0001
0000
0000
0000
0100
0000
0000
0000
0010
0000
0000
0000
2210
3300
0000
0000
,
1000
0000
0000
0000
0100
0000
0000
0000
0212
0303
0000
0000
0001
0000
0000
0000
,
0100
0000
0000
0000
2210
3300
0000
0000
1000
0000
0001
0000
0010
0000
0000
0000
,
0212
0303
0000
0000
0001
0000
1000
0000
0010
0000
0000
0000
2210
3300
0000
0000
,
0100
0000
0001
0000
0010
0000
0000
0000
0212
0303
0000
0000
0100
0000
1000
0000
,
0010
0000
0000
0000
0122
0033
0000
0000
0100
0000
0001
0000
0010
0000
0100
0000
,
2120
3030
0000
0000
0100
0000
1000
0000
0010
0000
0100
0000
2210
3300
0000
0000
,
0010
0000
0100
0000
0001
0000
1000
0000
0212
0303
0000
0000
0010
0000
0100
0000
,
1000
0000
0001
0000
2210
3300
0000
0000
0100
0000
0001
0000
0010
0000
0100
0000
,
0212
0303
0000
0000
0010
0000
0001
0000
0100
0000
0010
0000
2210
3300
0000
0000
,
0010
0000
1000
0000
0100
0000
0010
0000
0212
0303
0000
0000
0001
0000
0100
0000
,
0010
0000
1000
0001
1000
0010
1000
0001
0010
0001
1000
0010
0100
0001
1000
0100
,
0010
0001
0100
0010
1000
0100
0010
0001
,
0100
0010
1000
0100
0010
0010
0100
0100
,
1000
0010
0100
0001
0010
0100
1000
0010
,
0100
0001
0010
0100
1000
1000
0010
0010
,
0100
0001
1000
0100
0010
0100
1000
0010
,
0100
0000
0001
0000
0010
0000
0100
0000
0010
0000
0001
0000
0100
0010
1000
0100
,
0010
0001
1000
0010
,
0100
0000
0000
0000
0001
0000
0100
0000
0010
0000
1000
0000
0100
0010
0001
1000
,
0001
0000
0100
0010
1000
0001
0010
0100
,
1000
0001
1000
0010
0100
0001
0010
0001
,
0100
0010
1000
0100
0010
0100
1000
1000
,
0001
0001
0100
0000
0010
1000
0100
0010
,
0001
0000
0000
1000
0100
1000
0010
0100
,
0000
0000
0000
0000
0000
0001
0100
0010
,
1000
0000
0000
0000
,
0001
0010
0100
1000
0001
0100
0010
1000
0001
1000
0001
0010
0001
1000
0010
0100
,
0001
1000
0001
0010
0100
0010
0001
1000
0010
0100
0001
0100
0010
1000
0001
0010
,
0100
1000
0010
0100
0001
0010
0100
1000
0001
1000
0010
0100
0001
1000
0001
1000
,
0100
0010
0100
1000
0001
0100
0001
1000
0100
1000
0001
0100
0010
0100
0001
1000
,
0001
0010
0100
1000
0001
1000
0010
0100
0001
1000
0100
0010
0001
0010
0100
1000
,
0010
0100
0001
1000
0010
1000
0001
0010
0001
1000
0001
0100
0010
0100
0001
1000
,
0001
0010
0100
1000
0001
0100
0010
0100
0001
1000
0100
0010
0001
1000
0010
0100
,
0001
0010
0100
1000
0010
1000
0001
0010
0001
1000
0100
0010
0100
1000
0001
1000
,
0010
0100
0001
1000
0100
0010
0001
0100
0001
0010
0100
1000
0001
0100
0010
1000
,
0010
0100
0001
0010
0100
1000
0001
0010
0001
1000
0010
1000
0001
0100
0010
0100
,
0001
1000
0100
0010
0001
1000
0010
0100
0001
1000
0100
1000
0001
0010
0100
1000
,
0010
0100
0001
0010
0001
0100
0010
0100
0001
1000
0100
0010
0001
1000
0001
0100
,
0010
1000
0100
1000
0001
0100
0001
1000
0100
0010
0001
1000
0001
0100
0010
1000
,
0001
0100
0001
0010
0100
1000
0001
0100
0001
1000
0100
1000
0001
0010
0100
0010
,
0001
1000
0001
0100
0010
1000
0001
1000
0100
1000
0001
0100
0010
1000
0001
0010
,
0100
1000
0010
0100
0001
1000
0100
0010
0001
0100
0010
1000
0001
0010
0001
1000
,
0100
1000
0001
0100
0001
0100
0010
1000
0001
1000
0001
0010
0001
1000
0010
0100
,
0001
0000
0000
0000
0010
0000
0000
0000
0100
0000
0000
0000
1220
0330
0000
0000
,
1000
0000
0000
0000
0010
0000
0000
0000
0122
0033
0000
0000
0001
0000
0000
0000
,
0010
0000
0000
0000
2120
3030
0000
0000
1000
0000
0001
0000
0100
0000
0000
0000
,
0122
0033
0000
0000
0001
0000
1000
0000
0100
0000
0000
0000
2120
3030
0000
0000
,
0010
0000
0001
0000
0100
0000
0000
0000
0122
0033
0000
0000
0010
0000
1000
0000
,
0100
0000
0000
0000
0212
0303
0000
0000
0010
0000
0001
0000
0100
0000
0010
0000
,
2210
3300
0000
0000
0010
0000
1000
0000
0100
0000
0010
0000
2120
3030
0000
0000
,
0100
0000
0010
0000
0001
0000
1000
0000
0122
0033
0000
0000
0100
0000
0010
0000
,
1000
0000
0001
0000
2120
3030
0000
0000
0010
0000
0001
0000
0100
0000
0010
0000
,
0122
0033
0000
0000
0100
0000
0002
0003
0010
0000
0100
0000
2120
3030
0000
0000
,
0100
0000
1000
0000
0001
0000
0100
0000
0122
0033
0000
0000
0001
0000
0010
0000
,
0100
0000
1000
0001
1000
0100
1000
0001
0100
0001
1000
0100
0010
0001
1000
0010
,
0100
0000
0000
0000
1001
0000
1000
1100
,
0000
0100
0110
0000
0010
0011
0000
0001
,
1001
0000
1010
0000
0110
0000
0100
0101
,
0000
0001
1001
0000
0010
0110
0000
1000
,
1001
0001
0100
0010
2000
0000
0000
0000
,
0000
3200
0000
0000
0320
0000
0000
0000
,
0000
0230
0000
0300
1001
2002
0000
0000
,
0000
0000
0000
0000
,
0000
0000
3003
0000
;

//---------------dance-single - Zaia - 12(mid)----------------
#NOTES:
     dance-single:
     Zaia - 12(mid):
     Hard:
     12:
     1.000,1.000,0.341,0.532,0.545,728.000,41.000,64.000,0.000,28.000:
0000
0000
0000
0000
,
0000
0000
0000
0000
,
0000
0000
0000
0000
0000
0000
0000
0000
1000
0100
0010
0001
1000
0001
0100
0010
,
1000
0100
1000
0001
0100
0001
1000
0100
,
0010
0001
1000
0010
0100
0001
1000
0010
,
1000
0001
0010
0001
1000
0010
1000
0001
,
1000
0000
0100
0000
0010
0000
0100
0000
1000
0000
0001
0000
0100
0000
0000
0010
,
1000
0001
0010
0100
0010
0001
1000
0010
,
1000
0001
0010
0100
1000
0001
0100
0001
,
1000
0100
0010
0100
1000
0001
1000
0010
0100
0001
1000
0001
0010
0001
1000
0010
,
0200
0000
0000
0000
0000
0000
0000
0300
0001
0000
0100
0010
0100
0000
0001
1000
,
0001
0010
0100
1000
0010
1000
0100
1000
,
0001
0100
0001
0010
0001
0100
0001
1000
,
0100
0010
0100
1000
0001
1000
0010
0100
,
0010
1000
0001
0100
0001
0010
0100
1000
,
0100
0010
0100
1000
0001
0100
0010
0100
,
0001
1000
0100
1000
0001
0010
0001
1000
,
0010
0100
0001
0010
0100
1000
0001
0100
,
0010
0000
1000
0000
1000
0000
0000
0000
0001
0100
0010
1000
0001
1000
0100
0010
,
0001
1000
0001
0100
0001
0010
0001
1000
,
0100
0000
1000
0000
0001
0000
1000
0000
0010
0000
1000
0000
0001
1000
0010
0100
,
0001
0010
0001
0100
0001
1000
0001
0010
,
0001
0000
1000
0000
0100
0000
1000
0000
0001
0000
1000
0000
0010
1000
0001
1000
,
0100
0010
0100
1000
0001
1000
0010
0100
,
0001
0000
0010
0000
0001
0000
1000
0000
0001
0000
0010
0000
0100
1000
0010
0100
,
0001
0010
0001
0100
0001
1000
0001
0010
,
0001
1000
0100
1000
0001
1000
0010
0100
0001
1000
0001
0010
0100
1000
0010
0100
,
0001
0000
0000
0000
0100
0000
0000
0000
0010
0000
0000
0000
2210
3300
0000
0000
,
1000
0000
0000
0000
0100
0000
0000
0000
0212
0303
0000
0000
0001
0000
0000
0000
,
0100
0000
0000
0000
2210
3300
0000
0000
1000
0000
0001
0000
0010
0000
0000
0000
,
0212
0303
0000
0000
0001
0000
1000
0000
0010
0000
0000
0000
2210
3300
0000
0000
,
0100
0000
0001
0000
0010
0000
0000
0000
0212
0303
0000
0000
0100
0000
1000
0000
,
0010
0000
0000
0000
0122
0033
0000
0000
0100
0000
0001
0000
0010
0000
0100
0000
,
2120
3030
0000
0000
0100
0000
1000
0000
0010
0000
0100
0000
2210
3300
0000
0000
,
0010
0000
0100
0000
0001
0000
1000
0000
0212
0303
0000
0000
0010
0000
0100
0000
,
1000
0000
0001
0000
2210
3300
0000
0000
0100
0000
0001
0000
0010
0000
0100
0000
,
0212
0303
0000
0000
0010
0000
0001
0000
0100
0000
0010
0000
2210
3300
0000
0000
,
0010
0000
1000
0000
0100
0000
0010
0000
0212
0303
0000
0000
0001
0000
0100
0000
,
0010
0000
1000
0001
1000
0010
1000
0001
0010
0001
1000
0010
0100
0001
1000
0100
,
0010
0001
0100
0010
1000
0100
0010
0001
,
0100
0010
1000
0100
0010
0010
0100
0100
,
1000
0010
0100
0001
0010
0100
1000
0010
,
0100
0001
0010
0100
1000
1000
0010
0010
,
0100
0001
1000
0100
0010
0100
1000
0010
,
0100
0000
0001
0000
0010
0000
0100
0000
0010
0000
0001
0000
0100
0010
1000
0100
,
0010
0001
1000
0010
,
0100
0000
0000
0000
0001
0000
0100
0000
0010
0000
1000
0000
0100
0010
0001
1000
,
0001
0000
0100
0010
1000
0001
0010
0100
,
1000
0001
1000
0010
0100
0001
0010
0001
,
0100
0010
1000
0100
0010
0100
1000
1000
,
0001
0001
0100
0000
0010
1000
0100
0010
,
0001
0000
0000
1000
0100
1000
0010
0100
,
0000
0000
0000
0000
0000
0001
0100
0010
,
1000
0000
0000
0000
,
0001
0010
0100
1000
0001
0100
0010
1000
0001
1000
0001
0010
0001
1000
0010
0100
,
0001
1000
0001
0010
0100
0010
0001
1000
0010
0100
0001
0100
0010
1000
0001
0010
,
0100
1000
0010
0100
0001
0010
0100
1000
0001
1000
0010
0100
0001
1000
0001
1000
,
0100
0010
0100
1000
0001
0100
0001
1000
0100
1000
0001
0100
0010
0100
0001
1000
,
0001
0010
0100
1000
0001
1000
0010
0100
0001
1000
0100
0010
0001
0010
0100
1000
,
0010
0100
0001
1000
0010
1000
0001
0010
0001
1000
0001
0100
0010
0100
0001
1000
,
0001
0010
0100
1000
0001
0100
0010
0100
0001
1000
0100
0010
0001
1000
0010
0100
,
0001
0010
0100
1000
0010
1000
0001
0010
0001
1000
0100
0010
0100
1000
0001
1000
,
0010
0100
0001
1000
0100
0010
0001
0100
0001
0010
0100
1000
0001
0100
0010
1000
,
0001
0100
0001
1000
0100
1000
0001
0010
,
0100
1000
0010
0100
0001
0010
0001
0100
,
0001
1000
0010
1000
0100
1000
0001
0010
,
0100
1000
0001
0100
0010
1000
0001
0100
,
0001
1000
0100
1000
0001
0010
0100
1000
,
0001
1000
0010
0100
0001
0010
0001
1000
,
0001
0100
0010
1000
0100
1000
0001
1000
,
0100
1000
0001
0100
0001
0100
0010
1000
0001
1000
0001
0010
0001
1000
0010
0100
,
0001
0000
0000
0000
0010
0000
0000
0000
0100
0000
0000
0000
1220
0330
0000
0000
,
1000
0000
0000
0000
0010
0000
0000
0000
0122
0033
0000
0000
0001
0000
0000
0000
,
0010
0000
0000
0000
2120
3030
0000
0000
1000
0000
0001
0000
0100
0000
0000
0000
,
0122
0033
0000
0000
0001
0000
1000
0000
0100
0000
0000
0000
2120
3030
0000
0000
,
0010
0000
0001
0000
0100
0000
0000
0000
0122
0033
0000
0000
0010
0000
1000
0000
,
0100
0000
0000
0000
0212
0303
0000
0000
0010
0000
0001
0000
0100
0000
0010
0000
,
2210
3300
0000
0000
0010
0000
1000
0000
0100
0000
0010
0000
2120
3030
0000
0000
,
0100
0000
0010
0000
0001
0000
1000
0000
0122
0033
0000
0000
0100
0000
0010
0000
,
1000
0000
0001
0000
2120
3030
0000
0000
0010
0000
0001
0000
0100
0000
0010
0000
,
0122
0033
0000
0000
0100
0000
0002
0003
0010
0000
0100
0000
2120
3030
0000
0000
,
0100
0000
1000
0000
0001
0000
0100
0000
0122
0033
0000
0000
0001
0000
0010
0000
,
0100
0000
1000
0001
1000
0100
1000
0001
0100
0001
1000
0100
0010
0001
1000
0010
,
0100
0000
0000
0000
1001
0000
1000
1100
,
0000
0100
0110
0000
0010
0011
0000
0001
,
1001
0000
1010
0000
0110
0000
0100
0101
,
0000
0001
1001
0000
0010
0110
0000
1000
,
1001
0001
0100
0010
2000
0000
0000
0000
,
0000
3200
0000
0000
0320
0000
0000
0000
,
0000
0230
0000
0300
1001
2002
0000
0000
,
0000
0000
0000
0000
,
0000
0000
3003
0000
;

//---------------dance-single - Zaia - 10(low)----------------
#NOTES:
     dance-single:
     Zaia - 10(low):
     Medium:
     10:
     0.767,0.723,0.274,0.058,0.037,606.000,33.000,7.000,0.000,0.000:
0000
0000
0000
0000
,
0000
0000
0000
0000
,
0000
0000
0000
0000
1000
0010
0100
0001
,
1000
0100
1000
0001
0100
0001
1000
0100
,
0010
0001
1000
0010
0100
0001
1000
0010
,
1000
0001
0010
0001
1000
0010
1000
0001
,
1000
0000
0100
0000
0010
0000
0100
0000
1000
0000
0001
0000
0100
0000
0000
0010
,
1000
0001
0010
0100
0010
0001
1000
0010
,
1000
0001
0010
0100
1000
0001
0100
0001
,
1000
0100
0010
0100
1000
0010
0100
0001
,
0200
0000
0000
0000
0000
0000
0000
0300
0001
0000
0100
0010
0100
0000
0001
1000
,
0001
0010
0100
1000
0010
1000
0100
1000
,
0001
0100
0001
0010
0001
0100
0001
1000
,
0100
0010
0100
1000
0001
1000
0010
0100
,
0010
1000
0001
0100
0001
0010
0100
1000
,
0100
0010
0100
1000
0001
0100
0010
0100
,
0001
1000
0100
1000
0001
0010
0001
1000
,
0010
0100
0001
0010
0100
1000
0001
0100
,
0010
1000
1000
0000
0001
0010
0100
1000
,
0001
1000
0001
0100
0001
0010
0001
1000
,
0100
0000
1000
0000
0001
0000
1000
0000
0010
0000
1000
0000
0001
1000
0010
0100
,
0001
0010
0001
0100
0001
1000
0001
0010
,
0001
0000
1000
0000
0100
0000
1000
0000
0001
0000
1000
0000
0001
0010
0100
0010
,
0001
1000
0100
1000
0001
1000
0010
0100
,
0001
0000
0010
0000
0001
0000
1000
0000
0001
0000
0100
0000
0001
0010
0100
1000
,
0001
0010
0001
0100
0001
1000
0001
0010
,
0001
0100
0010
1000
0100
0010
0001
1000
,
0001
0100
0010
1010
,
1000
0100
0011
0001
,
0100
0000
0110
0000
1000
0001
0010
0000
,
0011
0000
0001
1000
0010
0000
0110
0000
,
0100
0001
0010
0000
0110
0000
0100
1000
,
0010
0000
0101
0000
0100
0001
0010
0100
,
1100
0000
0100
1000
0010
0100
0110
0000
,
0010
0100
0001
1000
0011
0000
0010
0100
,
1000
0001
0101
0000
0100
0001
0010
0100
,
0110
0000
0010
0001
0100
0010
1010
0000
,
0010
1000
0100
0010
1001
0000
0001
0100
,
0010
1000
0001
1000
0100
1000
0001
0100
,
0010
1000
0010
0100
0001
0010
0100
1000
,
0010
0100
0001
0010
0100
0100
0010
0010
,
0001
0100
0010
1000
0100
0010
0001
0100
,
0010
1000
0100
0010
0001
0001
0100
0100
,
0010
1000
0001
0010
0100
0010
0001
0100
,
0010
1000
0100
0010
0100
1000
0010
0100
,
0001
1000
0001
0100
,
0010
0000
1000
0010
0100
0001
0010
0100
,
1000
0000
0010
0100
0001
1000
0100
0010
,
0001
1000
0001
0100
0010
1000
0100
1000
,
0010
0100
0001
0010
0100
0010
0001
0001
,
1000
1000
0010
0000
0100
0001
0010
0100
,
1000
0000
0000
0001
0010
0001
0100
0010
,
0000
0000
0000
0000
0000
1000
0010
0100
,
0001
0000
0000
0000
,
1000
0100
0010
0001
0100
0010
1000
0100
,
0010
0100
1000
0001
0100
0010
0100
0001
,
1000
0100
1000
0010
1000
0001
0100
0001
,
0010
0001
1000
0100
0010
0001
1000
0010
,
0100
0001
1000
0100
1000
0001
0010
0001
,
1000
0010
1000
0001
0100
0010
0100
0001
,
1000
0100
0010
0100
1000
0001
1000
0010
,
0100
0001
1000
0001
0010
0100
1000
0001
,
0100
0001
0010
0001
1000
0010
0100
0001
,
1000
0010
1000
0001
0010
0001
1000
0100
,
0010
0001
0100
0010
1000
0100
1000
0010
,
1000
0001
0100
0001
0010
0001
1000
0100
,
0010
0001
1000
0010
0100
0001
1000
0010
,
1000
0001
0010
0001
1000
0100
0010
0001
,
1000
0001
0100
0010
1000
0100
1000
0001
,
1000
0010
0100
0001
0010
0001
1000
0001
,
0010
0001
0100
0010
1000
0100
0010
0100
,
1000
0100
0010
0011
,
0001
0100
1010
1000
,
0100
0000
0110
0000
0001
1000
0010
0000
,
1010
0000
1000
0001
0010
0000
0110
0000
,
0100
1000
0010
0000
0110
0000
0100
0001
,
0010
0000
1100
0000
0100
1000
0010
0100
,
0101
0000
0100
0001
0010
0100
0110
0000
,
0010
0100
1000
0001
1010
0000
0010
0100
,
0001
1000
1100
0000
0100
1000
0010
0100
,
0110
0000
0010
1000
0100
0010
0011
0000
,
0010
0001
0100
0010
1001
0000
1000
0100
,
0010
0001
0100
0001
0010
0100
1000
0010
,
0100
0000
0000
0000
1001
0000
0001
0010
,
0000
0010
0100
0000
0100
1000
0000
1000
,
0001
0000
0101
0000
0110
0000
0010
1000
,
0000
1000
0001
0000
0001
0010
0000
0001
,
1000
1000
0010
0100
0002
0000
0000
0000
,
0000
0023
0000
0000
0230
0000
0000
0000
,
0000
0320
0000
0030
1001
2002
0000
0000
,
0000
0000
0000
0000
,
0000
0000
3003
0000
;
