#TITLE:King Of Tragedy;
#SUBTITLE:Perpetual Twilight (2002);
#ARTIST:Axenstar;
#TITLETRANSLIT:;
#SUBTITLETRANSLIT:;
#ARTISTTRANSLIT:;
#CREDIT:SulferDragon;
#BANNER:King of Tragedy-banner.png;
#BACKGROUND:King of Tragedy-bg.png;
#LYRICSPATH:;
#CDTITLE:!Sulfer.png;
#MUSIC:King Of Tragedy.mp3;
#OFFSET:-0.255;
#SAMPLESTART:212.830;
#SAMPLELENGTH:17.960;
#SELECTABLE:YES;
#BPMS:0.000=154.815,33.000=154.005,37.000=154.965,749.000=154.775,761.000=154.485,765.000=154.835,797.000=154.965;
#STOPS:;
#BGCHANGES:;
// cache tags:
#FIRSTBEAT:0.000;
#LASTBEAT:849.500;
#SONGFILENAME:Songs/Astronomic Metal Collection 2/(SulferDragon) King Of Tragedy/King Of Tragedy.sm;
#HASMUSIC:1;
#HASBANNER:1;
#MUSICLENGTH:332.382;
// end cache tags

//---------------dance-single - ----------------
#NOTES:
     dance-single:
     :
     Challenge:
     12:
     1.000,1.000,1.000,1.000,1.000,2076.000,547.000,430.000,0.000,86.000:
0100
0000
0000
0000
0000
0000
0010
0000
0000
0000
0000
0000
0102
0000
0000
0000
0000
0000
0000
0000
0000
0000
0000
0000
0103
0000
0000
0000
0000
0000
0010
0000
0000
0000
0000
0000
1200
0000
0000
0000
0000
0000
0000
0000
0000
0000
0000
0300
,
0100
0000
0000
0000
0000
0000
0010
0000
0000
0000
0000
0000
1002
0000
0000
0000
0000
0000
0000
0000
0000
0000
0000
0000
0103
0000
0000
0000
0000
0000
0010
0000
0000
0000
0000
0000
1200
0000
0000
0000
0000
0000
0000
0000
0000
0000
0000
0300
,
0100
0000
0000
0000
0000
0000
0010
0000
0000
0000
0000
0000
0102
0000
0000
0000
0000
0000
0000
0000
0000
0000
0000
0000
0103
0000
0000
0000
0000
0000
0010
0000
0000
0000
0000
0000
1200
0000
0000
0000
0000
0000
0000
0000
0000
0000
0000
0300
,
0100
0000
0010
0000
0102
0003
1000
0000
0102
0003
1000
0000
0102
1003
0010
1000
,
0102
0000
0000
1003
0000
0000
0011
0000
0000
1000
0000
0000
0102
0000
0000
0000
0000
0000
0010
0000
0000
0000
0000
0000
0103
0000
0000
0000
0000
0000
0010
0000
0000
0000
0000
0000
1200
0000
0000
0000
0000
0000
0000
0000
0000
0000
0000
0300
,
0100
0000
0000
0000
0000
0000
0010
0000
0000
0000
0000
0000
0102
0000
0000
0000
0000
0000
0000
0000
0000
0000
0000
0000
0103
0000
0000
0000
0000
0000
0010
0000
0000
0000
0000
0000
1200
0000
0000
0000
0000
0000
0000
0000
0000
0000
0000
0300
,
0100
0000
0000
0000
0000
0000
0010
0000
0000
0000
0000
0000
0102
0000
0000
0000
0000
0000
0000
0000
0000
0000
0000
0000
0103
0000
0000
0000
0000
0000
0010
0000
0000
0000
0000
0000
1200
0000
0000
0000
0000
0000
0000
0000
0000
0000
0000
0300
,
0100
0010
0102
1000
0103
0010
0001
0000
,
0100
0010
0201
0000
0000
0000
2000
0000
,
0000
0000
0000
0000
0000
0000
0000
3300
0021
0030
0000
0000
0001
0000
1000
0000
0011
0000
1000
0000
0020
0030
0000
0000
1002
0003
0000
0000
0010
0000
0100
0000
,
0011
0000
0100
0000
0002
0003
0000
0000
1020
0030
0000
0000
0001
0000
1000
0000
0011
0000
1000
0000
0020
0030
0000
0000
1200
0300
0000
0000
2000
3000
0000
0000
,
0201
0300
0000
0000
2000
3000
0000
0000
1020
0030
0000
0000
0001
0000
1000
0000
0011
0000
1000
0000
0020
0030
0000
0000
1002
0003
0000
0000
0010
0000
0100
0000
,
0011
0000
0100
0000
0002
0003
0000
0000
1020
0030
0000
0000
0001
0000
1000
0000
0011
0000
1000
0000
0020
0030
0000
0000
1200
0300
0020
0030
0002
0003
0020
0030
,
0201
0300
0000
0000
2000
3000
0000
0000
1020
0030
0000
0000
0001
0000
1000
0000
0011
0000
1000
0000
0020
0030
0000
0000
1002
0003
0000
0000
0010
0000
0100
0000
,
0011
0000
0100
0000
0002
0003
0000
0000
1020
0030
0000
0000
0001
0000
1000
0000
0011
0000
1000
0000
0020
0030
0000
0000
1200
0300
0000
0000
2000
3000
0000
0000
,
0201
0300
0000
0000
2000
3000
0000
0000
1020
0030
0000
0000
0001
0000
1000
0000
0011
0000
1000
0000
0020
0030
0000
0000
1002
0003
0000
0000
0010
0000
0100
0000
,
0011
0000
0100
0000
0002
0003
0000
0000
1020
0030
0000
0000
0110
0000
1001
0000
0110
0000
1001
0000
0120
0030
1001
0000
0200
0300
0020
0030
0002
0003
0020
0030
,
0200
0000
0300
0000
0010
0000
0000
0000
2000
0000
3000
0000
0010
0000
0000
0000
0102
0003
0000
0000
1000
0000
0000
0000
0100
0000
0000
0000
1000
0000
0000
0000
0120
0030
0000
0000
0001
0000
0000
0000
0010
0000
0000
0000
0001
0000
0000
0000
1200
0300
0000
0000
0001
0000
0000
0000
0100
0000
0000
0000
0001
0000
0000
0000
,
0120
0030
0000
0000
1000
0000
0000
0000
0010
0000
0000
0000
1000
0000
0000
0000
0102
0003
0000
0000
1000
0000
0000
0000
0100
0000
0000
0000
1000
0000
0000
0000
0120
0030
0000
0000
0001
0000
0000
0000
0010
0000
0000
0000
0001
0000
0000
0000
1200
0300
0000
0000
0001
0000
0000
0000
0110
0000
0000
0000
1001
0000
0000
0000
,
0120
0030
0000
0000
1001
0000
0000
0000
0110
0000
0000
0000
1001
0000
0000
0000
0120
0000
0030
0000
0000
0000
0000
0000
0001
0000
0000
0000
1000
0000
0000
0000
0011
0000
0000
0000
1000
0000
0000
0000
0020
0000
0030
0000
0000
0000
0000
0000
1002
0000
0003
0000
0000
0000
0000
0000
0010
0000
0000
0000
0100
0000
0000
0000
,
0011
0000
0100
0000
0002
0003
0000
0000
1020
0030
0000
0000
0001
0000
1000
0000
0011
0000
1000
0000
0020
0030
0000
0000
1200
0300
0000
0000
2001
3000
0011
0000
,
0200
0000
0300
0000
0010
0000
0000
0000
2000
0000
3000
0000
0010
0000
0000
0000
0102
0003
0000
0000
1000
0000
0000
0000
0100
0000
0000
0000
1000
0000
0000
0000
0120
0030
0000
0000
0001
0000
0000
0000
0010
0000
0000
0000
0001
0000
0000
0000
1200
0300
0000
0000
0001
0000
0000
0000
0100
0000
0000
0000
0001
0000
0000
0000
,
0120
0030
0000
0000
1000
0000
0000
0000
0010
0000
0000
0000
1000
0000
0000
0000
0102
0003
0000
0000
1000
0000
0000
0000
0100
0000
0000
0000
1000
0000
0000
0000
0120
0030
0000
0000
0001
0000
0000
0000
0010
0000
0000
0000
0001
0000
0000
0000
1200
0300
0000
0000
0001
0000
0000
0000
0100
0000
0000
0000
0001
0000
0000
0000
,
0120
0030
0000
0000
1000
0000
0000
0000
0010
0000
0000
0000
1000
0000
0000
0000
0021
0000
0030
0000
0000
0000
0000
0000
0001
0000
0000
0000
1000
0000
0000
0000
0011
0000
0000
0000
1000
0000
0000
0000
0020
0000
0030
0000
0000
0000
0000
0000
1002
0000
0003
0000
0000
0000
0000
0000
0010
0000
0000
0000
0100
0000
0000
0000
,
0011
0100
0000
0000
0001
0000
2000
0000
3201
0000
0321
0000
1032
0000
0000
0000
,
1000
1000
0000
0003
0011
0100
1000
0100
0011
0100
0001
0010
1100
0010
0001
0010
,
0101
1000
0010
0100
1001
0100
0010
0100
1001
0010
0100
0010
0101
1000
0100
0010
,
1001
0010
0100
0010
1001
0100
0010
0001
1010
0100
0010
0001
1010
0100
1000
0100
,
0011
0100
1000
0010
0101
1000
0100
0010
1001
0100
0010
0001
1010
0100
1001
0110
,
1001
0110
1001
0110
1001
0100
0010
0001
1010
0100
1000
0100
1001
0010
0100
1000
,
0101
0010
1000
0100
1010
0001
0010
0100
1010
0001
0010
0100
1001
0100
0010
0100
,
0011
0100
1000
0010
1100
0010
0001
0010
0101
1000
0100
0010
1001
0010
0100
0010
,
1001
0010
0100
1000
0101
0011
0100
1000
0011
1000
0011
0101
1000
0100
0010
0001
,
1000
0100
0010
0001
2010
0000
3000
0000
1001
0000
1000
0000
1000
0000
1000
0000
,
1001
0000
1000
0010
1002
0000
0003
0000
0011
0000
0001
0000
0001
0000
0001
0000
,
0011
0000
0001
0010
1002
0000
0003
0000
1010
0000
1000
0000
0012
0000
0003
0000
,
1100
1000
0120
0030
1001
1000
0201
0300
,
1010
1000
2100
0100
0001
0100
0100
0100
,
0001
0000
0000
0000
0000
3000
1100
0000
0000
0000
0000
0000
2100
0000
0000
0000
0000
0000
0100
0000
0000
0000
0000
0000
0001
0000
0000
0000
0000
0000
0100
0000
0000
0000
0000
0000
0100
0000
0000
0000
0000
0000
0100
0000
0000
0000
0000
0000
,
0001
0000
0000
0000
0100
0000
0000
3000
2100
0000
0000
0000
0100
0000
0000
0000
0001
0000
0000
0000
0100
0000
0000
0000
0100
0000
0000
0000
0100
0000
0000
0000
,
0001
0000
0000
0000
0000
0000
0100
0000
0000
0000
0000
3000
0011
0000
0000
0000
0000
0000
0011
0000
0000
0000
0000
0000
0011
0000
0000
0000
0000
0000
0011
0000
0000
0011
0000
0000
0100
0000
0000
1000
0000
0000
0100
0000
0000
0001
0000
0000
,
1000
0010
0100
0001
1020
0000
0000
0000
0001
0000
0000
0000
0230
0000
0000
0000
,
0001
0320
0001
2030
,
0001
3020
0001
0230
,
0001
0000
0000
0000
0321
0000
0000
0001
0000
0000
0001
0000
0001
0000
1000
0001
,
1000
0000
0000
0001
0000
0000
1000
0000
0000
0001
0000
0030
1020
0000
0000
0000
0000
0000
0000
0000
0000
0000
0000
0000
0001
0000
0000
0000
0000
0000
0000
0000
0000
0000
0000
0000
0230
0000
0000
0000
0000
0000
0000
0000
0000
0000
0000
0000
,
0001
0320
0001
2030
,
0001
3020
0001
0230
,
0001
0000
0000
0000
0000
0000
0000
0000
0000
0000
0000
0000
0320
0000
0000
0000
0000
0000
0000
0000
0000
0000
0000
0000
0000
0000
0000
0000
0000
0030
0220
0000
0000
0330
0000
0000
0220
0000
0000
0330
0000
0000
0000
0000
0000
0000
0000
0000
,
0022
0000
0000
0000
0000
0000
0000
0000
0000
0000
0000
0000
0000
0000
0000
0000
0000
0000
0000
0000
0000
0000
0000
0000
0000
0000
0000
0000
0000
0000
0000
0000
0000
0000
0000
0000
0000
0000
0000
0000
0000
0000
0000
0000
0033
0000
0000
0000
2000
0000
0000
0000
0000
0000
3000
0000
0000
0000
0000
0000
0000
0000
0000
0000
0000
0000
0000
0000
0000
0000
0000
0000
0100
0000
0000
0000
0000
0000
0000
0000
0000
0000
0000
0000
0001
0000
0000
0000
0000
0000
0000
0000
0000
0000
0000
0000
0110
0000
0000
0000
0000
0000
0000
0000
0000
0000
0000
0000
0001
0000
0000
0000
0000
0000
0000
0000
0000
0000
0000
0000
2000
0000
0000
0000
0000
0000
3000
0000
0000
0000
0000
0000
0000
0000
0000
0000
0000
0000
0000
0000
0000
0000
0000
0000
0201
0000
0000
0000
0000
0000
0300
0000
0000
0000
0000
0000
0000
0000
0000
0000
0000
0000
0000
0000
0000
0000
0000
0000
1000
0000
0000
0000
0000
0000
0000
0000
0000
0000
0000
0000
0001
0000
0000
0000
0000
0000
0000
0000
0000
0000
0000
0000
,
1010
0000
0001
0000
0200
0300
0000
0000
2001
3000
0000
0000
0100
0000
0001
0000
0110
0000
0001
0000
2000
3000
0000
0000
0201
0300
0000
0000
0020
0030
0000
0000
,
1200
0300
0000
0000
0020
0030
0000
0000
2001
3000
0000
0000
0100
0000
0001
0000
0110
0000
0001
0000
2000
3000
0000
0000
0201
0300
0000
0000
1000
0000
0001
0000
,
1010
0000
0001
0000
0200
0300
0000
0000
2001
3000
0000
0000
0100
0000
0001
0000
0110
0000
0001
0000
2000
3000
0000
0000
0021
0030
0200
0300
0002
0003
0200
0300
,
1020
0030
0000
0000
0200
0300
0000
0000
2001
3000
0000
0000
0100
0000
0001
0000
0110
0000
0001
0000
2000
3000
0000
0000
0201
0300
0000
0000
1000
0000
0001
0000
,
1010
0000
0001
0000
0200
0300
0000
0000
2001
3000
0000
0000
0100
0000
0001
0000
0110
0000
0001
0000
2000
3000
0000
0000
0201
0300
0000
0000
0020
0030
0000
0000
,
1200
0300
0000
0000
0020
0030
0000
0000
2001
3000
0000
0000
0100
0000
0001
0000
0110
0000
0001
0000
2000
3000
0000
0000
0201
0300
0000
0000
1000
0000
0001
0000
,
1010
0000
0001
0000
0200
0300
0000
0000
1001
0000
1000
0000
0100
0000
0100
0000
0010
0000
0010
0000
0100
0000
0100
0000
0001
0000
0001
0000
0010
0000
0010
0000
,
0001
0001
0100
0100
1001
0010
0100
1000
0101
1000
0100
0010
0101
1000
0010
1000
,
0110
0001
0100
0010
0101
1000
0100
0010
1001
0010
0100
1000
0110
1000
0100
0010
,
0101
1000
0001
1000
0110
0001
0010
0100
1010
0001
0100
0010
0101
1000
0010
0100
,
1001
0100
0010
0100
1001
0100
0010
0001
1100
0010
0100
1000
0101
0010
1100
0011
,
1100
0011
1100
0011
1100
0001
0100
1000
0101
0010
0001
1000
0011
1000
0100
0001
,
1100
0010
0100
1000
0011
0100
1000
0001
1010
0001
0010
0100
0011
0100
1000
0100
,
1010
0001
0100
0001
0110
1000
0010
1000
0101
0010
0001
0010
1100
0010
1000
0100
,
0011
0100
0001
0010
1100
0010
1001
0110
1001
0110
1001
0110
1000
0100
0010
0001
,
1000
0100
0010
0001
0210
0000
0300
0000
0101
0000
0100
0000
0100
0000
0100
0000
,
0101
0000
0100
1000
0120
0000
0030
0000
0011
0000
0010
0000
0010
0000
0010
0000
,
0011
0000
0010
1000
0012
0000
0003
0000
1100
0000
1000
0000
0102
0000
0003
0000
,
1010
1000
0120
0030
1100
1000
0201
0300
,
1001
1000
2100
0100
0001
0100
0100
0100
,
0001
3100
2100
0100
0001
0100
0100
0100
,
0001
0000
0000
0000
0100
0000
0000
3000
2100
0000
0000
0000
0100
0000
0000
0000
0001
0000
0000
0000
0100
0000
0000
0000
0100
0000
0000
0000
0100
0000
0000
0000
,
0001
0000
0000
0000
0000
0000
0100
0000
0000
0000
0000
3000
0011
0000
0000
0000
0000
0000
0011
0000
0000
0000
0000
0000
0011
0000
0000
1100
0000
0000
0011
0000
0000
1100
0000
0000
0010
0000
0000
0100
0000
0000
1010
0000
0000
0101
0000
0000
,
1010
0101
1010
0101
2010
0000
0000
0000
0010
0000
0000
0000
3002
0000
0000
0000
,
0010
2003
0010
3200
,
0010
2300
0010
3002
,
0010
0000
0000
0000
2013
0000
0000
0010
0000
0000
0010
0000
0010
0000
0100
0010
,
0100
0000
0000
0010
0000
0000
0100
0000
0000
0010
0000
3000
2100
0000
0000
0000
0000
0000
0000
0000
0000
0000
0000
0000
0010
0000
0000
0000
0000
0000
0000
0000
0000
0000
0000
0000
3002
0000
0000
0000
0000
0000
0000
0000
0000
0000
0000
0000
,
0010
2003
0010
3200
,
0010
2300
0010
3002
,
0010
0000
0000
0000
2013
0000
0010
0000
0100
0010
0100
0010
0100
0010
0100
0010
,
0100
0000
0000
0000
0000
0000
0000
0000
0000
0000
0000
0000
0010
0000
0000
0000
0000
0000
0000
0000
0000
0000
0000
0000
0100
0000
0000
0000
0000
0000
0000
0000
0000
0000
0000
0000
0010
0000
0000
0000
0000
0000
0000
0000
3000
0000
0000
0000
1200
0000
0000
0000
0000
0000
0000
0000
0000
0000
0000
0000
0000
0000
0000
0000
0000
0000
0000
0000
0000
0000
0000
0000
0000
0000
0000
0000
0000
0000
0000
0000
0000
0000
0000
0000
0000
0000
0000
0000
0000
0000
0000
0000
0000
0000
0000
0000
0001
0000
0000
0000
0000
0000
0000
0000
0000
0000
0000
0000
0000
0000
0000
0000
0000
0000
0000
0000
0000
0000
0000
0000
0320
0000
0000
0000
0000
0000
0000
0000
0000
0000
0000
0000
0000
0000
0000
0000
0000
0000
0000
0000
0000
0000
0000
0000
0230
0000
0000
0000
0000
0000
0000
0000
0000
0000
0000
0000
0000
0000
0000
0000
0000
0000
0000
0000
0000
0000
0000
0000
0000
0000
0000
0000
0000
0000
0000
0000
0000
0000
0000
0000
0000
0000
0000
0000
0000
0000
0300
0000
0000
0000
0000
0000
,
0101
0100
0020
0230
2301
0000
0000
0000
,
0001
0000
3020
0000
0100
0032
0023
0000
,
0131
1000
0001
1000
0020
0000
0230
0000
2301
0000
0000
0000
0000
0000
0000
0000
,
0001
0000
3100
0100
0011
0010
0100
0100
,
0011
0010
0020
0230
2301
0000
0000
0000
,
0001
0000
3100
0100
0011
0010
0100
0100
,
0011
0010
0020
0230
2301
0000
0000
0000
,
0001
0000
0000
0000
0000
0000
0000
0000
0000
0000
0000
0000
3021
0000
0000
0000
0000
0000
0000
0000
0000
0000
0000
0000
0000
0000
0000
0000
0000
0000
0130
0000
0001
0000
0010
0000
0100
0000
0000
0010
0000
0000
0001
0000
0000
0010
0000
0000
,
0100
0000
0000
0000
0000
0000
0000
0000
0000
0000
0000
0000
1000
0000
0000
0000
0000
0000
0000
0000
0010
0000
0000
0000
0000
0000
0000
0100
0000
0000
0000
0000
0000
1000
0000
0000
0000
0000
0000
0000
0100
0000
0000
0000
0000
0000
0000
0000
0020
0000
0000
0000
0000
0000
0000
0000
0000
0000
0000
0000
0000
0000
0000
0000
0000
0000
0000
0000
0000
0000
0000
0000
0000
0000
0000
0000
0000
0000
0000
0000
0000
0000
0000
0000
0000
0000
0000
0000
0000
0000
0000
0000
0000
0000
0000
0000
0000
0000
0000
0000
0000
0000
0000
0000
0000
0000
0000
0000
0000
0000
0000
0000
0000
0000
0000
0000
0000
0000
0000
0000
0031
0000
0000
0000
0000
0000
0000
0000
0000
0000
0000
0000
0001
0000
0000
0000
0000
0000
0000
0000
0000
0000
0000
0000
0002
0000
0000
0000
0000
0000
0000
0000
0000
0000
0000
0000
0003
0000
0000
0000
0000
0000
0000
0000
0000
0000
0000
0000
0010
0000
0000
0000
0000
0000
0000
0000
0001
0000
0000
0000
0000
0000
0000
0000
0010
0000
0000
0000
0000
0000
0000
0000
,
0200
0000
0000
0300
0000
0000
2000
0000
0000
3000
0000
0000
0020
0000
0000
0030
0000
0000
2000
0000
0000
0000
0000
0000
0000
0000
0000
0000
0000
3000
2000
0000
0000
0000
0000
0000
0000
0000
0000
0000
0000
0000
3100
0000
0200
0000
0000
0000
,
0300
0000
0000
0000
0000
0000
0000
0000
0000
0000
0000
0000
1000
0000
0000
0000
0000
0000
0000
0000
0020
0000
0000
0000
0000
0000
0000
0000
0000
0000
0000
0000
0000
0030
0000
0000
0000
0000
0000
0000
0000
0000
0000
0000
0000
0000
0000
0000
0002
0000
0000
0000
0000
0000
0000
0000
0000
0000
0000
0000
0000
0000
0000
0000
0000
0000
0000
0000
0000
0000
0000
0000
0000
0000
0000
0000
0000
0000
0000
0000
0000
0000
0000
0000
0000
0000
0000
0000
0000
0000
0000
0000
0000
0000
0000
0000
0000
0000
0000
0000
0000
0000
0000
0000
0000
0000
0000
0000
0000
0000
0000
0000
0000
0000
0000
0000
0000
0000
0000
0000
0000
0000
0000
0000
0000
0000
0000
0000
0000
0000
0000
0000
0000
0000
0000
0000
0000
0000
0000
0000
0000
0000
0000
0000
0023
0000
0000
0000
0000
0000
0000
0000
0000
0000
0000
0000
0000
0000
0000
0000
0000
0000
0000
0000
0000
0000
0000
0000
0030
0000
0000
0000
0000
0000
0000
0000
0000
0000
0000
0000
0002
0000
0000
0000
0000
0000
0000
0000
0000
0000
0000
0000
,
0003
0000
0000
0000
0000
0000
0000
0000
0000
0000
0000
0000
0000
0000
0000
0000
0000
0000
0000
0000
0000
0020
0000
0000
0000
0000
0000
0000
0000
0000
0000
0000
0000
0000
0000
0000
0000
0000
0000
0000
0000
0000
0030
0000
0000
0000
0000
0000
0100
0000
0000
0000
0000
0000
0000
0000
1000
0000
0000
0000
0000
0000
0000
0100
0000
0000
0000
0000
0000
0010
0000
0000
0000
0000
0000
0000
0001
0000
0000
0000
0000
0000
0000
0000
1000
0000
0000
0000
0000
0000
0000
0000
0000
0000
0000
0000
0100
0000
0000
0000
0000
0000
0000
0000
0000
0000
0000
0000
0010
0000
0000
0000
0000
0000
0000
0000
0000
0000
0000
0000
0100
0000
0000
0000
0000
0000
0000
0000
0000
0000
0000
0000
0001
0000
0000
0000
0000
0000
0000
0000
0000
0000
0000
0000
0100
0000
0000
0000
0000
0000
0000
0000
0000
0000
0000
0000
1000
0000
0000
0000
0000
0000
0000
0000
0100
0000
0000
0000
0000
0000
0000
0000
0010
0000
0000
0000
0000
0000
0000
0000
0100
0000
0000
0000
0000
0000
0000
0000
0000
0000
0000
0000
,
0001
0000
0000
0000
0000
0000
0000
0000
0000
0000
0000
0000
0100
0000
0000
0000
0000
0000
0000
0000
0000
0000
0000
0000
0010
0000
0000
0000
0000
0000
0000
0000
0000
0000
0000
0000
0100
0000
0000
0000
0000
0000
0000
0000
0000
0000
0000
0000
1000
0000
0000
0000
0000
0000
0000
0000
0000
0000
0000
0000
0000
0000
0000
0000
0100
0000
0000
0000
0000
0000
0000
0000
0010
0000
0000
0000
0000
0000
0001
0000
0000
0000
0000
0000
0010
0000
0000
0000
0000
0000
0100
0000
0000
0000
0000
0000
1000
0000
0000
0000
0000
0000
0000
0000
0000
0000
0000
0000
0000
0000
0000
0100
0000
0000
0000
0000
0000
0000
0000
0000
0000
0000
0000
0000
0000
0000
0000
0000
0000
0000
0000
0000
0000
0000
0000
0010
0000
0000
0000
0000
0000
0000
0000
0000
0001
0000
0000
0000
0000
0000
0000
0000
0000
0000
0000
0000
0010
0000
0000
0000
0000
0000
0000
0000
0000
0000
0000
0000
0100
0000
0000
0000
0000
0000
0000
0000
0000
0000
0000
0000
1000
0000
0000
0000
0000
0000
0001
0000
0000
0000
0000
0000
,
0100
0000
0000
0000
0000
0000
0000
0000
0010
0000
0000
0000
0000
0000
0000
0000
1000
0000
0000
0000
0000
0000
0000
0000
0100
0000
0000
0000
0000
0000
0000
0000
1000
0000
0000
0000
0000
0000
0000
0000
0001
0000
0000
0000
0000
0000
0000
0000
0100
0000
0000
0000
0000
0000
0000
0000
0000
0000
0000
0000
0000
0000
0000
0000
0000
0000
0000
0000
0000
0000
0000
0000
0100
0000
0000
0000
0000
0000
0000
0000
0010
0000
0000
0000
0000
0000
0000
0001
0000
0000
0000
0000
0000
0010
0000
0000
0000
0000
0000
0000
0100
0000
0000
0000
0000
0000
0000
0000
1000
0000
0000
0000
0000
0000
0000
0000
0000
0100
0000
0000
0000
0000
0000
0000
0000
0000
0000
0000
1000
0000
0000
0000
0000
0000
0000
0000
0100
0000
0000
0000
0000
0000
0000
0000
0020
0000
0000
0000
0000
0000
0000
0000
0000
0000
0000
0000
0030
0000
0000
0000
0000
0000
0000
0000
0000
0000
0000
0000
0001
0000
0000
0000
0000
0000
0000
0000
0010
0000
0000
0000
0000
0000
0000
0000
0100
0000
0000
0000
0000
0000
0000
0000
,
0001
0000
0000
0000
0000
0000
0000
0000
0010
0000
0000
0000
0000
0000
0000
0000
0100
0000
0000
0000
0000
0000
0000
0000
1000
0000
0000
0000
0000
0000
0000
0000
0100
0000
0000
0000
0000
0000
0000
0000
0010
0000
0000
0000
0000
0000
0000
0000
0002
0000
0000
0000
0000
0000
0000
0000
0000
0000
0000
0000
0000
0000
0000
0000
0000
0000
0000
0000
0000
0000
0000
0000
0000
0000
0000
0000
0000
0000
0000
0000
0000
0000
0000
0000
0000
0000
0000
0000
0000
0000
0000
0000
0000
0000
0000
0000
0000
0000
0000
0000
0000
0000
0000
0000
0000
0000
0000
0000
0000
0000
0000
0000
0000
0000
0013
0000
0000
0000
0000
0000
2000
0000
0000
0000
0000
0000
0000
0000
0000
0000
0000
0000
3000
0000
0000
0000
0000
0000
0000
0000
0000
0000
0000
0000
2000
0000
0000
0000
0000
0000
0000
0000
0000
0000
0000
0000
0000
0000
0000
0000
0000
0000
0000
0000
0000
0000
0000
0000
3000
0000
0000
0000
0000
0000
0000
0000
0000
0000
0000
0000
0020
0000
0000
0000
0000
0000
0000
0000
0000
0000
0000
0000
,
0000
0000
0000
0000
1030
0000
0100
0010
0001
0000
0100
0000
0010
0000
0100
0000
1000
0000
0010
0000
0001
0000
0010
0000
0100
0000
0010
0000
0100
0000
1000
0000
,
0010
0001
1000
0000
0100
0000
0001
0000
0100
0000
0010
0000
1000
0000
0100
0000
1000
0000
0100
0000
0001
0000
0100
0000
2000
0000
0000
0000
0000
0000
0000
0000
,
0000
0000
0000
0000
0000
0000
0000
0000
0000
0000
0000
3000
1100
0000
0000
0010
0000
0000
0101
0000
0000
0010
0000
0000
0100
0000
0000
0010
0000
0000
0101
0000
0000
0010
0000
0000
0100
0000
0000
0001
0000
0000
1100
0000
0000
0001
0000
0000
,
0010
0001
1010
0001
0100
0001
1100
0001
0100
0001
1100
0001
0010
0001
1010
0001
,
0100
0001
0110
0001
1000
0001
1010
0001
1000
0001
1010
0001
0100
0001
1100
0001
,
0010
0001
1010
0001
0100
0001
0110
0001
0100
0001
0110
0001
1000
0001
1010
0001
,
1000
0010
1100
0010
1000
0100
1001
0100
1000
0100
1001
0100
1000
0010
1001
0010
,
1000
0001
1010
0001
0100
0001
1100
0001
0010
0001
1010
0001
0100
0001
0110
0001
,
1000
0001
1010
0001
0100
0001
0110
0001
0100
0001
0110
0001
0100
0010
1100
0010
,
0100
0001
1100
0001
1100
0001
1100
0011
1100
0011
1100
0011
1100
0011
1100
0011
,
1100
0011
1100
0011
1100
0010
0100
0010
1100
0010
0100
0010
0100
0001
0100
0001
,
1010
0001
0010
0001
0100
0001
0100
0001
0110
0001
0100
0001
0010
0001
0010
0001
,
1100
0001
0100
0001
1000
0001
1000
0001
1010
0001
1000
0001
0100
0001
0100
0001
,
1010
0001
0010
0001
0100
0001
1000
0001
0110
0001
0010
0001
0100
0001
1000
0001
,
1010
0001
0100
0001
1000
0100
1000
0100
1001
0100
1000
0100
1000
0010
1000
0010
,
1100
0001
1000
0001
1000
0010
1000
0010
1001
0010
1000
0010
1000
0001
1000
0001
,
1100
0010
1000
0010
1000
0100
1000
0100
1001
0100
1000
0100
1000
0010
1000
0010
,
0101
0010
0100
0010
1100
0001
0100
1001
0100
0001
1100
0001
1010
0001
1010
0101
,
1010
0101
1010
0101
1020
0000
0000
0000
1000
0000
0000
0000
0001
0000
0000
0000
,
0000
0000
1000
0000
1230
0000
0000
0000
0000
0000
0010
1000
0001
0000
0001
0000
,
0000
1000
2310
0000
0010
0000
3021
0000
,
0230
1000
1320
0000
0000
0000
0132
0000
,
1023
0000
0000
2031
0000
3201
0000
2310
0000
3021
0000
0000
,
0000
0000
0000
0231
,
0321
0000
0000
2031
0000
3120
0000
2130
0000
3201
0000
0000
,
0000
0000
0000
0000
0000
0000
0000
0000
0000
0000
0000
0000
0001
0000
0000
0000
0000
0000
1000
0000
0001
0000
1000
0000
0320
0000
0000
0000
0000
0000
0230
0000
0000
0010
0000
0000
1302
0000
0000
0000
0000
0000
0000
0000
0000
0000
0000
0000
,
1000
0000
0213
0000
0000
1000
1320
0000
,
2031
0000
3201
0000
0000
1000
0001
0001
,
2300
3210
1320
0000
0000
1000
0001
0001
,
0230
0000
0000
0000
0000
0000
1000
0000
0000
0000
0000
0000
2310
0000
0000
0000
0000
0000
0000
0000
0000
0000
0000
0000
0000
0000
0000
0000
0000
0000
0100
0000
0000
0000
0000
3000
2001
0000
0000
0000
0000
0000
0001
0000
0000
0000
0000
3000
,
2000
0000
0000
0000
0000
3000
1010
0000
0000
0100
0000
0000
0021
0000
0000
0000
0000
0000
0000
0000
0000
0000
0000
0000
0000
0000
0000
0000
0000
0000
1000
0000
0000
0000
0000
0000
0001
0000
0000
0000
0000
0000
0001
0000
0000
0000
0000
0000
,
0230
0000
1320
0000
1032
0000
0000
0000
0010
0000
0000
0000
0010
0000
1013
1001
,
0100
0001
0010
0100
1010
0001
1000
0100
1010
0001
0010
0100
0010
0001
0100
0010
,
0101
1000
0100
0010
0001
0010
1000
0100
0011
0100
0001
0010
0100
1000
0010
1000
,
0110
0001
0100
0010
0100
1000
0100
0001
1100
0010
0001
0010
0100
1000
0001
1000
,
0110
0100
0100
0100
0001
0001
0001
0001
0110
0100
0100
0100
0010
0010
0010
0010
,
1001
1000
1000
1000
0101
0010
0001
0010
1001
0100
0010
0001
0010
0100
0001
0100
,
0011
0100
1000
0010
1000
0100
0001
0100
1010
0001
1000
0001
1000
0100
0010
0001
,
1010
0100
1000
0100
0010
0100
1000
0100
0011
1000
0100
0010
0001
0010
0100
0010
,
0101
1000
0100
0010
0001
0010
1000
0100
0011
0100
0001
0010
1100
0010
1100
0011
,
1100
0011
1100
0011
1100
0010
0001
0100
1001
0010
0100
0010
1000
0100
0010
0100
,
1001
0100
0010
0001
0010
0001
0100
0010
0101
1000
0100
0010
0001
1000
0001
1000
,
0101
0010
0100
0010
1001
0010
0100
1000
0011
0100
1000
0100
0010
0100
0010
0001
,
1100
0010
0100
1000
0110
0001
0010
1001
0110
1001
0110
1001
0110
1001
0110
1001
,
0110
1001
0110
1001
0110
0000
0000
0000
0100
0000
0000
0000
0101
0000
0000
0000
,
0101
0001
1010
0000
0101
0001
1100
0000
,
0110
0000
0100
0100
0000
0000
0001
0000
,
0000
0000
0000
0000
0100
0000
0100
0010
1000
0000
1000
0000
1000
0000
1000
0000
,
0100
0000
0000
0000
0000
0000
0000
0000
0000
0000
0000
0000
0000
0000
0000
0000
0001
0000
0000
0000
0000
0000
0000
0000
0000
0000
0000
0000
0000
0000
0000
0000
0100
0000
0000
0000
0000
0000
0000
0000
0000
0000
0000
0000
0000
0000
0000
0000
0020
0000
0000
0000
0000
0000
0000
0000
0000
0000
0000
0000
0000
0000
0000
0000
0000
0000
0000
0000
0000
0000
0000
0000
0000
0000
0000
0000
0000
0000
0000
0000
0000
0000
0000
0000
0000
0000
0000
0000
0000
0000
0000
0000
0000
0000
0000
0000
0000
0000
0000
0000
0000
0000
0000
0000
0000
0000
0000
0000
0000
0000
0000
0000
0000
0000
0000
0000
0000
0000
0000
0000
0000
0000
0000
0000
0000
0000
0000
0000
0000
0000
0000
0000
0000
0000
0000
0000
0000
0000
0000
0000
0000
0000
0000
0000
0000
0000
0000
0000
0000
0000
0000
0000
0000
0000
0000
0000
0000
0000
0000
0000
0000
0000
0030
0000
0000
0000
0000
0000
0002
0000
0000
0000
0000
0000
0000
0000
0000
0000
0000
0000
0000
0000
0000
0000
0000
0000
0000
0000
0000
0000
0000
0000
,
0000
0000
0000
0000
0000
0000
0000
0000
0000
0000
0000
0000
0000
0000
0000
0000
0000
0000
0000
0000
0000
0000
0000
0000
0000
0000
0000
0000
0000
0000
0000
0000
0000
0000
0000
0000
0000
0000
0000
0000
0000
0000
0000
0000
0003
0000
0000
0000
0002
0000
0000
0000
0000
0000
0000
0000
0000
0000
0000
0000
0000
0000
0000
0000
0000
0000
0000
0000
0000
0000
0000
0000
0000
0000
0000
0000
0000
0000
0000
0000
0000
0000
0000
0000
0000
0000
0000
0000
0000
0000
0000
0000
0000
0000
0000
0000
0000
0000
0000
0000
0000
0000
0000
0000
0000
0000
0000
0000
0000
0000
0000
0000
0000
0000
0003
0000
0000
0000
0000
0000
0001
0000
0000
0000
0000
0000
0000
0000
0000
0000
0000
0000
0010
0000
0000
0000
0000
0000
0000
0000
0000
0000
0000
0000
0200
0000
0000
0000
0000
0000
0000
0000
0000
0000
0000
0000
0000
0000
0000
0000
0000
0000
0000
0000
0000
0000
0000
0000
0000
0000
0000
0000
0000
0000
0000
0000
0000
0000
0000
0000
0000
0000
0000
0000
0000
0000
0000
0000
0000
0000
0000
0000
,
0320
0000
0000
0000
0000
0000
0000
0000
1030
0020
0000
0000
0000
0000
0000
0000
0000
0000
0000
0000
0000
0000
0000
0000
0000
0000
0000
0000
0130
0000
1000
0000
,
0200
0000
0000
0300
0000
0000
0020
0000
0000
0030
0000
0000
0002
0000
0000
0000
0000
0000
0003
0000
0020
0000
0000
0000
0000
0000
0000
0000
0000
0000
0000
0000
0000
0000
0000
0000
0000
0000
0000
0000
0000
0000
0230
0000
0000
0000
0000
0000
,
0000
0000
0000
0000
0000
0000
0000
0000
0000
0000
0000
0000
0000
0000
0000
0000
0320
0000
0000
0000
0000
0000
0000
0000
0000
0000
0000
0000
0000
0000
0000
0000
0000
0030
0000
0000
0000
0000
0000
0000
0000
0000
0000
0000
0000
0000
0000
0000
0020
0000
0000
0000
0000
0000
0000
0000
0000
0000
0000
0000
0000
0000
0000
0000
0000
0000
0000
0000
0000
0000
0000
0000
0000
0000
0000
0000
0000
0000
0000
0000
0000
0000
0000
0000
0000
0000
0000
0000
0000
0000
0000
0000
0000
0000
0000
0000
0000
0000
0000
0000
0000
0000
0000
0000
0000
0000
0000
0000
0130
0000
0000
0000
0000
0000
0000
0000
0000
0000
0000
0000
0020
0000
0000
0000
0000
0000
0000
0000
0000
0000
0000
0000
0030
0000
0000
0000
0000
0000
0000
0000
0000
0000
0000
0000
0200
0000
0000
0000
0000
0000
0000
0000
0000
0000
0000
0000
0300
0000
0000
0000
0000
0000
0000
0000
0000
0000
0000
0000
2000
0000
0000
0000
0000
0000
0000
0000
0000
0000
0000
0000
0000
0000
0000
0000
0000
0000
0000
0000
0000
0000
0000
0000
,
0000
0000
3000
0200
0000
0000
0300
0000
2000
0000
0000
0000
0000
0000
0000
0000
0000
0000
0000
0000
3002
0000
0000
0000
0000
0000
0000
0000
0000
0000
0000
0000
,
2003
0000
0000
0000
0000
0000
0000
0000
0000
0000
0000
0000
3200
0000
0000
0000
0000
0000
0000
0000
0000
0000
0000
0000
0000
0000
0000
0000
0000
0000
0000
0000
0000
0000
0000
0000
0000
0000
0000
0300
0010
0000
0000
0000
0100
0000
0000
0000
,
1000
0000
0000
0000
0000
0000
0000
0000
0000
0000
0000
0000
0000
0000
0000
0000
0100
0000
0000
0000
0000
0000
0000
0000
0000
0000
0000
0000
0000
0000
0000
0000
0000
0010
0000
0000
0000
0000
0000
0000
0000
0000
0000
0000
0000
0000
0000
0000
2000
0000
0000
0000
0000
0000
0000
0000
0000
0000
0000
0000
0000
0000
0000
0000
0000
0000
0000
0000
0000
0000
0000
0000
0000
0000
0000
0000
0000
0000
0000
0000
0000
0000
0000
0000
0000
0000
0000
0000
0000
0000
0000
0000
0000
0000
0000
0000
0000
0000
0000
0000
0000
0000
0000
0000
0000
0000
0000
0000
0000
0000
0000
0000
0000
0000
0000
0000
0000
0000
0000
0000
3200
0000
0000
0000
0000
0000
0000
0000
0000
0000
0000
0000
0300
0000
0000
0000
0000
0000
0000
0000
0000
0000
0000
0000
0020
0000
0000
0000
0000
0000
0000
0000
0000
0000
0000
0000
0030
0000
0000
0000
0000
0000
0000
0000
0000
0000
0000
0000
0100
0000
0000
0000
0000
0000
0000
0000
0001
0000
0000
0000
0000
0000
0000
0000
0100
0000
0000
0000
0000
0000
0000
0000
,
2000
0000
3020
0000
0230
0000
0000
0000
0000
0000
1300
1000
2000
3000
0100
0100
,
0200
0000
0000
0300
0000
0000
0010
0000
0000
0010
0000
0000
0020
0000
0000
0030
0000
0000
0001
0000
0010
0000
0001
0000
0200
0000
0000
0300
0000
0000
0020
0000
0000
0030
0000
0000
1000
0000
0100
0000
0010
0000
0100
0000
0000
0010
0000
0000
,
1000
0000
0100
0000
0010
0000
0001
0000
0020
0000
0000
0000
0000
0000
0000
0000
0000
0000
0000
0000
0000
0000
0000
0030
0200
0000
0000
0000
0000
0000
0000
0000
,
0000
0000
0000
0000
0000
0000
0000
0000
0000
0000
0000
0310
0002
0000
0000
0000
0000
0000
0000
0000
0000
0000
0000
0000
0000
0000
0000
0000
0000
0000
0000
0000
0000
0000
0000
0000
2003
0000
0000
0000
0000
0000
0000
0000
0000
0000
0000
0000
,
0000
0000
0000
0000
0000
0000
0000
0000
0000
3000
0002
0000
0003
0000
0020
0000
0030
0000
0002
0000
0000
0000
0000
0000
0000
0000
0000
0000
0000
0000
0000
0000
0000
0000
0000
0000
0000
0000
0000
0000
0000
0000
0023
0000
0000
0030
0000
0000
,
0000
0200
0300
0000
2000
0000
3200
0000
0000
0000
0000
0000
0000
0000
2300
0000
,
0000
3200
0000
0300
0020
0000
0000
0000
0000
0000
0000
0000
0000
0000
0000
0000
,
0000
0000
0000
0000
0130
0000
0010
0000
0002
0000
0000
0000
0000
0000
0000
0000
0000
0000
0000
0000
0000
0000
0000
0000
0000
0000
1003
0100
0020
0000
0030
0000
,
0002
0003
0020
0030
0200
0000
0302
0000
2003
0000
0000
0000
0000
0000
0000
0000
,
3200
0000
0000
0000
0000
0000
0000
0000
0000
0000
0000
0000
0000
0000
0000
0000
0000
0000
0000
0000
0000
0000
0000
0000
0310
0000
0000
0000
0000
0000
0000
0000
0000
0000
0000
0000
0100
0000
0000
0000
0000
0000
0000
0000
0000
0000
0000
0000
2000
0000
0000
0000
0000
0000
0000
0000
0000
0000
0000
0000
0000
0000
0000
0000
0000
0000
0000
0000
0000
0000
0000
0000
0000
0000
0000
0000
0000
0000
0000
0000
0000
0000
0000
0000
0000
0000
0000
0000
0000
0000
0000
0000
0000
0000
0000
0000
0000
0000
0000
0000
0000
0000
0000
0000
0000
0000
0000
0000
0000
0000
0000
0000
0000
0000
0000
0000
0000
0000
0000
0000
3100
0000
0000
0000
0000
0000
0000
0000
1000
0000
0000
0000
0000
0000
0000
0000
0100
0000
0000
0000
0000
0000
0000
0000
0010
0000
0000
0000
0000
0000
0000
0000
0001
0000
0000
0000
0000
0000
0000
0000
0000
0000
0010
0000
0000
0000
0000
0000
0000
0000
0000
0100
0000
0000
0000
0000
0000
0000
0000
0000
0000
0000
0000
0000
0000
0000
0010
0000
0000
0000
0000
0000
,
0000
0000
0000
0000
0000
1000
0000
0000
0000
0000
0001
0000
0000
0000
0000
0000
0200
0000
0000
0000
0000
0000
0000
0000
0000
0000
0000
0000
0000
0000
0000
0000
0000
0000
0000
0000
0000
0000
0000
0000
0000
0000
0000
0000
0000
0000
0000
0000
0000
0000
0000
0000
0000
0000
0000
0000
0000
0000
0000
0000
0000
0000
0000
0000
,
0320
0000
2030
3000
0020
0000
0000
0000
0000
0000
0000
0000
0000
0000
0000
0000
,
0032
0000
0000
0000
0000
0000
2003
0000
0000
3000
0000
0000
0002
0000
0000
0000
0000
0000
0000
0003
0002
0000
0000
0000
0000
0000
0000
0003
0002
0000
0000
0000
0000
0000
0000
0003
0002
0000
0000
0000
0000
0000
0000
0000
0000
0000
0000
0000
,
0023
0030
0200
0300
0002
0000
0023
0000
0032
0000
2003
0000
3020
0000
0230
0000
,
2300
0000
0000
0000
0000
0000
3200
0000
0000
0000
0000
0000
0302
0000
0000
0000
0000
0000
0000
0000
0000
0000
0000
0000
0000
0000
0000
0000
0000
0000
0013
0000
0000
0010
0000
0000
0020
0000
0000
0030
0000
0000
0020
0000
0030
0000
0000
0000
,
0001
0000
0000
0000
0000
0000
0000
0000
0000
0000
0000
0000
1000
0000
0000
0000
0000
0000
0100
0000
0000
0000
0000
0000
0010
0000
0000
0000
0000
0000
0000
0000
0001
0000
0000
0000
0000
0000
0000
0000
0010
0000
0000
0000
0000
0000
0000
0000
0100
0000
0000
0000
0000
0000
0000
0000
0000
0000
0000
0000
0001
0000
0000
0000
0000
0000
0000
0000
0000
0000
0000
0000
0010
0000
0000
0000
0000
0000
0000
0000
0100
0000
0000
0000
0000
0000
0000
0000
1000
0000
0000
0000
0000
0000
0000
0000
0100
0000
0000
0000
0000
0000
0000
0000
0010
0000
0000
0000
0000
0000
0000
0000
0100
0000
0000
0000
0000
0000
0000
0000
1000
0000
0000
0000
0000
0000
0000
0000
0000
0000
0000
0000
0100
0000
0000
0000
0000
0000
0000
0000
0000
0000
0000
0000
0010
0000
0000
0000
0000
0000
0000
0000
0000
0001
0000
0000
0000
0000
0000
0000
0000
0000
1000
0000
0000
0000
0000
0000
0000
0000
0000
0200
0000
0000
0000
0000
0000
0000
0000
0000
0300
0000
0000
0000
0000
0000
0000
0000
0020
0000
0000
0000
,
0000
0000
0000
0000
0030
0000
0000
0000
0000
0000
0000
0000
0000
0000
0000
0200
0000
0000
0000
0000
0000
0000
0000
0000
0300
0000
0000
0000
0000
0000
0000
0000
0020
0000
0000
0000
0000
0000
0000
0000
0000
0000
0000
0000
0030
0000
0000
0000
0000
0000
0000
0000
0000
0000
0002
0000
0000
0000
0000
0000
0000
0000
0000
0000
0000
0000
0000
0000
0000
0000
0000
0000
0000
0000
0000
0000
0000
0000
0000
0000
0000
0000
0000
0000
0000
0000
0000
0000
0000
0000
0000
0000
0000
0000
0000
0000
0000
0000
0000
0000
0000
0000
0000
0000
0000
0000
0000
0000
0000
0000
0000
0000
0000
0000
0000
0000
0000
0000
0000
0000
0000
0000
0000
0000
0000
0000
0000
0000
0000
0000
0000
0000
0000
0000
0000
0000
0000
0000
0000
0000
0000
0000
0000
0000
0023
0000
0000
0000
0000
0000
0000
0000
0000
0000
0000
0000
0000
0000
0000
0000
0000
0000
0000
0000
0000
0000
0000
0000
0000
0000
0000
0000
0000
0000
0000
0000
0000
0000
0000
0000
0000
0000
0000
0000
0000
0000
0000
0000
0000
0000
0000
0000
,
0000
0000
0000
0000
0000
0000
0000
0000
0000
0000
0000
0000
0000
0000
0000
0030
0000
0000
1000
0000
0000
0000
0000
0000
0200
0000
0000
0000
0000
0000
0000
0000
0300
0000
0000
0000
0000
0000
0000
0000
0000
0000
0000
0000
0000
0000
0000
0000
0010
0000
0000
0000
0000
0000
0000
0000
0000
0000
0000
0000
0000
0000
0000
1000
0000
0000
0000
0000
0000
0000
0000
0000
0000
0000
0000
0000
0000
0000
0000
0000
0000
0000
0000
0000
0000
0000
0000
0100
0000
0000
0000
0000
0000
0000
0000
0000
0000
0000
0000
0000
0000
0000
0010
0000
0000
0000
0000
0000
0000
0000
0000
0000
0000
0000
0000
0000
0000
1000
0000
0000
0000
0000
0000
0000
0000
0000
0000
0000
0000
0000
0000
0000
0100
0000
0000
0000
0000
0000
0000
0000
0000
0000
0000
0000
0020
0000
0000
0000
0000
0000
0000
0000
0000
0000
0000
0000
0030
0000
0000
0000
0000
0000
0000
0000
0000
0000
0000
0000
0000
0000
0000
0000
0000
0000
0000
0000
1000
0000
0000
0000
0000
0000
0000
0000
0000
0000
0000
0000
0000
0000
0000
0000
,
0100
0000
0000
0000
0010
0000
0000
0000
0001
0000
0000
0000
0020
0000
0000
0000
0000
0000
0000
0000
0000
0000
0000
0000
0000
0000
0000
0000
0000
0000
1030
0000
0100
0000
0010
0000
0002
0000
0000
0003
0000
0000
0010
0000
0000
0100
0000
0000
,
0010
0000
0001
0000
0100
0000
0010
0100
2000
0000
0000
0000
0000
0000
0000
0000
0000
0000
0000
0000
0000
0000
0000
0000
0000
0000
0000
0000
0000
0000
0000
3000
,
1000
0000
0000
0000
0000
0000
0000
0000
0000
0000
0000
0000
0000
0000
0000
0000
0100
0000
0000
0000
0000
0000
0000
0000
0000
0000
0000
0000
0000
0000
0000
0000
1000
0000
0000
0000
0000
0000
0000
0000
0000
0000
0000
0000
0000
0000
0000
0000
0100
0000
0000
0000
0000
0000
0000
0000
0000
0000
0000
0000
0000
0000
0000
0000
0010
0000
0000
0000
0000
0000
0000
0000
0000
0000
0000
0000
0000
0000
0000
0000
1000
0000
0000
0000
0000
0000
0000
0000
0000
0000
0000
0000
0000
0000
0000
0000
0100
0000
0000
0000
0000
0000
0000
0000
0000
0000
0000
0000
0010
0000
0000
0000
0000
0000
0000
0000
0000
0000
0000
0000
0001
0000
0000
0000
0000
0000
0000
0000
0000
0000
0000
0000
0010
0000
0000
0000
0000
0000
0000
0000
0000
0000
0000
0000
0100
0000
0000
0000
0000
0000
0000
0000
0000
0000
0000
0000
0001
0000
0000
0000
0000
0000
0000
0000
0000
0000
0000
0000
1000
0000
0000
0000
0000
0000
0000
0000
0000
0000
0000
0000
0100
0000
0000
0000
0000
0000
0010
0000
0000
0000
0000
0000
,
0002
0000
0000
0000
0000
0000
0000
0000
0000
0000
0000
0000
0000
0000
0000
0000
0000
0000
0000
0000
0000
0000
0000
0000
0000
0000
0000
0000
0000
0000
0000
0000
0000
0000
0000
0000
0000
0000
0000
0000
0000
0000
0003
0000
0000
0000
0000
0000
1002
0000
0000
0000
0000
0000
0000
0000
0000
0000
0000
0000
0100
0000
0000
0000
0000
0000
0000
0000
0000
0000
0000
0000
0023
0000
0000
0000
0000
0000
0000
0000
0000
0000
0000
0000
0100
0000
0000
0000
0000
0000
0000
0000
0000
0000
0000
0000
1032
0000
0000
0000
0000
0000
0000
0000
0000
0000
0000
0000
0000
0000
0000
0000
0000
0000
0000
0000
0000
0000
0000
0000
0023
0000
0000
0000
0000
0000
0000
0000
0000
0000
0000
0000
0100
0000
0000
0000
0000
0000
0000
0000
0000
0000
0000
0000
2032
0000
0000
0000
0000
0000
0000
0000
0000
0000
0000
0000
0000
0000
0000
0000
3000
0000
0000
0000
0000
0000
0000
0000
0023
0000
0000
0000
0000
0000
0000
0000
0000
0000
0000
0000
1000
0000
0000
0000
0000
0000
0000
0000
0000
0000
0000
0000
,
0232
0000
0300
1000
0000
0000
1023
0000
0000
0000
0000
0000
1000
0000
0000
0000
0000
0000
0001
0000
0000
1230
0000
0000
,
0000
0000
0320
1000
0000
0000
2031
0000
0000
0000
0000
0000
0100
0000
0000
0000
0000
0000
3201
0000
0000
1000
0320
0000
,
0000
0000
0230
1000
0000
0000
2310
0000
0000
0000
0000
0000
0100
0000
0000
0000
0000
3000
2001
0000
0000
0100
3002
0000
,
0000
0000
0023
0100
0000
0000
1230
0000
0000
0001
0000
0000
0000
0000
0000
0010
0000
0000
2301
0000
0000
0000
0000
0000
,
3201
0001
1320
0000
1000
0000
0001
1230
,
0302
0000
0000
1023
0000
0000
1230
0000
0000
0000
0000
0000
1000
0000
0000
0000
0000
0000
0321
0000
0000
1000
0230
0000
,
0000
0000
2300
0010
0000
0000
3210
0000
0000
0000
0000
0000
0010
0000
0000
0000
0000
0000
0321
0000
0000
1000
0000
0000
,
0000
0000
0000
0000
0000
0000
1000
0000
0000
0000
0030
0000
1020
0000
0000
0030
0000
0000
1010
0000
0001
0000
1000
0000
0010
0000
0000
0000
0000
0000
1100
0000
0000
0000
0000
0000
2001
0000
0000
0000
0000
0000
0001
0000
0000
0000
0000
0000
,
3201
0001
0321
0000
1000
0000
0001
1230
,
0000
0000
0320
1000
0000
0000
2031
0000
0000
0000
0000
0000
0100
0000
0000
0000
0000
0000
3201
0000
0000
1000
0302
0000
,
0000
0000
0000
0000
0203
0000
1000
0000
0000
0000
0000
0000
1320
0000
0000
0030
0000
0000
0001
0000
0100
0000
0001
0000
1100
0000
0000
0000
0000
0000
0020
0000
0000
0030
0000
0000
0101
0000
1000
0000
0001
0000
1100
0000
0000
0000
0000
0000
,
0020
0000
0000
0030
0000
0000
1100
0000
0010
0000
0100
0000
1010
0000
0000
0000
0000
0000
0021
0000
0000
0030
0000
0000
1001
0000
0100
0000
1000
0000
0011
0000
0000
0000
0000
0000
2001
0000
0000
0000
0000
0000
0010
0000
0000
0000
0000
0000
,
3201
0001
1000
0000
0321
0000
0000
0000
0000
0000
0000
0000
0000
0000
1230
0000
,
0000
0000
0000
0312
0000
0000
2013
0000
0000
0000
0000
0000
0000
0000
0000
0000
0000
0000
3201
0000
0000
0300
0020
0000
,
0031
0100
0010
0100
2001
0000
0000
0000
0000
0000
0000
0000
3200
0000
0000
0000
,
0000
0000
0000
0000
0000
0000
0000
0000
0000
0000
0000
0000
0000
0000
0000
0000
0000
0000
0000
0000
0000
0000
0000
0000
0000
0000
0000
0000
0000
0000
0000
0000
0000
0000
0000
0000
0000
0000
0000
0000
0000
0000
0000
0000
0300
0000
0000
0000
0120
0000
0000
0000
0000
0000
0000
0000
0000
0000
0000
0000
0000
0000
0000
0000
0000
0000
0000
0000
0000
0000
0000
0000
0100
0000
0000
0000
0000
0000
0000
0000
0000
0000
0000
0000
0000
0000
0000
0000
0000
0000
0000
0000
0000
0000
0000
0000
0100
0000
0000
0000
0000
0000
0000
0000
0000
0000
0000
0000
0000
0000
0000
0000
0000
0000
0000
0000
0000
0000
0000
0000
0100
0000
0000
0000
0000
0000
0000
0000
0000
0000
0000
0000
0000
0000
0000
0000
0000
0000
0000
0000
0000
0000
0000
0000
0132
0000
0000
0000
0000
0000
0000
0000
0000
0000
0000
0000
0000
0000
0000
0000
0000
0000
0000
0000
0000
0000
0000
0000
0100
0000
0000
0000
0000
0000
0000
0000
0000
0000
0000
0000
0010
0000
0000
0000
0000
0000
0003
0000
0000
0000
0000
0000
,
0101
0000
0101
1001
0210
0000
0000
0000
0000
0000
0000
0000
1320
0000
0000
0000
,
0000
0231
0000
1302
,
0000
0213
0000
1320
,
0000
0000
0000
0000
0231
0000
0000
0000
0001
0000
0000
0000
0001
1000
0001
1000
,
0001
0000
0000
1000
0000
0000
0001
0000
0000
1000
0000
0300
0210
0000
0000
0000
0000
0000
0000
0000
0000
0000
0000
0000
0000
0000
0000
0000
0000
0000
0000
0000
0000
0000
0000
0000
1320
0000
0000
0000
0000
0000
0000
0000
0000
0000
0000
0000
,
0000
0231
0000
1302
,
0000
0213
0000
1320
,
0000
0000
0000
0000
1031
0100
0010
1001
0100
0010
1001
0010
1001
0100
1001
0110
,
1001
0110
1001
0110
1001
0100
0010
0001
1010
0100
0010
0100
0010
0001
0010
1000
,
0110
0001
0100
0001
0100
0010
1000
0100
1001
0010
0001
0010
0001
1000
0100
1000
,
0011
0100
0010
0100
0010
1000
0001
0010
1001
0100
1000
0100
1000
0001
0010
0001
,
0110
1000
0100
0001
1010
0100
1010
0101
1010
0101
1010
0101
1010
0100
0010
0001
,
1000
0100
0010
0001
1100
0010
0001
0010
0101
1000
0100
1000
0100
0010
1000
0100
,
0011
1000
0001
1000
0001
0100
1000
0100
1010
0001
0010
0001
0010
0100
1000
0010
,
1100
0001
0100
0001
0100
0010
0001
0100
1010
0001
0010
0001
0010
1000
0100
0001
,
1010
0100
1000
0100
1001
0010
0100
1010
0001
0100
1001
0100
0011
1000
0011
1100
,
0011
1100
0011
1100
0011
0100
0010
0001
0110
1000
0100
0010
1001
0100
0010
0100
,
0011
1000
0100
0010
1001
0100
1001
0110
1001
0110
1001
0110
1001
0100
0001
0100
,
0010
1000
0010
1000
0220
0000
0000
0000
0000
0000
0000
0000
0032
0000
0000
0000
,
0000
2323
0000
0230
,
0000
3322
0000
0000
,
0000
0000
0000
0000
0000
0033
0022
0000
0000
0033
0000
0000
0000
0000
0000
0000
0000
0000
0000
0000
0000
0000
0000
0000
;

//---------------dance-single - ----------------
#NOTES:
     dance-single:
     :
     Hard:
     11:
     1.000,1.000,0.824,0.918,1.000,1942.000,274.000,305.000,0.000,66.000:
0100
0000
0000
0000
0000
0000
0010
0000
0000
0000
0000
0000
0102
0000
0000
0000
0000
0000
0000
0000
0000
0000
0000
0000
0103
0000
0000
0000
0000
0000
0010
0000
0000
0000
0000
0000
1200
0000
0000
0000
0000
0000
0000
0000
0000
0000
0000
0300
,
0100
0000
0000
0000
0000
0000
0010
0000
0000
0000
0000
0000
1002
0000
0000
0000
0000
0000
0000
0000
0000
0000
0000
0000
0103
0000
0000
0000
0000
0000
0010
0000
0000
0000
0000
0000
1200
0000
0000
0000
0000
0000
0000
0000
0000
0000
0000
0300
,
0100
0000
0000
0000
0000
0000
0010
0000
0000
0000
0000
0000
0102
0000
0000
0000
0000
0000
0000
0000
0000
0000
0000
0000
0103
0000
0000
0000
0000
0000
0010
0000
0000
0000
0000
0000
1200
0000
0000
0000
0000
0000
0000
0000
0000
0000
0000
0300
,
0100
0000
0010
0000
0101
0000
1000
0000
0101
0000
1000
0000
0101
1000
0001
1000
,
0001
0000
0000
1000
0000
0000
0001
0000
0000
1000
0000
0000
0102
0000
0000
0000
0000
0000
0010
0000
0000
0000
0000
0000
0103
0000
0000
0000
0000
0000
0010
0000
0000
0000
0000
0000
1200
0000
0000
0000
0000
0000
0000
0000
0000
0000
0000
0300
,
0100
0000
0000
0000
0000
0000
0010
0000
0000
0000
0000
0000
0102
0000
0000
0000
0000
0000
0000
0000
0000
0000
0000
0000
0103
0000
0000
0000
0000
0000
0010
0000
0000
0000
0000
0000
1200
0000
0000
0000
0000
0000
0000
0000
0000
0000
0000
0300
,
0100
0000
0000
0000
0000
0000
0010
0000
0000
0000
0000
0000
0102
0000
0000
0000
0000
0000
0000
0000
0000
0000
0000
0000
0103
0000
0000
0000
0000
0000
0010
0000
0000
0000
0000
0000
1200
0000
0000
0000
0000
0000
0000
0000
0000
0000
0000
0300
,
0100
0010
0102
1000
0103
0010
0001
0000
,
0100
0010
0201
0000
0000
0000
2000
0000
,
0000
0000
0000
0000
0000
0000
0000
3300
0101
0000
0000
0000
1000
0000
0000
0000
0001
0000
0000
0000
0101
0000
0000
0000
0011
0000
0000
0000
0001
0000
0000
0000
,
1000
0011
0101
0010
1000
0101
0110
1010
,
1001
1010
0101
1000
0001
0101
0011
0001
,
1000
0000
0011
0000
0101
0000
0010
0000
1000
0000
0101
0000
0100
0010
0001
0010
,
0100
1010
1100
0001
0100
1100
1001
0100
,
0001
1001
1100
1000
0001
1100
0101
0011
,
1001
0011
1100
0001
0100
1100
1001
0100
,
0001
0000
1001
0000
1100
0000
1000
0001
1000
0001
1000
0001
1000
0010
0100
0010
,
1000
0100
0010
0001
0110
1000
0100
1000
0001
0010
0001
0010
0100
0010
0100
0010
,
0100
1000
0100
1000
0001
0010
0001
0010
0100
0010
0100
0010
0100
1000
0001
1000
,
0001
1000
0001
1000
0101
0000
1000
0000
0001
0000
0101
0000
0110
0000
0001
0000
,
0100
0110
0101
0010
1000
0101
0011
1001
,
1010
0000
1001
0000
0110
1000
0100
1000
0001
0010
0001
0010
0100
0010
0100
0010
,
0100
1000
0100
1000
0001
0010
0001
0010
0100
0010
0100
0010
0100
1000
0100
1000
,
0001
0010
0001
0010
1001
0000
0010
0000
1000
0000
1001
0000
1010
0000
1000
0000
,
0001
0000
0001
2000
3201
0321
1032
0000
,
1000
1000
0000
0003
0101
0010
0100
1000
0100
0010
0100
1000
0010
0100
0001
0010
,
0100
0010
0001
0100
0010
0100
0010
1000
0100
0010
0001
1000
0001
1000
0100
0010
,
0100
1000
0010
1000
0110
0001
0100
0010
0100
0001
0010
0100
0010
0001
0100
0001
,
0100
0001
0010
0100
1010
0100
0010
0001
0100
0001
0010
0001
1000
0010
1000
0001
,
1000
0001
1000
0001
1100
0010
0100
0001
0010
0001
0100
0010
0100
0001
0100
0010
,
1000
0100
0010
0100
1000
0010
0100
0010
1000
0100
0010
0100
1000
0001
0010
0100
,
0010
0001
0100
0010
1001
0100
0010
0001
0100
0001
0010
0001
0100
0010
0100
0010
,
1000
0001
0100
0010
0101
0001
1000
0100
0011
0100
1001
0001
1000
0100
0010
0001
,
1000
0100
0010
0001
2010
0000
3000
0000
1001
0000
1000
0000
1000
0000
1000
0000
,
1001
0000
1000
0010
1002
0000
0003
0000
0011
0000
0001
0000
0001
0000
0001
0000
,
0011
0000
0001
0010
1002
0000
0003
0000
1010
0000
1000
0000
0012
0000
0003
0000
,
1100
1000
0120
0030
1001
1000
0201
0300
,
1010
1000
2100
0000
0001
0000
0000
0000
,
0001
0000
0000
0000
0000
3000
1000
0000
0000
0000
0000
0000
2000
0000
0000
0000
0000
0000
0000
0000
0000
0000
0000
0000
0001
0000
0000
0000
0000
0000
0000
0000
0000
0000
0000
0000
0000
0000
0000
0000
0000
0000
0000
0000
0000
0000
0000
0000
,
0001
0000
0000
0000
0000
0000
0000
3000
2000
0000
0000
0000
0000
0000
0000
0000
0001
0000
0000
0000
0000
0000
0000
0000
0000
0000
0000
0000
0000
0000
0000
0000
,
0001
0000
0000
0000
0000
0000
0000
0000
0000
0000
0000
3000
0011
0000
0000
0000
0000
0000
0011
0000
0000
0000
0000
0000
0011
0000
0000
0000
0000
0000
0011
0000
0000
0001
0000
0000
0100
0000
0000
0010
0000
0000
1000
0000
0000
0001
0000
0000
,
0100
0010
1000
0001
0120
0000
0000
0000
0001
0000
0000
0000
0230
0000
0000
0000
,
0001
0320
0001
2030
,
0001
3020
0001
0230
,
0001
0000
0000
0000
0321
0000
0000
0001
0000
0000
0001
0000
0001
0000
0031
1000
,
0001
1000
0001
1000
0021
0000
0000
0000
0001
0000
0000
0000
0230
0000
0000
0000
,
0001
0320
0001
2030
,
0001
3020
0001
0230
,
0001
0000
0000
0000
0000
0000
0000
0000
0000
0000
0000
0000
0320
0000
0000
0000
0000
0000
0000
0000
0000
0000
0000
0000
0000
0000
0000
0000
0000
0030
0220
0000
0000
0330
0000
0000
0220
0000
0000
0330
0000
0000
0000
0000
0000
0000
0000
0000
,
0002
0000
0000
0000
0000
0000
0000
0000
0000
0000
0000
0003
1010
0000
0000
0000
0000
0000
1000
0000
0000
0000
0000
0000
0001
0000
0000
0000
0000
0000
1010
0000
0000
0000
0000
0000
1100
0000
0000
0000
0000
0000
0001
0000
0000
0000
0000
0000
,
0100
1100
1010
0100
0001
1010
1001
0101
,
0011
0101
1010
1000
0001
1010
1100
0001
,
0100
0000
1100
0000
1010
0000
0100
0000
0001
0000
1010
0000
1000
0100
0010
0100
,
1000
0101
0110
1000
0010
0110
0011
0010
,
0100
0011
0110
0001
1000
0110
0101
1100
,
1010
1100
0011
1000
0010
0011
0110
0010
,
0100
0000
0001
0000
0011
0100
1000
0100
0010
0100
1000
0100
0010
0100
0001
0100
,
0010
0100
0001
0100
1001
0010
0100
1000
0010
0100
0010
1000
0100
0010
0001
0010
,
0100
0010
0001
0100
0010
0100
0010
1000
0001
0010
0001
0100
0010
0100
0001
0010
,
0100
1000
0100
0010
0101
0010
0100
1000
0100
0010
0001
0010
0100
0010
0001
0100
,
0010
0100
0001
0010
1100
0010
0001
0100
0001
0100
0010
1000
0001
0100
0010
1000
,
0010
1000
0010
1000
0011
0100
0001
1000
0001
0010
0100
1000
0100
1000
0100
0010
,
0001
0100
0010
0100
0001
1000
0100
0010
0001
0100
0010
0100
0010
1000
0100
1000
,
0010
1000
0001
1000
0110
0001
0100
0010
0100
0001
0010
0100
1000
0100
0010
0001
,
0100
0010
1000
0001
1010
0100
1000
0001
1000
0001
1000
0001
1000
0100
0010
0001
,
1000
0100
0010
0001
0210
0000
0300
0000
0101
0000
0100
0000
0100
0000
0100
0000
,
0101
0000
0100
1000
0120
0000
0030
0000
0011
0000
0010
0000
0010
0000
0010
0000
,
0011
0000
0010
1000
0012
0000
0003
0000
1100
0000
1000
0000
0102
0000
0003
0000
,
1010
1000
0120
0030
1100
1000
0201
0300
,
1001
1000
0012
0000
1000
0000
0000
0000
,
1000
0003
0002
0000
1000
0000
0000
0000
,
1000
0000
0000
0000
0000
0000
0000
0003
0002
0000
0000
0000
0000
0000
0000
0000
1000
0000
0000
0000
0000
0000
0000
0000
0000
0000
0000
0000
0000
0000
0000
0000
,
1000
0000
0000
0000
0000
0000
0000
0000
0000
0000
0000
0003
1100
0000
0000
0000
0000
0000
1100
0000
0000
0000
0000
0000
1000
0000
0000
0001
0000
0000
1000
0000
0000
0001
0000
0000
0010
0000
0000
0100
0000
0000
1000
0000
0000
0001
0000
0000
,
1000
0001
1000
0001
2010
0000
0000
0000
0010
0000
0000
0000
3002
0000
0000
0000
,
0010
2003
0010
3200
,
0010
2300
0010
3002
,
0010
0000
0000
0000
2013
0000
0000
0010
0000
0000
0010
0000
0010
0000
3010
0100
,
0010
0100
0010
0100
2010
0000
0000
0000
0010
0000
0000
0000
3002
0000
0000
0000
,
0010
2003
0010
3200
,
0010
2300
0010
3002
,
0010
0000
0000
0000
2013
0000
0010
0000
3010
0100
0010
0100
0010
0100
0010
0100
,
0010
0000
0100
0000
0010
0000
0100
0000
1002
0000
0000
0000
0000
0000
0000
0000
0100
0000
0000
0000
0023
0000
0000
0000
0230
0000
0000
0000
0000
0000
0000
0300
,
0101
0100
0020
0230
2301
0000
0000
0000
,
0001
0000
3020
0000
0100
0032
0023
0000
,
1130
0001
1000
0001
0020
0000
0230
0000
2301
0000
0000
0000
0000
0000
0000
0000
,
0001
0000
3100
0100
0011
0010
0100
0100
,
0011
0010
0020
0230
2301
0000
0000
0000
,
0001
0000
3100
0100
0011
0010
0100
0100
,
0011
0010
0020
0230
2301
0000
0000
0000
,
0001
0000
0000
0000
0000
0000
0000
0000
0000
0000
0000
0000
3021
0000
0000
0000
0000
0000
0000
0000
0000
0000
0000
0000
0000
0000
0000
0000
0000
0000
0130
0000
0001
0000
0010
0000
0100
0000
0000
0010
0000
0000
0001
0000
0000
0010
0000
0000
,
0100
0000
0000
0000
0000
0000
0000
0000
0000
0000
0000
0000
1000
0000
0000
0000
0000
0000
0000
0000
0001
0000
0000
0000
0000
0000
0000
0010
0000
0000
0000
0000
0000
0100
0000
0000
0000
0000
0000
0000
1000
0000
0000
0000
0000
0000
0000
0000
0200
0000
0000
0000
0000
0000
0000
0000
0000
0000
0000
0000
0000
0000
0000
0000
0000
0000
0000
0000
0000
0000
0000
0000
0000
0000
0000
0000
0000
0000
0000
0000
0000
0000
0000
0000
0000
0000
0000
0000
0000
0000
0000
0000
0000
0000
0000
0000
0000
0000
0000
0000
0000
0000
0000
0000
0000
0000
0000
0000
0300
0000
0000
0000
0000
0000
0000
0000
0000
0000
0000
0000
0001
0000
0000
0000
0000
0000
0000
0000
0000
0000
0000
0000
0001
0000
0000
0000
0000
0000
0000
0000
0000
0000
0000
0000
0002
0000
0000
0000
0000
0000
0000
0000
0000
0000
0000
0000
0003
0000
0000
0000
0000
0000
0000
0000
0000
0000
0000
0000
0010
0000
0000
0000
0000
0000
0000
0000
0001
0000
0000
0000
0000
0000
0000
0000
0010
0000
0000
0000
0000
0000
0000
0000
,
0200
0000
0000
0300
0000
0000
2000
0000
0000
3000
0000
0000
0020
0000
0000
0030
0000
0000
2000
0000
0000
0000
0000
0000
0000
0000
0000
0000
0000
3000
2000
0000
0000
0000
0000
0000
0000
0000
0000
0000
0000
0000
3010
0000
0200
0000
0000
0000
,
0300
0000
0000
0000
0000
0000
0000
0000
0000
0000
0000
0000
0100
0000
0000
0000
0000
0000
0000
0000
0020
0000
0000
0000
0000
0000
0000
0000
0000
0000
0000
0000
0000
0030
0000
0000
0000
0000
0000
0000
0000
0000
0000
0000
0000
0000
0000
0000
0002
0000
0000
0000
0000
0000
0000
0000
0000
0000
0000
0000
0000
0000
0000
0000
0000
0000
0000
0000
0000
0000
0000
0000
0000
0000
0000
0000
0000
0000
0000
0000
0000
0000
0000
0000
0000
0000
0000
0000
0000
0000
0000
0000
0000
0000
0000
0000
0000
0000
0000
0000
0000
0000
0000
0000
0000
0000
0000
0000
0000
0000
0000
0000
0000
0000
0000
0000
0000
0000
0000
0000
0000
0000
0000
0000
0000
0000
0000
0000
0000
0000
0000
0000
0000
0000
0000
0000
0000
0000
0000
0000
0000
0000
0000
0000
0023
0000
0000
0000
0000
0000
0000
0000
0000
0000
0000
0000
0000
0000
0000
0000
0000
0000
0000
0000
0000
0000
0000
0000
0030
0000
0000
0000
0000
0000
0000
0000
0000
0000
0000
0000
0002
0000
0000
0000
0000
0000
0000
0000
0000
0000
0000
0000
,
0003
0000
0000
0000
0000
0000
0000
0000
0000
0000
0000
0000
0000
0000
0000
0000
0000
0000
0000
0000
0000
0020
0000
0000
0000
0000
0000
0000
0000
0000
0000
0000
0000
0000
0000
0000
0000
0000
0000
0000
0000
0000
0030
0000
0000
0000
0000
0000
0100
0000
0000
0000
0000
0000
0000
0000
1000
0000
0000
0000
0000
0000
0000
0100
0000
0000
0000
0000
0000
0010
0000
0000
0000
0000
0000
0000
0001
0000
0000
0000
0000
0000
0000
0000
1000
0000
0000
0000
0000
0000
0000
0000
0000
0000
0000
0000
0100
0000
0000
0000
0000
0000
0000
0000
0000
0000
0000
0000
0010
0000
0000
0000
0000
0000
0000
0000
0000
0000
0000
0000
0100
0000
0000
0000
0000
0000
0000
0000
0000
0000
0000
0000
0001
0000
0000
0000
0000
0000
0000
0000
0000
0000
0000
0000
0100
0000
0000
0000
0000
0000
0000
0000
0000
0000
0000
0000
1000
0000
0000
0000
0000
0000
0000
0000
0100
0000
0000
0000
0000
0000
0000
0000
0010
0000
0000
0000
0000
0000
0000
0000
0100
0000
0000
0000
0000
0000
0000
0000
0000
0000
0000
0000
,
0001
0000
0000
0000
0000
0000
0000
0000
0000
0000
0000
0000
0100
0000
0000
0000
0000
0000
0000
0000
0000
0000
0000
0000
0010
0000
0000
0000
0000
0000
0000
0000
0000
0000
0000
0000
0100
0000
0000
0000
0000
0000
0000
0000
0000
0000
0000
0000
1000
0000
0000
0000
0000
0000
0000
0000
0000
0000
0000
0000
0000
0000
0000
0000
0100
0000
0000
0000
0000
0000
0000
0000
0010
0000
0000
0000
0000
0000
0001
0000
0000
0000
0000
0000
0010
0000
0000
0000
0000
0000
0100
0000
0000
0000
0000
0000
1000
0000
0000
0000
0000
0000
0000
0000
0000
0000
0000
0000
0000
0000
0000
0100
0000
0000
0000
0000
0000
0000
0000
0000
0000
0000
0000
0000
0000
0000
0000
0000
0000
0000
0000
0000
0000
0000
0000
0010
0000
0000
0000
0000
0000
0000
0000
0000
0001
0000
0000
0000
0000
0000
0000
0000
0000
0000
0000
0000
0010
0000
0000
0000
0000
0000
0000
0000
0000
0000
0000
0000
0100
0000
0000
0000
0000
0000
0000
0000
0000
0000
0000
0000
1000
0000
0000
0000
0000
0000
0001
0000
0000
0000
0000
0000
,
0100
0000
0000
0000
0000
0000
0000
0000
0010
0000
0000
0000
0000
0000
0000
0000
1000
0000
0000
0000
0000
0000
0000
0000
0100
0000
0000
0000
0000
0000
0000
0000
1000
0000
0000
0000
0000
0000
0000
0000
0001
0000
0000
0000
0000
0000
0000
0000
0100
0000
0000
0000
0000
0000
0000
0000
0000
0000
0000
0000
0000
0000
0000
0000
0000
0000
0000
0000
0000
0000
0000
0000
0001
0000
0000
0000
0000
0000
0000
0000
0100
0000
0000
0000
0000
0000
0000
0001
0000
0000
0000
0000
0000
0010
0000
0000
0000
0000
0000
0000
0100
0000
0000
0000
0000
0000
0000
0000
1000
0000
0000
0000
0000
0000
0000
0000
0000
0010
0000
0000
0000
0000
0000
0000
0000
0000
0000
0000
1000
0000
0000
0000
0000
0000
0000
0000
0100
0000
0000
0000
0000
0000
0000
0000
0020
0000
0000
0000
0000
0000
0000
0000
0000
0000
0000
0000
0030
0000
0000
0000
0000
0000
0000
0000
0000
0000
0000
0000
0001
0000
0000
0000
0000
0000
0000
0000
0010
0000
0000
0000
0000
0000
0000
0000
0100
0000
0000
0000
0000
0000
0000
0000
,
0010
0000
0000
0000
0000
0000
0000
0000
0001
0000
0000
0000
0000
0000
0000
0000
1000
0000
0000
0000
0000
0000
0000
0000
0100
0000
0000
0000
0000
0000
0000
0000
0010
0000
0000
0000
0000
0000
0000
0000
0001
0000
0000
0000
0000
0000
0000
0000
0020
0000
0000
0000
0000
0000
0000
0000
0000
0000
0000
0000
0000
0000
0000
0000
0000
0000
0000
0000
0000
0000
0000
0000
0000
0000
0000
0000
0000
0000
0000
0000
0000
0000
0000
0000
0000
0000
0000
0000
0000
0000
0000
0000
0000
0000
0000
0000
0000
0000
0000
0000
0000
0000
0000
0000
0000
0000
0000
0000
0000
0000
0000
0000
0000
0000
0031
0000
0000
0000
0000
0000
2000
0000
0000
0000
0000
0000
0000
0000
0000
0000
0000
0000
3000
0000
0000
0000
0000
0000
0000
0000
0000
0000
0000
0000
2000
0000
0000
0000
0000
0000
0000
0000
0000
0000
0000
0000
0000
0000
0000
0000
0000
0000
0000
0000
0000
0000
0000
0000
3000
0000
0000
0000
0000
0000
0000
0000
0000
0000
0000
0000
0020
0000
0000
0000
0000
0000
0000
0000
0000
0000
0000
0000
,
0000
0000
0000
0000
1030
0000
0100
0010
0001
0000
0010
0000
0100
0000
0010
0000
0001
0000
0100
0000
1000
0000
0100
0000
0001
0000
0010
0000
0100
0000
0010
0000
,
0001
1000
0010
0000
1000
0000
0100
0000
0001
0000
0100
0000
1000
0000
0010
0000
1000
0000
0010
0000
0100
0000
0010
0000
2000
0000
0000
0000
0000
0000
0000
0000
,
0000
0000
0000
0000
0000
0000
0000
0000
0000
0000
0000
3000
0101
0000
0000
0010
0000
0000
0100
0000
0000
0010
0000
0000
0100
0000
0000
0010
0000
0000
0100
0000
0000
0010
0000
0000
0100
0000
0000
0001
0000
0000
0100
0000
0000
0001
0000
0000
,
0010
0001
0010
0001
0100
0001
0100
0001
0100
0001
0100
0001
0010
0001
0010
0001
,
0100
0001
0100
0001
1000
0001
1000
0001
1000
0001
1000
0001
0100
0001
0100
0001
,
0010
0001
0010
0001
0100
0001
0100
0001
0100
0001
0100
0001
1000
0001
1000
0001
,
1000
0010
1000
0010
1000
0100
1000
0100
1000
0100
1000
0100
1000
0010
1000
0010
,
1000
0001
1000
0001
0100
0001
0100
0001
0010
0001
0010
0001
0100
0001
0100
0001
,
1000
0001
1000
0001
0100
0001
0100
0001
0100
0001
0100
0001
0100
0010
0100
0010
,
0100
0001
0100
0001
0010
0001
1000
0001
1000
0001
1000
0001
1000
0001
1000
0001
,
1000
0001
1000
0001
1100
0010
0100
0010
0100
0010
0100
0010
0100
0001
0100
0001
,
0010
0001
0010
0001
0100
0001
0100
0001
0100
0001
0100
0001
0010
0001
0010
0001
,
0100
0001
0100
0001
1000
0001
1000
0001
1000
0001
1000
0001
0100
0001
0100
0001
,
0010
0001
0010
0001
0100
0001
1000
0001
0100
0001
0010
0001
0100
0001
1000
0001
,
0010
0001
0100
0001
1000
0100
1000
0100
1000
0100
1000
0100
1000
0010
1000
0010
,
1000
0001
1000
0001
1000
0010
1000
0010
1000
0010
1000
0010
1000
0001
1000
0001
,
1000
0010
1000
0010
1000
0100
1000
0100
1000
0100
1000
0100
1000
0010
1000
0010
,
0100
0010
0100
0010
0100
0001
0100
0001
0100
0001
0100
0001
1000
0001
1000
0100
,
1000
0100
1000
0100
1020
0000
0000
0000
1000
0000
0000
0000
0001
0000
0000
0000
,
0000
0000
1000
0000
1230
0000
0000
0000
0000
0000
0010
1000
0001
0000
0001
0000
,
0000
1000
2310
0000
0010
0000
3021
0000
,
0230
1000
1320
0000
0000
0000
0132
0000
,
1023
0000
0000
2031
0000
3201
0000
2310
0000
3021
0000
0000
,
0000
0000
0000
0231
,
0321
0000
0000
2031
0000
3120
0000
2130
0000
3201
0000
0000
,
0000
0000
0000
0000
0000
0000
0000
0000
0000
0000
0000
0000
0001
0000
0000
0000
0000
0000
1300
0000
0100
0000
1000
0000
0020
0000
0000
0000
0000
0000
0230
0000
0000
0010
0000
0000
1302
0000
0000
0000
0000
0000
0000
0000
0000
0000
0000
0000
,
1000
0000
0213
0000
0000
1000
1320
0000
,
2031
0000
3201
0000
0000
1000
0001
0001
,
2300
3210
1320
0000
0000
1000
0001
0001
,
0230
0000
0000
0000
0000
0000
1000
0000
0000
0000
0000
0000
2310
0000
0000
0000
0000
0000
0000
0000
0000
0000
0000
0000
0000
0000
0000
0000
0000
0000
0100
0000
0000
0000
0000
3000
2001
0000
0000
0000
0000
0000
0001
0000
0000
0000
0000
3000
,
2000
0000
0000
0000
0000
3000
1010
0000
0000
0100
0000
0000
0021
0000
0000
0000
0000
0000
0000
0000
0000
0000
0000
0000
0000
0000
0000
0000
0000
0000
1000
0000
0000
0000
0000
0000
0001
0000
0000
0000
0000
0000
0001
0000
0000
0000
0000
0000
,
0230
0000
1320
0000
1032
0000
0000
0000
0010
0000
0000
0000
0010
0000
0103
0010
,
0100
0001
0010
0100
1010
0001
0100
0010
1000
0010
0100
0001
0100
0001
0010
0100
,
1000
0100
0010
0100
1000
0010
0100
0001
0100
0001
0010
0001
0100
0010
0100
0001
,
1000
0100
0010
0100
0010
0001
0010
0100
1000
0010
0100
0001
0010
0100
1000
0100
,
0010
0001
0010
0001
0100
0010
0100
0010
1000
0001
1000
0001
0100
0001
0100
0001
,
1000
0010
1000
0010
0101
1000
0100
0010
0001
0010
0100
0010
0001
0100
0010
0100
,
0001
1000
0100
0010
0100
0010
0100
1000
0100
0010
0001
0100
0010
0100
0001
0100
,
0001
0010
0001
0100
0010
1000
0100
0010
0100
1000
0100
1000
0010
0100
0001
0100
,
0010
0100
0001
0010
0100
1000
0010
0100
0001
0100
0010
1000
0110
0000
0100
0010
,
0100
0010
0100
0010
1100
0001
0100
0010
1000
0010
0100
0001
0010
0001
0010
0100
,
0010
0001
0100
0010
1000
0001
1000
0001
0010
0100
1000
0100
0010
0001
0100
0010
,
0100
0001
0010
0100
1001
0100
1000
0100
0010
0001
0010
0001
0100
0010
0100
0001
,
1000
0100
0010
0100
1001
0000
0000
0001
1000
0001
1000
0001
1000
0001
1000
0001
,
1000
0001
1000
0001
0110
0000
0000
0000
0100
0000
0000
0000
0101
0000
0000
0000
,
0101
0001
1010
0000
0101
0001
1100
0000
,
0110
0000
0100
0100
0000
0000
0001
0000
,
0000
0000
0000
0000
0100
0000
0100
0010
1000
0000
1000
0000
1000
0000
1000
0000
,
0100
0000
0000
0000
0000
0000
0000
0000
0000
0000
0000
0000
0000
0000
0000
0000
0001
0000
0000
0000
0000
0000
0000
0000
0000
0000
0000
0000
0000
0000
0000
0000
0100
0000
0000
0000
0000
0000
0000
0000
0000
0000
0000
0000
0000
0000
0000
0000
0020
0000
0000
0000
0000
0000
0000
0000
0000
0000
0000
0000
0000
0000
0000
0000
0000
0000
0000
0000
0000
0000
0000
0000
0000
0000
0000
0000
0000
0000
0000
0000
0000
0000
0000
0000
0000
0000
0000
0000
0000
0000
0000
0000
0000
0000
0000
0000
0000
0000
0000
0000
0000
0000
0000
0000
0000
0000
0000
0000
0000
0000
0000
0000
0000
0000
0000
0000
0000
0000
0000
0000
0000
0000
0000
0000
0000
0000
0000
0000
0000
0000
0000
0000
0000
0000
0000
0000
0000
0000
0000
0000
0000
0000
0000
0000
0000
0000
0000
0000
0000
0000
0000
0000
0000
0000
0000
0000
0000
0000
0000
0000
0000
0000
0030
0000
0000
0000
0000
0000
0002
0000
0000
0000
0000
0000
0000
0000
0000
0000
0000
0000
0000
0000
0000
0000
0000
0000
0000
0000
0000
0000
0000
0000
,
0000
0000
0000
0000
0000
0000
0000
0000
0000
0000
0000
0000
0000
0000
0000
0000
0000
0000
0000
0000
0000
0000
0000
0000
0000
0000
0000
0000
0000
0000
0000
0000
0000
0000
0000
0000
0000
0000
0000
0000
0000
0000
0000
0000
0003
0000
0000
0000
0002
0000
0000
0000
0000
0000
0000
0000
0000
0000
0000
0000
0000
0000
0000
0000
0000
0000
0000
0000
0000
0000
0000
0000
0000
0000
0000
0000
0000
0000
0000
0000
0000
0000
0000
0000
0000
0000
0000
0000
0000
0000
0000
0000
0000
0000
0000
0000
0000
0000
0000
0000
0000
0000
0000
0000
0000
0000
0000
0000
0000
0000
0000
0000
0000
0000
0003
0000
0000
0000
0000
0000
0001
0000
0000
0000
0000
0000
0000
0000
0000
0000
0000
0000
0010
0000
0000
0000
0000
0000
0000
0000
0000
0000
0000
0000
0200
0000
0000
0000
0000
0000
0000
0000
0000
0000
0000
0000
0000
0000
0000
0000
0000
0000
0000
0000
0000
0000
0000
0000
0000
0000
0000
0000
0000
0000
0000
0000
0000
0000
0000
0000
0000
0000
0000
0000
0000
0000
0000
0000
0000
0000
0000
0000
,
0320
0000
0000
0000
0000
0000
0000
0000
1030
0020
0000
0000
0000
0000
0000
0000
0000
0000
0000
0000
0000
0000
0000
0000
0000
0000
0000
0000
0130
0000
1000
0000
,
0200
0000
0000
0300
0000
0000
0020
0000
0000
0030
0000
0000
0002
0000
0000
0000
0000
0000
0003
0000
0020
0000
0000
0000
0000
0000
0000
0000
0000
0000
0000
0000
0000
0000
0000
0000
0000
0000
0000
0000
0000
0000
0230
0000
0000
0000
0000
0000
,
0000
0000
0000
0000
0000
0000
0000
0000
0000
0000
0000
0000
0000
0000
0000
0000
0320
0000
0000
0000
0000
0000
0000
0000
0000
0000
0000
0000
0000
0000
0000
0000
0000
0030
0000
0000
0000
0000
0000
0000
0000
0000
0000
0000
0000
0000
0000
0000
0020
0000
0000
0000
0000
0000
0000
0000
0000
0000
0000
0000
0000
0000
0000
0000
0000
0000
0000
0000
0000
0000
0000
0000
0000
0000
0000
0000
0000
0000
0000
0000
0000
0000
0000
0000
0000
0000
0000
0000
0000
0000
0000
0000
0000
0000
0000
0000
0000
0000
0000
0000
0000
0000
0000
0000
0000
0000
0000
0000
0130
0000
0000
0000
0000
0000
0000
0000
0000
0000
0000
0000
0020
0000
0000
0000
0000
0000
0000
0000
0000
0000
0000
0000
0030
0000
0000
0000
0000
0000
0000
0000
0000
0000
0000
0000
0200
0000
0000
0000
0000
0000
0000
0000
0000
0000
0000
0000
0300
0000
0000
0000
0000
0000
0000
0000
0000
0000
0000
0000
2000
0000
0000
0000
0000
0000
0000
0000
0000
0000
0000
0000
0000
0000
0000
0000
0000
0000
0000
0000
0000
0000
0000
0000
,
0000
0000
3000
0200
0000
0000
0300
0000
2000
0000
0000
0000
0000
0000
0000
0000
0000
0000
0000
0000
3002
0000
0000
0000
0000
0000
0000
0000
0000
0000
0000
0000
,
2003
0000
0000
0000
0000
0000
0000
0000
0000
0000
0000
0000
3200
0000
0000
0000
0000
0000
0000
0000
0000
0000
0000
0000
0000
0000
0000
0000
0000
0000
0000
0000
0000
0000
0000
0000
0000
0000
0000
0300
1000
0000
0000
0000
0100
0000
0000
0000
,
0010
0000
0000
0000
0000
0000
0000
0000
0000
0000
0000
0000
0000
0000
0000
0000
0001
0000
0000
0000
0000
0000
0000
0000
0000
0000
0000
0000
0000
0000
0000
0000
0000
0010
0000
0000
0000
0000
0000
0000
0000
0000
0000
0000
0000
0000
0000
0000
0002
0000
0000
0000
0000
0000
0000
0000
0000
0000
0000
0000
0000
0000
0000
0000
0000
0000
0000
0000
0000
0000
0000
0000
0000
0000
0000
0000
0000
0000
0000
0000
0000
0000
0000
0000
0000
0000
0000
0000
0000
0000
0000
0000
0000
0000
0000
0000
0000
0000
0000
0000
0000
0000
0000
0000
0000
0000
0000
0000
0000
0000
0000
0000
0000
0000
0000
0000
0000
0000
0000
0000
0203
0000
0000
0000
0000
0000
0000
0000
0000
0000
0000
0000
0300
0000
0000
0000
0000
0000
0000
0000
0000
0000
0000
0000
0020
0000
0000
0000
0000
0000
0000
0000
0000
0000
0000
0000
0030
0000
0000
0000
0000
0000
0000
0000
0000
0000
0000
0000
0001
0000
0000
0000
0000
0000
0000
0000
0100
0000
0000
0000
0000
0000
0000
0000
0001
0000
0000
0000
0000
0000
0000
0000
,
2000
0000
3020
0000
0230
0000
0000
0000
0000
0000
1300
1000
2000
3000
0100
0100
,
0200
0000
0000
0300
0000
0000
0010
0000
0000
0010
0000
0000
0020
0000
0000
0030
0000
0000
0001
0000
0010
0000
0001
0000
0200
0000
0000
0300
0000
0000
0020
0000
0000
0030
0000
0000
1000
0000
0100
0000
0010
0000
0100
0000
0000
1000
0000
0000
,
0100
0000
0010
0000
0001
0000
0100
0000
0020
0000
0000
0000
0000
0000
0000
0000
0000
0000
0000
0000
0000
0000
0000
0030
0200
0000
0000
0000
0000
0000
0000
0000
,
0000
0000
0000
0000
0000
0000
0000
0000
0000
0000
0000
0310
0002
0000
0000
0000
0000
0000
0000
0000
0000
0000
0000
0000
0000
0000
0000
0000
0000
0000
0000
0000
0000
0000
0000
0000
2003
0000
0000
0000
0000
0000
0000
0000
0000
0000
0000
0000
,
0000
0000
0000
0000
0000
0000
0000
0000
0000
3000
0002
0000
0003
0000
0020
0000
0030
0000
0002
0000
0000
0000
0000
0000
0000
0000
0000
0000
0000
0000
0000
0000
0000
0000
0000
0000
0000
0000
0000
0000
0000
0000
0023
0000
0000
0030
0000
0000
,
0000
0200
0300
0000
2000
0000
3200
0000
0000
0000
0000
0000
0000
0000
2300
0000
,
0000
3200
0000
0300
0020
0000
0000
0000
0000
0000
0000
0000
0000
0000
0000
0000
,
0000
0000
0000
0000
0130
0000
0010
0000
0002
0000
0000
0000
0000
0000
0000
0000
0000
0000
0000
0000
0000
0000
0000
0000
0000
0000
1003
0100
0020
0000
0030
0000
,
0002
0003
0020
0030
0200
0000
0302
0000
2003
0000
0000
0000
0000
0000
0000
0000
,
3200
0000
0000
0000
0000
0000
0000
0000
0000
0000
0000
0000
0000
0000
0000
0000
0000
0000
0000
0000
0000
0000
0000
0000
0310
0000
0000
0000
0000
0000
0000
0000
0000
0000
0000
0000
0100
0000
0000
0000
0000
0000
0000
0000
0000
0000
0000
0000
2000
0000
0000
0000
0000
0000
0000
0000
0000
0000
0000
0000
0000
0000
0000
0000
0000
0000
0000
0000
0000
0000
0000
0000
0000
0000
0000
0000
0000
0000
0000
0000
0000
0000
0000
0000
0000
0000
0000
0000
0000
0000
0000
0000
0000
0000
0000
0000
0000
0000
0000
0000
0000
0000
0000
0000
0000
0000
0000
0000
0000
0000
0000
0000
0000
0000
0000
0000
0000
0000
0000
0000
3100
0000
0000
0000
0000
0000
0000
0000
1000
0000
0000
0000
0000
0000
0000
0000
0100
0000
0000
0000
0000
0000
0000
0000
0010
0000
0000
0000
0000
0000
0000
0000
0001
0000
0000
0000
0000
0000
0000
0000
0000
0000
0100
0000
0000
0000
0000
0000
0000
0000
0000
0010
0000
0000
0000
0000
0000
0000
0000
0000
0000
0000
0000
0000
0000
0000
1000
0000
0000
0000
0000
0000
,
0000
0000
0000
0000
0000
0100
0000
0000
0000
0000
0010
0000
0000
0000
0000
0000
0200
0000
0000
0000
0000
0000
0000
0000
0000
0000
0000
0000
0000
0000
0000
0000
0000
0000
0000
0000
0000
0000
0000
0000
0000
0000
0000
0000
0000
0000
0000
0000
0000
0000
0000
0000
0000
0000
0000
0000
0000
0000
0000
0000
0000
0000
0000
0000
,
0320
0000
2030
3000
0020
0000
0000
0000
0000
0000
0000
0000
0000
0000
0000
0000
,
0032
0000
0000
0000
0000
0000
2003
0000
0000
3000
0000
0000
0002
0000
0000
0000
0000
0000
0000
0003
0002
0000
0000
0000
0000
0000
0000
0003
0002
0000
0000
0000
0000
0000
0000
0003
0002
0000
0000
0000
0000
0000
0000
0000
0000
0000
0000
0000
,
0023
0030
0200
0300
0002
0000
0023
0000
0032
0000
2003
0000
3020
0000
0230
0000
,
2300
0000
0000
0000
0000
0000
3200
0000
0000
0000
0000
0000
0302
0000
0000
0000
0000
0000
0000
0000
0000
0000
0000
0000
0000
0000
0000
0000
0000
0000
0013
0000
0000
0010
0000
0000
0020
0000
0000
0030
0000
0000
0020
0000
0030
0000
0000
0000
,
1000
0000
0000
0000
0000
0000
0000
0000
0000
0000
0000
0000
0001
0000
0000
0000
0000
0000
0010
0000
0000
0000
0000
0000
0100
0000
0000
0000
0000
0000
0000
0000
1000
0000
0000
0000
0000
0000
0000
0000
0100
0000
0000
0000
0000
0000
0000
0000
0010
0000
0000
0000
0000
0000
0000
0000
0000
0000
0000
0000
0001
0000
0000
0000
0000
0000
0000
0000
0000
0000
0000
0000
0010
0000
0000
0000
0000
0000
0000
0000
0100
0000
0000
0000
0000
0000
0000
0000
1000
0000
0000
0000
0000
0000
0000
0000
0100
0000
0000
0000
0000
0000
0000
0000
0010
0000
0000
0000
0000
0000
0000
0000
0100
0000
0000
0000
0000
0000
0000
0000
1000
0000
0000
0000
0000
0000
0000
0000
0000
0000
0000
0000
0100
0000
0000
0000
0000
0000
0000
0000
0000
0000
0000
0000
0010
0000
0000
0000
0000
0000
0000
0000
0000
0001
0000
0000
0000
0000
0000
0000
0000
0000
1000
0000
0000
0000
0000
0000
0000
0000
0000
0200
0000
0000
0000
0000
0000
0000
0000
0000
0300
0000
0000
0000
0000
0000
0000
0000
0020
0000
0000
0000
,
0000
0000
0000
0000
0030
0000
0000
0000
0000
0000
0000
0000
0000
0000
0000
0200
0000
0000
0000
0000
0000
0000
0000
0000
0300
0000
0000
0000
0000
0000
0000
0000
0020
0000
0000
0000
0000
0000
0000
0000
0000
0000
0000
0000
0030
0000
0000
0000
0000
0000
0000
0000
0000
0000
0002
0000
0000
0000
0000
0000
0000
0000
0000
0000
0000
0000
0000
0000
0000
0000
0000
0000
0000
0000
0000
0000
0000
0000
0000
0000
0000
0000
0000
0000
0000
0000
0000
0000
0000
0000
0000
0000
0000
0000
0000
0000
0000
0000
0000
0000
0000
0000
0000
0000
0000
0000
0000
0000
0000
0000
0000
0000
0000
0000
0000
0000
0000
0000
0000
0000
0000
0000
0000
0000
0000
0000
0000
0000
0000
0000
0000
0000
0000
0000
0000
0000
0000
0000
0000
0000
0000
0000
0000
0000
0023
0000
0000
0000
0000
0000
0000
0000
0000
0000
0000
0000
0000
0000
0000
0000
0000
0000
0000
0000
0000
0000
0000
0000
0000
0000
0000
0000
0000
0000
0000
0000
0000
0000
0000
0000
0000
0000
0000
0000
0000
0000
0000
0000
0000
0000
0000
0000
,
0000
0000
0000
0000
0000
0000
0000
0000
0000
0000
0000
0000
0000
0000
0000
0030
0000
0000
1000
0000
0000
0000
0000
0000
0200
0000
0000
0000
0000
0000
0000
0000
0300
0000
0000
0000
0000
0000
0000
0000
0000
0000
0000
0000
0000
0000
0000
0000
0010
0000
0000
0000
0000
0000
0000
0000
0000
0000
0000
0000
0000
0000
0000
0100
0000
0000
0000
0000
0000
0000
0000
0000
0000
0000
0000
0000
0000
0000
0000
0000
0000
0000
0000
0000
0000
0000
0000
0010
0000
0000
0000
0000
0000
0000
0000
0000
0000
0000
0000
0000
0000
0000
0001
0000
0000
0000
0000
0000
0000
0000
0000
0000
0000
0000
0000
0000
0000
1000
0000
0000
0000
0000
0000
0000
0000
0000
0000
0000
0000
0000
0000
0000
0100
0000
0000
0000
0000
0000
0000
0000
0000
0000
0000
0000
0020
0000
0000
0000
0000
0000
0000
0000
0000
0000
0000
0000
0030
0000
0000
0000
0000
0000
0000
0000
0000
0000
0000
0000
0000
0000
0000
0000
0000
0000
0000
0000
1000
0000
0000
0000
0000
0000
0000
0000
0000
0000
0000
0000
0000
0000
0000
0000
,
0100
0000
0000
0000
0010
0000
0000
0000
0001
0000
0000
0000
0020
0000
0000
0000
0000
0000
0000
0000
0000
0000
0000
0000
0000
0000
0000
0000
0000
0000
1030
0000
0100
0000
0010
0000
0002
0000
0000
0003
0000
0000
0100
0000
0000
0010
0000
0000
,
0001
0000
0100
0000
0001
0000
0010
0100
2000
0000
0000
0000
0000
0000
0000
0000
0000
0000
0000
0000
0000
0000
0000
0000
0000
0000
0000
0000
0000
0000
0000
3000
,
1000
0000
0000
0000
0000
0000
0000
0000
0000
0000
0000
0000
0000
0000
0000
0000
0100
0000
0000
0000
0000
0000
0000
0000
0000
0000
0000
0000
0000
0000
0000
0000
1000
0000
0000
0000
0000
0000
0000
0000
0000
0000
0000
0000
0000
0000
0000
0000
0100
0000
0000
0000
0000
0000
0000
0000
0000
0000
0000
0000
0000
0000
0000
0000
0010
0000
0000
0000
0000
0000
0000
0000
0000
0000
0000
0000
0000
0000
0000
0000
0001
0000
0000
0000
0000
0000
0000
0000
0000
0000
0000
0000
0000
0000
0000
0000
0100
0000
0000
0000
0000
0000
0000
0000
0000
0000
0000
0000
0001
0000
0000
0000
0000
0000
0000
0000
0000
0000
0000
0000
0010
0000
0000
0000
0000
0000
0000
0000
0000
0000
0000
0000
0001
0000
0000
0000
0000
0000
0000
0000
0000
0000
0000
0000
0100
0000
0000
0000
0000
0000
0000
0000
0000
0000
0000
0000
0010
0000
0000
0000
0000
0000
0000
0000
0000
0000
0000
0000
1000
0000
0000
0000
0000
0000
0000
0000
0000
0000
0000
0000
0100
0000
0000
0000
0000
0000
0010
0000
0000
0000
0000
0000
,
0002
0000
0000
0000
0000
0000
0000
0003
1001
0000
0100
0000
0010
0000
0100
0000
1001
0000
0000
0000
0010
0000
0100
0000
2001
0000
0000
0000
3010
0000
1000
0000
,
0201
0301
0021
0000
0000
0000
0001
0230
,
0000
0320
0000
2030
0000
0000
0000
0000
0000
3201
0000
0320
,
0000
0000
0230
0000
0000
0000
2300
0000
0000
0000
0000
0000
0000
0000
0000
0000
0000
3000
2001
0000
0000
0000
3002
0000
,
0000
0000
0023
0000
0000
0000
0230
0000
0000
0001
0000
0000
0000
0000
0000
0000
0000
0000
2301
0000
0000
0000
0000
0000
,
3201
0001
0321
0000
0000
0000
0001
0230
,
0302
0000
0000
0023
0000
0000
0230
0000
0000
0000
0000
0000
0000
0000
0000
0000
0000
0000
0321
0000
0000
0000
0230
0000
,
0000
2300
0000
3200
0000
0000
0000
0000
0000
0321
0000
0000
,
0000
0000
0000
0000
0000
0000
0000
0000
0000
0000
0030
0000
0020
0000
0000
0030
0000
0000
1100
0000
0001
0000
1000
0000
0010
0000
0000
0000
0000
0000
0100
0000
0000
0000
0000
0000
2001
0000
0000
0000
0000
0000
0000
0000
0000
0000
0000
0000
,
3200
0000
0320
0000
0000
0000
0001
0230
,
0000
0320
0000
2030
0000
0000
0000
0000
0000
3201
0000
0302
,
0000
0000
0000
0000
0203
0000
0000
0000
0000
0000
0000
0000
0320
0000
0000
0030
0000
0000
0001
0000
0010
0000
0001
0000
0100
0000
0000
0000
0000
0000
0020
0000
0000
0030
0000
0000
0101
0000
1000
0000
0001
0000
0100
0000
0000
0000
0000
0000
,
0020
0000
0000
0030
0000
0000
0100
0000
0010
0000
0100
0000
0001
0000
0000
0000
0000
0000
0021
0000
0000
0030
0000
0000
1001
0000
0100
0000
1000
0000
0011
0000
0000
0000
0000
0000
2001
0000
0000
0000
0000
0000
0000
0000
0000
0000
0000
0000
,
3201
0010
0001
0000
0321
0000
0000
0000
0000
0000
0000
0000
0000
0000
1230
0000
,
0000
0000
0000
0312
0000
0000
2013
0000
0000
0000
0000
0000
0000
0000
0000
0000
0000
0000
3201
0000
0000
0000
0320
0000
,
0031
0100
0010
0100
2001
0000
0000
0000
0000
0000
0000
0000
3200
0000
0000
0000
,
0000
0000
0000
0000
0000
0000
0000
0000
0000
0000
0000
0300
0120
0000
0000
0000
0000
0000
0100
0000
0000
0000
0000
0000
0100
0000
0000
0000
0000
0000
0100
0000
0000
0000
0000
0000
0131
0000
0000
0000
0000
0000
0010
0000
0000
0100
0000
0000
,
0010
0000
0100
0010
0201
0000
0000
0000
0000
0000
0000
0000
1320
0000
0000
0000
,
0000
0231
0000
1302
,
0000
0213
0000
1320
,
0000
0000
0000
0000
0131
0000
0000
0000
0101
0000
0000
0000
0101
1000
0001
1000
,
0001
1000
0001
1000
0201
0000
0000
0000
0000
0000
0000
0000
1320
0000
0000
0000
,
0000
0231
0000
1302
,
0000
0213
0000
1320
,
0000
0000
0000
0000
1031
0000
0000
1001
0000
0000
1001
0000
1001
0000
1000
0001
,
1000
0001
1000
0001
1100
0010
1000
0001
0010
0100
0010
0100
0010
0001
1000
0010
,
0100
0001
0100
0001
0100
0010
1000
0100
0010
0001
0010
0001
0010
0100
1000
0001
,
0100
0010
0100
0010
0100
0001
1000
0100
0010
0001
0010
0001
0010
0100
1000
0010
,
0100
0001
0100
0001
1000
0010
1000
0001
1000
0001
1000
0001
1000
0100
0010
0001
,
1000
0010
1000
0001
1010
0100
0010
0001
1000
0100
1000
0100
1000
0010
0100
0001
,
1000
0010
1000
0010
1000
0001
0010
0100
1000
0001
1000
0001
1000
0010
0100
0001
,
0010
0100
0010
0100
0010
0001
0100
0010
1000
0100
1000
0010
0100
0001
0100
0010
,
1000
0001
1000
0010
0101
0000
0000
0001
0000
0000
0100
0000
0010
0000
1000
0001
,
1000
0001
1000
0001
1010
0000
0100
0000
0011
0000
0001
0000
1100
0000
0010
0000
,
0110
0000
1000
0000
0101
0000
0100
0010
0100
0010
0100
0010
0100
0010
0100
0010
,
1000
0001
1000
0001
0120
0000
0000
0000
0000
0000
0000
0000
0032
0000
0000
0000
,
0000
0123
0000
0230
,
0000
0322
0000
0000
,
0000
0000
0000
0000
0000
0033
0022
0000
0000
0033
0000
0000
0000
0000
0000
0000
0000
0000
0000
0000
0000
0000
0000
0000
;
