#TITLE:Angel Island After Dark;
#SUBTITLE:;
#ARTIST:XsakuX;
#TITLETRANSLIT:;
#SUBTITLETRANSLIT:;
#ARTISTTRANSLIT:;
#CREDIT:owenviau1;
#BANNER:../owenviau1 Simfiles 6 (Science X Owen).png;
#BACKGROUND:BG.PNG;
#LYRICSPATH:;
#CDTITLE:;
#MUSIC:Angel Island After Dark.mp3;
#OFFSET:-0.026;
#SAMPLESTART:79.082;
#SAMPLELENGTH:29.999;
#SELECTABLE:YES;
#DISPLAYBPM:170.000;
#BPMS:0.000=170.000;
#STOPS:;
#BGCHANGES:;
// cache tags:
#FIRSTBEAT:0.000;
#LASTBEAT:576.000;
#SONGFILENAME:Songs/owenviau1 Simfiles 6/Angel Island After Dark - [owenviau1] v1.0.5/Angel Island After Dark.sm;
#HASMUSIC:1;
#HASBANNER:1;
#MUSICLENGTH:206.184;
// end cache tags

//---------------dance-single - 14 (owenviau1)----------------
#NOTES:
     dance-single:
     14 (owenviau1):
     Hard:
     14:
     1.000,1.000,0.024,0.611,1.000,1565.000,5.000,126.000,0.000,26.000:
2002
0003
0000
0000
0000
0000
0000
0000
,
3020
0000
0000
0200
0000
0000
0000
0000
,
0332
0000
0000
2000
0000
0000
0000
0000
,
3023
0000
0000
2000
0000
0000
0000
0000
,
3032
0000
0000
0200
0000
0000
0000
0000
,
0323
0000
0000
0200
0000
0000
0000
0000
,
0332
0000
0000
2000
0000
0000
0000
0000
,
3023
0000
0000
2000
0000
0000
0000
0000
,
3032
0000
0000
0203
0000
0000
0320
0000
,
0000
2030
0000
0000
3002
0023
0230
0000
,
2300
0000
0000
3002
0000
0000
0203
0000
,
0000
0000
0000
0020
0000
0000
0000
0000
,
1330
0001
0100
0010
1000
0100
1000
0001
,
0100
0000
0010
0000
1000
0000
0001
0000
0010
0000
0100
0000
1000
0100
0010
0001
,
1000
0010
1000
0001
0100
0001
0010
0100
,
2000
3000
0000
0000
0200
0300
0000
0000
0020
0030
0000
0000
0002
0003
0000
0000
0200
0300
0000
0000
0020
0030
0000
0000
2000
3000
0000
0000
0002
0003
0000
0000
,
1002
0000
1003
0010
0100
0000
0001
1000
0001
0000
0100
0010
1000
0000
0001
0010
,
0001
0000
0100
0010
1000
0000
0100
0010
0001
0000
1000
0001
0100
0010
1000
0001
,
0010
0000
0100
1000
0100
0000
0010
0001
1000
0000
0001
0100
0010
0000
1000
0001
,
1000
0000
0010
0100
0001
0000
1000
0100
0010
0000
0001
1000
0010
0000
0100
0001
,
2000
3000
0010
0200
0301
0000
1000
0001
0100
0000
0010
1000
0001
0000
1000
0100
,
0010
0000
0001
1000
0010
0000
0100
0001
1000
0000
0001
0100
0001
1000
0010
0100
,
0001
0000
1000
0100
1000
0000
0010
0100
0010
0000
1000
0001
1000
0000
0001
0100
,
0010
0000
1000
0100
1000
0000
0001
0100
0010
0000
1000
0001
0010
0000
0100
1000
,
2002
0000
3000
1000
0000
0000
2000
0000
0000
0000
0000
0000
0000
0000
0000
0000
,
3203
0000
0000
0020
0000
0000
0000
0000
,
0332
0000
0000
0200
0000
0000
0000
0000
,
2303
0000
0000
0020
0000
0000
0000
0000
,
3230
0000
0000
0020
0000
0000
0000
0000
,
0332
0000
0000
0200
0000
0000
0000
0000
,
2303
0000
0000
0020
0000
0000
0000
0000
,
3032
0000
0000
2000
0000
0000
0000
0000
,
3113
0000
1000
0010
0100
0000
0001
1000
0001
0000
0100
0010
1000
0000
0001
0010
,
0001
0000
0100
0010
1000
0000
0100
0010
0001
0000
1000
0100
0010
0001
1000
0001
,
0010
0000
0100
1000
0100
0000
0010
0001
1000
0000
0001
0100
0010
0000
1000
0001
,
1000
0000
0010
0100
0001
0000
1000
0100
0010
0000
0001
1000
0010
0000
0100
0001
,
1000
0100
0010
0001
1000
0010
0100
0010
1000
0001
0100
0001
1000
0100
0010
0001
,
0100
0010
1000
0001
1000
0010
0100
0010
1000
0001
0010
0001
1000
0100
0010
0001
,
1000
0100
1000
0010
0100
0001
1000
0001
0100
0010
1000
0001
0010
0001
0100
0010
,
2000
0000
0000
0000
0000
0000
3002
0000
0000
0000
0000
0000
0203
0000
0000
0000
0000
0000
0000
0000
0000
0000
0000
0000
0320
0000
0000
2030
0000
0000
3002
0000
0000
0203
0000
0000
0302
0000
1000
0003
0010
0000
1000
0000
0001
0000
0100
0000
,
0001
1000
0010
0100
0001
1000
0100
0010
0001
1000
0001
0100
0010
1000
0010
0100
,
0001
1000
0100
0010
0001
1000
0100
1000
0001
0100
0001
1000
0010
1000
0100
0010
,
0001
0100
0001
1000
0100
0010
0001
1000
0100
1000
0010
0100
0001
1000
0001
0100
,
0010
1000
0001
0010
0001
1000
0010
0100
0001
1000
0001
0010
0100
1000
0100
0010
,
0001
1000
0010
0100
0001
1000
0100
0010
0001
1000
0001
0100
0010
1000
0010
0100
,
0001
1000
0100
0010
0001
1000
0100
1000
0001
0100
0001
1000
0010
1000
0100
0010
,
0001
0100
0001
1000
0100
0010
0001
1000
0100
1000
0010
0100
0001
1000
0001
0100
,
0010
1000
0001
0010
0001
1000
0010
0100
0001
1000
0001
0010
0100
1000
0100
0010
,
0001
1000
0010
0100
0001
1000
0100
0010
0001
1000
0001
0100
0010
1000
0010
0100
,
0001
1000
0100
0010
0001
1000
0100
1000
0001
0100
0001
1000
0010
1000
0100
0010
,
0001
0100
0001
1000
0100
0010
0001
1000
0100
1000
0010
0100
0001
1000
0001
0100
,
0010
1000
0001
0010
0001
1000
0010
0100
0001
1000
0001
0010
0100
1000
0100
0010
,
0001
1000
0010
0100
0001
1000
0100
0010
0001
1000
0001
0100
0010
1000
0010
0100
,
0001
1000
0100
0010
0001
1000
0100
1000
0001
0100
0001
1000
0010
1000
0100
0010
,
0001
0100
0001
1000
0100
0010
0001
1000
0100
1000
0010
0100
0001
1000
0001
0100
,
0010
1000
0001
0010
0001
1000
0010
0100
0001
1000
0001
0010
0100
1000
0001
0100
,
0001
1000
0010
0100
0001
1000
0100
0010
0001
1000
0001
0100
0010
1000
0010
0100
,
0001
1000
0100
0010
0001
1000
0100
1000
0001
0100
0001
1000
0010
1000
0100
0010
,
0001
0100
0001
1000
0100
0010
0001
1000
0100
1000
0010
0100
0001
1000
0001
0100
,
0010
1000
0001
0010
0001
1000
0010
0100
0001
1000
0001
0010
0100
1000
0100
0010
,
0001
1000
0010
0100
0001
1000
0100
0010
0001
1000
0001
0100
0010
1000
0010
0100
,
0001
1000
0100
0010
0001
1000
0100
1000
0001
0100
0001
1000
0010
1000
0100
0010
,
0001
0100
0001
1000
0100
0010
0001
1000
0100
1000
0010
0100
0001
1000
0001
0100
,
0010
1000
0001
0010
0001
1000
0010
0100
0001
1000
0001
0010
0100
1000
0100
0010
,
0001
1000
0010
0100
0001
1000
0100
0010
0001
1000
0001
0100
0010
1000
0010
0100
,
0001
1000
0100
0010
0001
1000
0100
1000
0001
0100
0001
1000
0010
1000
0100
0010
,
0001
0100
0001
1000
0100
0010
0001
1000
0100
1000
0010
0100
0001
1000
0001
0100
,
0010
1000
0001
0010
0001
1000
0010
0100
0001
1000
0001
0010
0100
1000
0100
0010
,
0001
1000
0010
0100
0001
1000
0100
0010
0001
1000
0001
0100
0010
1000
0010
0100
,
0001
1000
0100
0010
0001
1000
0100
1000
0001
0100
0001
1000
0010
1000
0100
0010
,
0001
0100
0001
1000
0100
0010
0001
1000
0100
1000
0010
0100
0001
1000
0001
0100
,
0010
1000
0001
0010
0001
1000
0010
0100
0001
1000
0001
0010
0100
1000
0100
0010
,
0001
0000
1000
0010
0100
0000
0001
1000
0001
0000
0100
0010
1000
0000
0001
0010
,
0001
0000
0100
0010
1000
0000
0100
0010
0001
0000
1000
0001
0100
0010
1000
0001
,
0010
0000
0100
1000
0100
0000
0010
0001
1000
0000
0001
0100
0010
0000
1000
0001
,
1000
0000
0010
0100
0001
0000
1000
0100
0010
0000
0001
1000
0010
0000
0100
0001
,
1000
0000
0010
0100
0001
0000
1000
0001
0100
0000
0010
1000
0001
0000
1000
0100
,
0010
0000
0001
1000
0010
0000
0100
0001
1000
0000
0001
0100
0001
1000
0010
0100
,
0001
0000
1000
0100
1000
0000
0010
0100
0010
0000
1000
0001
1000
0000
0001
0100
,
0010
0000
1000
0100
1000
0000
0001
0100
0010
0000
1000
0001
0010
0000
0100
1000
,
0001
0000
0100
0010
0100
0000
0001
1000
0001
0000
0100
0010
1000
0000
0001
0010
,
0001
0000
0100
0010
1000
0000
0100
0010
0001
0000
0010
0100
1000
0001
0100
0001
,
0010
0000
0100
1000
0100
0000
0010
0001
1000
0000
0001
0100
0010
0000
1000
0001
,
1000
0000
0010
0100
0001
0000
1000
0100
0010
0000
0001
1000
0010
0000
0100
0001
,
1000
0000
0010
0100
0001
0000
1000
0001
0100
0000
0010
1000
0001
0000
1000
0100
,
0010
0000
0001
1000
0010
0000
0100
0001
1000
0000
0001
0100
0001
1000
0010
0100
,
0001
0000
1000
0100
1000
0000
0010
0100
0010
0000
1000
0001
1000
0000
0001
0100
,
0020
0000
0000
0000
0000
0000
2030
0000
0000
0000
0000
0000
3002
0000
0000
0000
0000
0000
0000
0000
0000
0000
0000
0000
1003
0000
0000
0100
0000
0000
0010
0000
0000
0001
0000
0000
1000
0000
0100
0000
0010
0000
0001
0000
1000
0000
0010
0000
,
0100
0001
1000
0100
0010
0001
1000
0001
0100
0010
1000
0010
0100
0001
1000
0100
,
0010
0001
1000
0100
1000
0001
0100
0001
1000
0010
1000
0100
0010
0001
0100
0001
,
1000
0100
0010
0001
1000
0100
1000
0010
0100
0001
1000
0001
0100
0010
1000
0001
,
0010
0001
1000
0010
0100
0001
1000
0001
0010
0100
1000
0100
0010
0001
1000
0010
,
0100
0001
1000
0100
0010
0001
1000
0001
0100
0010
1000
0010
0100
0001
1000
0100
,
0010
0001
1000
0100
1000
0001
0100
0001
1000
0010
1000
0100
0010
0001
0100
0001
,
1000
0100
0010
0001
1000
0100
1000
0010
0100
0001
1000
0001
0100
0010
1000
0001
,
0010
0001
1000
0010
0100
0001
1000
0001
0010
0100
1000
0100
0010
0001
1000
0010
,
0100
0001
1000
0100
0010
0001
1000
0001
0100
0010
1000
0010
0100
0001
1000
0100
,
0010
0001
1000
0100
1000
0001
0100
0001
1000
0010
1000
0100
0010
0001
0100
0001
,
1000
0100
0010
0001
1000
0100
1000
0010
0100
0001
1000
0001
0100
0010
1000
0001
,
0010
0001
1000
0010
0100
0001
1000
0001
0010
0100
1000
0100
0010
0001
1000
0010
,
0100
0001
1000
0100
0010
0001
1000
0001
0100
0010
1000
0010
0100
0001
1000
0100
,
0010
0001
1000
0100
1000
0001
0100
0001
1000
0010
1000
0100
0010
0001
0100
0001
,
1000
0100
0010
0001
1000
0100
1000
0010
0100
0001
1000
0001
0100
0010
1000
0001
,
0010
0001
1000
0010
0100
0001
1000
0001
0010
0100
1000
0001
0100
0001
1000
0010
,
0100
0001
1000
0100
0010
0001
1000
0001
0100
0010
1000
0010
0100
0001
1000
0100
,
0010
0001
1000
0100
1000
0001
0100
0001
1000
0010
1000
0100
0010
0001
0100
0001
,
1000
0100
0010
0001
1000
0100
1000
0010
0100
0001
1000
0001
0100
0010
1000
0001
,
0010
0001
1000
0010
0100
0001
1000
0001
0010
0100
1000
0100
0010
0001
1000
0010
,
0100
0001
1000
0100
0010
0001
1000
0001
0100
0010
1000
0010
0100
0001
1000
0100
,
0010
0001
1000
0100
1000
0001
0100
0001
1000
0010
1000
0100
0010
0001
0100
0001
,
1000
0100
0010
0001
1000
0100
1000
0010
0100
0001
1000
0001
0100
0010
1000
0001
,
0010
0001
1000
0010
0100
0001
1000
0001
0010
0100
1000
0100
0010
0001
1000
0010
,
0100
0001
1000
0100
0010
0001
1000
0001
0100
0010
1000
0010
0100
0001
1000
0100
,
0010
0001
1000
0100
1000
0001
0100
0001
1000
0010
1000
0100
0010
0001
0100
0001
,
1000
0100
0010
0001
1000
0100
1000
0010
0100
0001
1000
0001
0100
0010
1000
0001
,
0010
0001
1000
0010
0100
0001
1000
0001
0010
0100
1000
0100
0010
0001
1000
0010
,
0100
0001
1000
0100
0010
0001
1000
0001
0100
0010
1000
0010
0100
0001
1000
0100
,
0010
0001
1000
0100
1000
0001
0100
0001
1000
0010
1000
0100
0010
0001
0100
0001
,
1000
0100
0010
0001
1000
0100
1000
0010
0100
0001
1000
0001
0100
0010
1000
0001
,
0010
0001
1000
0010
0100
0001
1000
0001
0010
0100
1000
0100
0010
0001
1000
0010
,
2002
0003
0000
0000
0000
0000
0000
0000
,
3020
0000
0000
0200
0000
0000
0000
0000
,
0332
0000
0000
2000
0000
0000
0000
0000
,
3023
0000
0000
2000
0000
0000
0000
0000
,
3032
0000
0000
0200
0000
0000
0000
0000
,
0323
0000
0000
0200
0000
0000
0000
0000
,
0332
0000
0000
2000
0000
0000
0000
0000
,
3023
0000
0000
2000
0000
0000
0000
0000
,
3032
0000
0000
0203
0000
0000
0320
0000
,
0000
2030
0000
0000
3002
0023
0230
0000
,
2300
0000
0000
3002
0000
0000
0203
0000
,
0000
0000
0000
0020
0000
0000
0000
0000
,
0332
0000
0000
0203
0000
0000
0320
0000
,
0000
2030
0000
0000
3002
0023
0230
0000
,
2300
0000
0000
3002
0000
0000
0203
0000
,
0000
0000
0000
0020
0000
0000
0000
0000
,
0332
0000
0000
0203
0000
0000
0320
0000
,
0000
2030
0000
0000
3002
0023
0230
0000
,
2300
0000
0000
3002
0000
0000
0203
0000
,
0000
0000
0000
0020
0000
0000
0000
0000
,
0332
0000
0000
0203
0000
0000
0320
0000
,
0000
2030
0000
0000
3002
0023
0230
0000
,
2300
0000
0000
3002
0000
0000
0203
0000
,
0000
0000
0000
0020
0000
0000
0000
0000
,
0330
0000
0000
0000
,
0000
0000
0000
0000
,
0000
0000
0000
0000
;

//---------------dance-single - 22 (owenviau1)----------------
#NOTES:
     dance-single:
     22 (owenviau1):
     Challenge:
     22:
     1.000,1.000,0.024,0.611,1.000,2076.000,5.000,126.000,0.000,26.000:
2002
0003
0000
0000
0000
0000
0000
0000
,
3020
0000
0000
0200
0000
0000
0000
0000
,
0332
0000
0000
2000
0000
0000
0000
0000
,
3023
0000
0000
2000
0000
0000
0000
0000
,
3032
0000
0000
0200
0000
0000
0000
0000
,
0323
0000
0000
0200
0000
0000
0000
0000
,
0332
0000
0000
2000
0000
0000
0000
0000
,
3023
0000
0000
2000
0000
0000
0000
0000
,
3032
0000
0000
0203
0000
0000
0320
0000
,
0000
2030
0000
0000
3002
0023
0230
0000
,
2300
0000
0000
3002
0000
0000
0203
0000
,
0000
0000
0000
0020
0000
0000
0000
0000
,
1330
0001
0100
0010
1000
0100
1000
0001
,
0100
0000
0010
0000
1000
0000
0001
0000
0010
0000
0100
0000
1000
0100
0010
0001
,
1000
0010
1000
0001
0100
0001
0010
0100
,
2000
3000
0000
0000
0200
0300
0000
0000
0020
0030
0000
0000
0002
0003
0000
0000
0200
0300
0000
0000
0020
0030
0000
0000
2000
3000
0000
0000
0002
0003
0000
0000
,
1002
0000
1003
0010
0100
0000
0001
1000
0001
0000
0100
0010
1000
0000
0001
0010
,
0001
0000
0100
0010
1000
0000
0100
0010
0001
0000
1000
0001
0100
0010
1000
0001
,
0010
0000
0100
1000
0100
0000
0010
0001
1000
0000
0001
0100
0010
0000
1000
0001
,
1000
0000
0010
0100
0001
0000
1000
0100
0010
0000
0001
1000
0010
0000
0100
0001
,
2000
3000
0010
0200
0301
0000
1000
0001
0100
0000
0010
1000
0001
0000
1000
0100
,
0010
0000
0001
1000
0010
0000
0100
0001
1000
0000
0001
0100
0001
1000
0010
0100
,
0001
0000
1000
0100
1000
0000
0010
0100
0010
0000
1000
0001
1000
0000
0001
0100
,
0010
0000
1000
0100
1000
0000
0001
0100
0010
0000
1000
0001
0010
0000
0100
1000
,
2002
0000
3000
1000
0000
0000
2000
0000
0000
0000
0000
0000
0000
0000
0000
0000
,
3203
0000
0000
0020
0000
0000
0000
0000
,
0332
0000
0000
0200
0000
0000
0000
0000
,
2303
0000
0000
0020
0000
0000
0000
0000
,
3230
0000
0000
0020
0000
0000
0000
0000
,
0332
0000
0000
0200
0000
0000
0000
0000
,
2303
0000
0000
0020
0000
0000
0000
0000
,
3032
0000
0000
2000
0000
0000
0000
0000
,
3113
0000
1000
0010
0100
0000
0001
1000
0001
0000
0100
0010
1000
0000
0001
0010
,
0001
0000
0100
0010
1000
0000
0100
0010
0001
0000
1000
0100
0010
0001
1000
0001
,
0010
0000
0100
1000
0100
0000
0010
0001
1000
0000
0001
0100
0010
0000
1000
0001
,
1000
0000
0010
0100
0001
0000
1000
0100
0010
0000
0001
1000
0010
0000
0100
0001
,
1000
0100
0010
0001
1000
0010
0100
0010
1000
0001
0100
0001
1000
0100
0010
0001
,
0100
0010
1000
0001
1000
0010
0100
0010
1000
0001
0010
0001
1000
0100
0010
0001
,
1000
0100
1000
0010
0100
0001
1000
0001
0100
0010
1000
0001
0010
0001
0100
0010
,
2000
0000
0000
0000
0000
0000
3002
0000
0000
0000
0000
0000
0203
0000
0000
0000
0000
0000
0000
0000
0000
0000
0000
0000
0320
0000
0000
2030
0000
0000
3002
0000
0000
0203
0000
0000
0302
0000
1000
0003
0010
0000
1000
0000
0001
0000
0100
0000
,
0001
1000
0010
0100
0001
1000
0100
0010
0001
1000
0100
1000
0010
0100
0001
0100
0010
1000
0100
0010
0001
1000
0010
1000
,
0001
0100
0010
1000
0100
0010
0001
1000
0100
1000
0010
0100
0010
1000
0001
0100
0001
1000
0100
0010
0001
0100
0010
1000
,
0001
0010
0001
1000
0100
0010
0001
0100
0010
1000
0001
0100
0001
1000
0010
0100
0001
1000
0100
0010
0001
0100
0010
1000
,
0001
0010
0001
1000
0100
0010
0001
0100
0010
1000
0001
0010
0001
1000
0100
0010
0001
0100
0010
1000
0001
0010
0100
1000
,
0010
0100
0010
1000
0001
0100
0001
1000
0100
0010
0001
1000
0010
0100
0001
1000
0100
0010
0001
1000
0100
1000
0001
0100
,
0010
1000
0010
0100
0001
1000
0100
0010
0001
0100
0010
1000
0001
0010
0001
0100
0010
1000
0100
0010
0001
1000
0010
1000
,
0100
0010
0001
0100
0010
1000
0001
0010
0001
1000
0100
0010
0001
1000
0010
1000
0001
0100
0010
1000
0100
0010
0001
1000
,
0100
1000
0001
0100
0010
1000
0100
0010
0001
1000
0010
1000
0100
0010
0001
0100
0010
1000
0001
0010
0001
0100
0010
1000
,
0100
0010
0001
1000
0100
1000
0001
0100
0010
1000
0100
0010
0001
1000
0100
1000
0001
0100
0010
1000
0100
0010
0001
0100
,
0010
0100
0001
1000
0010
0100
0010
1000
0001
0100
0010
1000
0100
0010
0001
1000
0100
1000
0010
0100
0001
0010
0001
1000
,
0100
0010
0001
0100
0010
1000
0001
0100
0001
1000
0010
0100
0001
1000
0100
0010
0001
0100
0010
1000
0001
0010
0001
1000
,
0100
0010
0001
0100
0010
1000
0001
0100
0001
1000
0010
0100
0001
1000
0100
0010
0001
0100
0001
1000
0010
0100
0001
1000
,
0100
0010
0001
1000
0100
1000
0010
0100
0001
0100
0010
1000
0100
0010
0001
1000
0010
1000
0001
0100
0010
1000
0100
0010
,
0001
1000
0100
1000
0010
0100
0010
1000
0001
0100
0001
1000
0100
0010
0001
0100
0010
1000
0001
0010
0001
1000
0100
0010
,
0001
0100
0010
1000
0001
0100
0001
1000
0010
0100
0001
1000
0100
0010
0001
0100
0010
1000
0001
0010
0001
1000
0100
0010
,
0001
0100
0010
1000
0001
0010
0001
1000
0100
0010
0001
0100
0010
1000
0001
0010
0100
1000
0010
0100
0010
1000
0001
0100
,
0001
1000
0100
0010
0001
1000
0010
0100
0001
1000
0100
0010
0001
1000
0100
1000
0001
0100
0010
1000
0010
0100
0001
1000
,
0100
0010
0001
0100
0010
1000
0001
0010
0001
0100
0010
1000
0100
0010
0001
1000
0010
1000
0100
0010
0001
0100
0010
1000
,
0001
0010
0001
1000
0100
0010
0001
1000
0010
1000
0001
0100
0010
1000
0100
0010
0001
1000
0100
1000
0001
0100
0010
1000
,
0100
0010
0001
1000
0010
1000
0100
0010
0001
0100
0010
1000
0001
0010
0001
0100
0010
1000
0100
0010
0001
1000
0100
1000
,
0001
0100
0010
1000
0100
0010
0001
1000
0100
1000
0001
0100
0010
1000
0100
0010
0001
0100
0010
0100
0001
1000
0010
0100
,
0010
1000
0001
0100
0010
1000
0100
0010
0001
1000
0100
1000
0010
0100
0001
0010
0001
1000
0100
0010
0001
0100
0010
1000
,
0001
0100
0001
1000
0010
0100
0001
1000
0100
0010
0001
0100
0010
1000
0001
0010
0001
1000
0100
0010
0001
0100
0010
1000
,
0001
0100
0001
1000
0010
0100
0001
1000
0100
0010
0001
0100
0001
1000
0100
0010
0001
1000
0010
0100
0001
1000
0100
0010
,
0001
1000
0100
1000
0001
0100
0010
1000
0010
0100
0001
1000
0100
0010
0001
0100
0010
1000
0001
0010
0001
0100
0010
1000
,
0100
0010
0001
1000
0010
1000
0100
0010
0001
0100
0010
1000
0001
0010
0001
1000
0100
0010
0001
1000
0010
1000
0001
0100
,
0010
1000
0100
0010
0001
1000
0100
1000
0001
0100
0010
1000
0100
0010
0001
1000
0010
1000
0100
0010
0001
0100
0010
1000
,
0001
0010
0001
0100
0010
1000
0100
0010
0001
1000
0100
1000
0001
0100
0010
1000
0100
0010
0001
1000
0100
1000
0001
0100
,
0010
1000
0100
0010
0001
0100
0010
0100
0001
1000
0010
0100
0010
1000
0001
0100
0010
1000
0100
0010
0001
1000
0100
1000
,
0010
0100
0001
0010
0001
1000
0100
0010
0001
0100
0010
1000
0001
0100
0001
1000
0010
0100
0001
1000
0100
0010
0001
0100
,
0010
1000
0001
0010
0001
1000
0100
0010
0001
0100
0010
1000
0001
0100
0001
1000
0010
0100
0001
1000
0100
0010
0001
0100
,
0001
1000
0100
0010
0001
0100
0010
1000
0001
0010
0001
0100
0010
1000
0100
0010
0001
1000
0100
1000
0001
0100
0010
1000
,
0001
0000
1000
0010
0100
0000
0001
1000
0001
0000
0100
0010
1000
0000
0001
0010
,
0001
0000
0100
0010
1000
0000
0100
0010
0001
0000
1000
0001
0100
0010
1000
0001
,
0010
0000
0100
1000
0100
0000
0010
0001
1000
0000
0001
0100
0010
0000
1000
0001
,
1000
0000
0010
0100
0001
0000
1000
0100
0010
0000
0001
1000
0010
0000
0100
0001
,
1000
0000
0010
0100
0001
0000
1000
0001
0100
0000
0010
1000
0001
0000
1000
0100
,
0010
0000
0001
1000
0010
0000
0100
0001
1000
0000
0001
0100
0001
1000
0010
0100
,
0001
0000
1000
0100
1000
0000
0010
0100
0010
0000
1000
0001
1000
0000
0001
0100
,
0010
0000
1000
0100
1000
0000
0001
0100
0010
0000
1000
0001
0010
0000
0100
1000
,
0001
0000
0100
0010
0100
0000
0001
1000
0001
0000
0100
0010
1000
0000
0001
0010
,
0001
0000
0100
0010
1000
0000
0100
0010
0001
0000
0010
0100
1000
0001
0100
0001
,
0010
0000
0100
1000
0100
0000
0010
0001
1000
0000
0001
0100
0010
0000
1000
0001
,
1000
0000
0010
0100
0001
0000
1000
0100
0010
0000
0001
1000
0010
0000
0100
0001
,
1000
0000
0010
0100
0001
0000
1000
0001
0100
0000
0010
1000
0001
0000
1000
0100
,
0010
0000
0001
1000
0010
0000
0100
0001
1000
0000
0001
0100
0001
1000
0010
0100
,
0001
0000
1000
0100
1000
0000
0010
0100
0010
0000
1000
0001
1000
0000
0001
0100
,
0020
0000
0000
0000
0000
0000
2030
0000
0000
0000
0000
0000
3002
0000
0000
0000
0000
0000
0000
0000
0000
0000
0000
0000
1003
0000
0000
0100
0000
0000
0010
0000
0000
0001
0000
0000
1000
0000
0100
0000
0010
0000
0001
0000
1000
0000
0001
0000
,
0100
0010
0100
0001
1000
0100
0010
0001
1000
0100
1000
0010
0100
0001
0100
0010
1000
0100
0010
0001
1000
0010
1000
0001
,
0100
0010
1000
0100
0010
0001
1000
0100
1000
0010
0100
0010
1000
0001
0100
0001
1000
0100
0010
0001
0100
0010
1000
0001
,
0010
0001
1000
0100
0010
0001
0100
0010
1000
0001
0100
0001
1000
0010
0100
0001
1000
0100
0010
0001
0100
0010
1000
0001
,
0010
0001
1000
0100
0010
0001
0100
0010
1000
0001
0010
0001
1000
0100
0010
0001
0100
0010
1000
0001
0010
0100
1000
0010
,
0100
0010
1000
0001
0100
0001
1000
0100
0010
0001
1000
0010
0100
0001
1000
0100
0010
0001
1000
0100
1000
0001
0100
0010
,
1000
0010
0100
0001
1000
0100
0010
0001
0100
0010
1000
0001
0010
0001
0100
0010
1000
0100
0010
0001
1000
0010
1000
0100
,
0010
0001
0100
0010
1000
0001
0010
0001
1000
0100
0010
0001
1000
0010
1000
0001
0100
0010
1000
0100
0010
0001
1000
0100
,
1000
0001
0100
0010
1000
0100
0010
0001
1000
0010
1000
0100
0010
0001
0100
0010
1000
0001
0010
0001
0100
0010
1000
0100
,
0010
0001
1000
0100
1000
0001
0100
0010
1000
0100
0010
0001
1000
0100
1000
0001
0100
0010
1000
0100
0010
0001
0100
0010
,
0100
0001
1000
0010
0100
0010
1000
0001
0100
0010
1000
0100
0010
0001
1000
0100
1000
0010
0100
0001
0010
0001
1000
0100
,
0010
0001
0100
0010
1000
0010
0100
0001
1000
0100
0010
0001
1000
0100
1000
0010
0100
0001
0100
0010
1000
0100
0010
0001
,
1000
0010
1000
0001
0100
0010
1000
0100
0010
0001
1000
0100
1000
0010
0100
0010
1000
0001
0100
0001
1000
0100
0010
0001
,
0100
0010
1000
0001
0010
0001
1000
0100
0010
0001
0100
0010
1000
0001
0100
0001
1000
0010
0100
0001
1000
0100
0010
0001
,
0100
0010
1000
0001
0010
0001
1000
0100
0010
0001
0100
0010
1000
0001
0010
0001
1000
0100
0010
0001
0100
0010
1000
0001
,
0010
0100
1000
0010
0100
0010
1000
0001
0100
0001
1000
0100
0010
0001
1000
0010
0100
0001
1000
0100
0010
0001
1000
0100
,
1000
0001
0100
0010
1000
0010
0100
0001
1000
0100
0010
0001
0100
0010
1000
0001
0010
0001
0100
0010
1000
0100
0010
0001
,
1000
0010
1000
0100
0010
0001
0100
0010
1000
0001
0010
0001
1000
0100
0010
0001
1000
0010
1000
0001
0100
0010
1000
0100
,
0010
0001
1000
0100
1000
0001
0100
0010
1000
0100
0010
0001
1000
0010
1000
0100
0010
0001
0100
0010
1000
0001
0010
0001
,
0100
0010
1000
0100
0010
0001
1000
0100
1000
0001
0100
0010
1000
0100
0010
0001
1000
0100
1000
0001
0100
0010
1000
0100
,
0010
0001
0100
0010
0100
0001
1000
0010
0100
0010
1000
0001
0100
0010
1000
0100
0010
0001
1000
0100
1000
0010
0100
0001
,
0010
0001
1000
0100
0010
0001
0100
0010
1000
0010
0100
0001
1000
0100
0010
0001
1000
0100
1000
0010
0100
0001
0100
0010
,
1000
0100
0010
0001
1000
0010
1000
0001
0100
0010
1000
0100
0010
0001
1000
0100
1000
0010
0100
0010
1000
0001
0100
0001
,
1000
0100
0010
0001
0100
0010
1000
0001
0010
0001
1000
0100
0010
0001
0100
0010
1000
0001
0100
0001
1000
0010
0100
0001
,
1000
0100
0010
0001
0100
0010
1000
0001
0010
0001
1000
0100
0010
0001
0100
0010
1000
0001
0010
0001
1000
0100
0010
0001
,
0100
0010
1000
0001
0010
0100
1000
0010
0100
0010
1000
0001
0100
0001
1000
0100
0010
0001
1000
0010
0100
0001
1000
0100
,
0010
0001
1000
0100
1000
0001
0100
0010
1000
0010
0100
0001
1000
0100
0010
0001
0100
0010
1000
0001
0010
0001
0100
0010
,
1000
0100
0010
0001
1000
0010
1000
0100
0010
0001
0100
0010
1000
0001
0010
0001
1000
0100
0010
0001
1000
0010
1000
0001
,
0100
0010
1000
0100
0010
0001
1000
0100
1000
0001
0100
0010
1000
0100
0010
0001
1000
0010
1000
0100
0010
0001
0100
0010
,
1000
0001
0010
0001
0100
0010
1000
0100
0010
0001
1000
0100
1000
0001
0100
0010
1000
0100
0010
0001
1000
0100
1000
0001
,
0100
0010
1000
0100
0010
0001
0100
0010
0100
0001
1000
0010
0100
0010
1000
0001
0100
0010
1000
0100
0010
0001
1000
0100
,
1000
0010
0100
0001
0010
0001
1000
0100
0010
0001
0100
0010
1000
0001
0100
0001
1000
0010
0100
0001
1000
0100
0010
0001
,
1000
0100
1000
0001
0100
0010
1000
0010
0100
0001
1000
0100
0010
0001
1000
0001
0010
0100
1000
0010
0100
0001
1000
0000
,
2002
0003
0000
0000
0000
0000
0000
0000
,
3020
0000
0000
0200
0000
0000
0000
0000
,
0332
0000
0000
2000
0000
0000
0000
0000
,
3023
0000
0000
2000
0000
0000
0000
0000
,
3032
0000
0000
0200
0000
0000
0000
0000
,
0323
0000
0000
0200
0000
0000
0000
0000
,
0332
0000
0000
2000
0000
0000
0000
0000
,
3023
0000
0000
2000
0000
0000
0000
0000
,
3032
0000
0000
0203
0000
0000
0320
0000
,
0000
2030
0000
0000
3002
0023
0230
0000
,
2300
0000
0000
3002
0000
0000
0203
0000
,
0000
0000
0000
0020
0000
0000
0000
0000
,
0332
0000
0000
0203
0000
0000
0320
0000
,
0000
2030
0000
0000
3002
0023
0230
0000
,
2300
0000
0000
3002
0000
0000
0203
0000
,
0000
0000
0000
0020
0000
0000
0000
0000
,
0332
0000
0000
0203
0000
0000
0320
0000
,
0000
2030
0000
0000
3002
0023
0230
0000
,
2300
0000
0000
3002
0000
0000
0203
0000
,
0000
0000
0000
0020
0000
0000
0000
0000
,
0332
0000
0000
0203
0000
0000
0320
0000
,
0000
2030
0000
0000
3002
0023
0230
0000
,
2300
0000
0000
3002
0000
0000
0203
0000
,
0000
0000
0000
0020
0000
0000
0000
0000
,
0330
0000
0000
0000
,
0000
0000
0000
0000
,
0000
0000
0000
0000
;
