#TITLE:scooter-fire;
#SUBTITLE:fran steps;
#ARTIST:mortal kombat annihilation;
#TITLETRANSLIT:;
#SUBTITLETRANSLIT:;
#ARTISTTRANSLIT:;
#CREDIT:;
#BANNER:;
#BACKGROUND:;
#LYRICSPATH:;
#CDTITLE:;
#MUSIC:02 - Scooter - Fire(#01).ogg;
#OFFSET:0.220;
#SAMPLESTART:42.034;
#SAMPLELENGTH:12.000;
#SELECTABLE:YES;
#BPMS:0.000=142.000;
#STOPS:;
#BGCHANGES:;
// cache tags:
#FIRSTBEAT:1.000;
#LASTBEAT:452.750;
#SONGFILENAME:Songs/toune 8/scooter-fire(fran steps)/02 - Scooter - Fire(#01).sm;
#HASMUSIC:1;
#HASBANNER:0;
#MUSICLENGTH:105.000;
// end cache tags

//---------------dance-single - ----------------
#NOTES:
     dance-single:
     :
     Challenge:
     11:
     1.000,1.000,0.048,0.095,1.000,995.000,5.000,10.000,128.000,0.000:
0000
0000
0000
0000
0000
0000
0000
0000
M000
M000
0000
0000
00M0
00M0
0000
0000
0M00
0M00
0000
0000
0000
0000
0000
0000
0000
000M
000M
0000
M000
0M00
00M0
000M
,
0000
0000
0M00
0M00
0000
0000
0000
00M0
00M0
0000
0000
0000
M000
M000
0000
0000
0000
0000
0000
0000
0000
0000
0000
0000
1000
0000
0001
0000
1000
0000
0001
0000
,
1000
0000
0100
0000
0010
0001
0010
0001
0010
0000
0100
0000
1000
0000
0000
0100
,
0000
0000
0010
0000
0001
0000
0000
0001
0000
0000
0100
0000
0010
1000
0010
1000
,
0010
0000
0100
0000
0001
1000
0001
1000
0001
0000
0100
0000
0010
0000
0000
1000
,
0000
0000
0100
0000
0010
0000
0000
0010
0000
0000
0001
0000
0100
0001
0100
0001
,
0100
0000
0001
0000
1000
0100
1000
0100
1000
0000
0100
0000
0010
0000
0000
0010
,
0000
0000
0001
0000
0100
0000
0000
0100
0000
0000
0001
0000
0010
0100
0010
0100
,
0010
0000
0001
0000
0100
0010
0100
0010
0100
0000
0010
0000
2000
0000
0000
0002
,
0000
0000
0M00
0000
00M0
0000
0M00
0000
00M0
0000
3003
0000
1000
0100
1000
0100
,
1000
0000
0100
0000
0010
0001
0010
0001
0010
0000
0001
0000
0100
0000
0000
0100
,
0000
0000
0010
0000
1000
0000
0000
1000
0000
0000
0100
0000
0010
0001
0010
0001
,
0010
0000
0001
0000
0100
0001
0010
0100
1000
0000
0100
0000
0010
0000
0000
0001
,
0000
0000
0100
0000
0010
0000
0000
0010
0000
0000
1000
0000
0100
0010
0001
0010
,
0100
0000
1000
0000
0100
1000
0100
0010
0001
0000
0100
0000
0001
0000
0000
1000
,
0000
0000
0100
0000
0010
0000
0000
0010
0000
0000
0001
0000
0100
0001
0100
0001
,
0100
0000
0001
0000
0010
0100
1000
0100
0010
0000
0001
0000
0100
0000
0000
0010
,
0000
0000
1000
0000
0100
0000
0000
0100
0000
0000
0010
0000
1001
0000
0100
0000
,
0001
0010
0100
1000
0001
0100
0010
1000
,
0100
1000
0010
0100
0010
1000
0001
0100
,
0010
1000
0001
0100
0010
1000
0001
0010
,
0100
0000
1000
0000
0100
0000
0010
0000
0001
0100
0001
0100
0001
0000
1000
0000
,
0001
0100
0010
1000
0100
1000
0010
0100
,
0010
1000
0001
0100
0010
1000
0100
0010
,
0001
0100
0010
1000
0100
1000
0010
0100
,
0001
0000
1000
0000
0100
0000
0010
0000
0001
0000
0100
0000
0010
1000
0010
1000
,
0100
0010
0001
0000
0100
0010
1000
0100
1000
0100
0010
0000
0001
0100
0001
0010
,
0100
1000
0100
1000
0010
1000
0001
1000
0001
0100
0010
0000
1000
0100
1000
0100
,
0010
0001
0100
0000
0010
1000
0010
0100
0001
0010
0100
0000
1000
0100
0010
0001
,
0100
0010
1000
0001
0100
0010
1000
0100
0010
0001
0100
0000
0010
1000
0010
1000
,
0100
0010
0001
0000
1000
0010
1000
0100
0010
0001
0100
0010
1000
0010
1000
0100
,
0010
0001
0100
0010
1000
0100
1000
0100
0010
0001
0100
0000
0010
1000
0010
0100
,
0001
0100
0001
0000
1000
0100
1000
0100
0010
0001
0010
0001
0100
0001
0100
0010
,
1000
0100
0010
0001
0100
0010
1000
0100
0010
0001
0100
0010
1000
0000
0000
0000
,
00M1
0000
0000
0000
01M0
0000
0000
0000
0020
0000
0000
2000
0000
0000
0M00
0000
,
000M
0000
0M00
0000
000M
0000
0M00
0000
000M
0000
3030
0000
1000
0100
0010
0001
,
0100
0000
0010
0000
1000
0100
1000
0100
0010
0000
0001
0000
0100
0000
0000
0100
,
0000
0000
0001
0000
0010
0000
0000
0010
0000
0000
0001
0000
0100
0001
0100
0001
,
0010
0000
0100
0000
1000
0100
1000
0100
1000
0000
0100
0000
0010
0000
0000
0010
,
0000
0000
0001
0000
0100
0000
0000
0100
0000
0000
0001
0000
0100
0001
0010
0100
,
1000
0000
0100
0000
1000
0100
0010
0001
0100
0000
0010
0000
1000
0000
0000
1000
,
0000
0000
0100
0000
0010
0000
0000
0010
0000
0000
0001
0000
0100
0010
0100
0010
,
0100
0000
0010
0000
1000
0100
1000
0100
1000
0000
0100
0000
0010
0000
0000
0010
,
0000
0000
0000
0000
0001
0000
0000
0000
0100
0000
0000
0000
0000
0000
0100
0000
0000
0000
0000
0000
0001
0000
0000
0000
4004
0000
00M0
0M00
00M0
0M00
00M0
0M00
,
00M0
0M00
00M0
0M00
00M0
0M00
00M0
0M00
00M0
0M00
00M0
0M00
00M0
0M00
00M0
0M00
00M0
0M00
00M0
0M00
00M0
0M00
00M0
0M00
00M0
0M00
00M0
0M00
00M0
0M00
00M0
0M00
,
00M0
0M00
00M0
0M00
00M0
0M00
00M0
0M00
00M0
0M00
00M0
0M00
00M0
0M00
00M0
0M00
00M0
0M00
00M0
0M00
00M0
0000
3003
0000
0100
0000
0000
0000
0000
0000
0000
0000
,
0010
0000
0000
0000
0001
0000
0100
0001
0100
0000
0000
0001
0100
0000
0010
0000
,
1000
0100
0000
0010
0000
0001
0000
0010
0000
0100
1000
0100
0010
0000
0000
0000
,
0001
0000
0000
0000
0100
0000
0010
1000
0010
0000
0000
0100
0001
0000
0100
0000
,
0001
1000
0000
0100
0000
0010
0000
0001
0000
0010
0100
1000
0100
0000
0000
0000
,
0010
0000
0000
0000
0001
0000
0100
0001
0100
0000
0000
0001
0100
0000
0010
0000
,
1000
0100
0000
0010
0000
0001
0000
0100
0000
0001
1000
0001
1000
0000
0100
0000
,
0010
0001
0100
0010
1000
0100
1000
0001
,
0100
0010
1000
0001
0010
0100
1000
0100
,
0010
0001
0100
0010
1000
0100
0010
0100
,
1000
0001
0100
0010
0100
0001
0010
0100
,
1000
0001
0100
0010
1000
0100
1000
0010
,
0100
0001
1000
0100
1000
0001
0100
0010
,
1000
0100
1000
0001
0100
0010
1000
0001
,
0100
0000
0010
0000
1000
0000
0100
0000
0010
0000
0001
0000
0100
0010
1000
0100
,
0010
0001
0001
0000
1000
0100
0010
0001
0010
0100
1000
0000
0100
0010
0001
0010
,
0100
1000
0100
1000
0010
0100
0010
1000
0001
0010
0001
0000
1000
0100
1000
0100
,
0010
0001
0010
0000
0100
1000
0100
0010
0001
0010
0100
0010
0001
0100
0001
0100
,
0010
1000
0010
0100
0001
0100
0001
1000
0100
0010
0001
0000
0100
0010
0100
0010
,
1000
0100
0010
0000
0001
0010
0100
1000
0100
0010
0001
0100
0001
0010
0100
1000
,
0100
1000
0100
0010
0001
0010
0001
0010
0100
1000
0100
0000
0010
0001
0010
0100
,
1000
0100
0010
0000
0001
1000
0001
0100
0010
1000
0100
0010
0001
0010
0001
0100
,
0001
0100
0001
0010
0100
1000
0100
0010
0001
0010
0100
0000
1M00
0000
0000
0000
,
01M0
0000
0000
0000
0M10
0000
0000
0000
0002
0000
0000
2000
0000
0000
0M00
0000
,
00M0
0000
0M00
0000
00M0
0000
0M00
0000
00M0
0000
3003
0000
1000
0100
1000
0100
,
1000
0000
0100
0000
0010
0001
0010
0001
0010
0000
0001
0000
0100
0000
0000
0100
,
0000
0000
0001
0000
0010
0000
0000
0010
0000
0000
0100
0000
1000
0100
0010
0001
,
0100
0000
0010
0000
1000
0001
1000
0001
1000
0000
0100
0000
0010
0000
0000
0010
,
0000
0000
0001
0000
0100
0000
0000
0100
0000
0000
0010
0000
1000
0100
0010
0100
,
1000
0000
0100
0000
0010
0001
0010
0001
0100
0000
0001
0000
0100
0000
0000
0100
,
0000
0000
0010
0000
1000
0000
0000
1000
0000
0000
0100
0000
0010
0001
0010
0001
,
0010
0000
0001
0000
0100
0001
0100
0010
1000
0000
0100
0000
0010
0000
0000
0010
,
0000
0000
0001
0000
0100
0000
0000
0100
0000
0000
0010
0000
1020
0000
0000
0000
,
1030
0100
0010
0001
,
0100
0010
1000
0100
,
0010
0100
1000
0001
,
0100
0000
0010
0000
1000
0000
0001
0100
,
0001
0000
0100
0010
1000
0100
0010
0001
,
0100
0010
1000
0010
0100
0001
0010
0100
,
1000
0001
0100
0010
1000
0100
1000
0010
,
0100
0000
0010
0000
1000
0000
0001
0000
0100
0000
0010
0000
1000
0000
0100
0010
,
0001
0000
0100
0000
0010
0000
1000
0100
0010
0000
0001
0000
0100
0000
0010
1000
,
0100
0000
0010
0000
0001
0000
0100
0010
1000
0000
0100
0000
0010
0000
0001
0100
,
0010
0000
1000
0000
0100
0000
0010
0001
0100
0000
0010
0000
1000
0000
0100
0010
,
0001
0000
1000
0000
0100
0000
0010
0001
0100
0000
0010
0000
1000
0000
0100
0010
,
0001
0000
0100
0000
0010
0000
1000
0100
0010
0000
0001
0000
1000
0000
0100
0010
,
0001
0000
1000
0100
0010
0000
1000
0100
0010
0000
1000
0100
0020
0000
0001
0000
,
0100
0000
0001
0000
0100
0000
0001
0000
0100
0000
0001
0000
0130
0001
0100
0001
,
0100
0001
0100
0001
0100
0001
0100
0001
0100
0001
0100
0001
0200
0000
M000
0002
,
00M0
0000
M000
0000
00M0
0000
M000
0000
00M0
0000
0303
0000
0100
0001
0100
0001
,
0100
0000
0001
0000
1000
0001
1000
0001
1000
0000
0100
0000
0010
0000
0000
0010
,
0000
0000
0001
0000
0100
0000
0000
0100
0000
0000
0010
0000
1000
0100
0010
0001
,
0010
0000
0100
0000
0010
0001
0010
0100
1000
0000
0100
0000
0010
0000
0000
0010
,
0000
0000
0001
0000
0100
0000
0000
0100
0000
0000
0010
0000
1000
0001
1000
0001
,
0100
0000
0010
0000
1000
0100
0010
0001
0100
0000
0010
0000
1000
0000
0000
1000
,
0000
0000
0100
0000
0010
0000
0000
0010
0000
0000
0001
0000
0100
0001
0100
0001
,
0100
0000
0001
0000
0100
0010
0100
0010
0100
0000
0010
0000
1000
0000
0000
1000
,
0000
0000
0100
0000
0010
0000
0000
0010
0000
0000
0001
0000
0100
0001
1000
0001
,
1000
0000
0100
0000
0010
0001
0010
0001
0010
0000
0100
0000
1000
0000
0000
1000
,
0000
0000
0100
0000
0010
0000
0000
0010
0000
0000
0001
0000
0100
0001
0100
0001
,
0100
0000
0010
0000
1000
0100
0010
0100
1000
0000
0100
0000
0010
0000
0000
0010
,
0000
0000
0001
0000
0100
0000
0000
0100
0000
0000
0001
0000
1000
0001
1000
0001
,
1000
0000
0100
0000
0010
0001
0010
0001
1000
0000
0100
0000
0010
0000
0000
0001
,
0000
0000
0100
0000
0010
0000
0000
1000
0000
0000
0100
0000
0010
0001
0010
0100
,
1000
0000
0100
0000
0010
0001
0010
0100
1000
0000
0100
0000
0010
0000
0000
0001
,
0000
0000
0100
0000
0010
0000
0000
1000
0000
0000
0100
0000
0010
0000
0010
0000
,
0011
4004
0M00
00M0
0M00
00M0
0M00
00M0
,
0M00
0000
0000
0000
00M0
0000
0000
0000
0M00
0000
0000
0000
00M0
0000
0000
0000
0M00
0000
0000
0000
3003
0000
0000
0000
0M00
0M00
0000
00M0
00M0
0000
0M00
0M00
,
0000
M00M
M000
0M00
0M00
0000
M00M
0000
0000
0000
0000
0000
0000
0000
0000
0000
0000
0000
0000
0000
0000
0000
0000
0000
0000
0000
0000
0000
0000
0000
0000
0000
;

//---------------dance-single - ----------------
#NOTES:
     dance-single:
     :
     Hard:
     9:
     1.000,1.000,0.210,0.133,0.386,767.000,22.000,14.000,0.000,0.000:
0000
0000
0000
0000
,
0000
0000
0000
0000
0000
0000
1000
0001
,
1000
0000
0100
0000
0010
0000
0001
0000
0010
0000
0100
0000
1000
0000
0000
0100
,
0000
0000
0010
0000
0001
0000
0000
0001
0000
0000
0100
0000
0010
0000
1000
0000
,
0010
0000
1000
0000
0100
0000
0010
0000
0001
0000
0010
0000
0100
0000
0000
1000
,
0000
0000
0100
0000
0010
0000
0000
0010
0000
0000
0001
0000
0100
0000
0001
0000
,
0100
0000
0001
0000
1000
0000
0100
0000
1000
0000
0100
0000
0010
0000
0000
0010
,
0000
0000
0001
0000
0010
0000
0000
0010
0000
0000
0100
0000
1000
0000
0100
0000
,
1000
0000
0100
0000
0010
0000
0001
0000
0010
0000
0100
0000
2000
0000
0000
0002
,
0000
0000
0000
0000
0000
3003
1000
0100
,
1000
0000
0100
0000
0010
0000
0001
0000
0010
0000
0001
0000
0100
0000
0000
0100
,
0000
0000
0001
0000
0010
0000
0000
0010
0000
0000
0100
0000
1000
0000
0100
0000
,
1000
0000
0100
0000
0010
0000
0001
0000
0010
0000
0001
0000
0100
0000
0000
0100
,
0000
0000
0001
0000
0010
0000
0000
0010
0000
0000
0100
0000
1000
0000
0100
0000
,
0010
0000
0001
0000
0010
0000
0100
0000
1000
0000
0100
0000
1000
0000
0000
1000
,
0000
0000
0100
0000
0010
0000
0000
0010
0000
0000
0001
0000
0100
0000
0001
0000
,
0100
0000
0001
0000
0010
0000
0100
0000
1000
0000
0100
0000
0010
0000
0000
0010
,
0000
0000
0001
0000
0010
0000
0000
0010
0000
0000
0100
0000
1001
0000
0100
0000
,
0001
0010
0100
1000
0001
0100
0010
1000
,
0100
1000
0010
0100
0010
1000
0001
0100
,
0010
1000
0001
0100
0010
1000
0001
0010
,
0100
1000
0100
0010
0001
0100
0001
1000
,
0001
0100
0010
1000
0100
1000
0010
0100
,
0010
1000
0001
0100
0010
1000
0100
0010
,
0001
0100
0010
1000
0100
1000
0010
0100
,
0001
1000
0100
0010
0001
0100
1010
0010
,
1000
0100
0010
0001
1000
0100
1000
0001
,
0100
0000
0010
0000
1000
0000
0100
1000
0100
1000
0100
0000
0010
0000
0001
0000
,
0100
0010
1000
0001
0100
0010
1000
0100
,
0010
0000
0001
0000
0100
0000
0001
0100
0001
0100
0001
0000
0010
0000
0100
0000
,
1000
0001
0100
0010
1000
0100
1000
0001
,
0100
0000
0010
0000
1000
0000
0100
0010
0100
0010
0100
0000
1000
0000
0100
0000
,
0010
0001
0100
0010
1000
0100
1000
0001
,
0100
0000
0010
0000
1000
0000
0100
1000
0100
1000
0100
0000
1000
0000
0000
0000
,
0001
0000
0000
0000
0100
0000
0000
0000
0020
0000
0000
2000
0000
0000
0000
0000
,
0000
0000
0000
0000
0000
3030
1000
0100
,
0010
0000
0001
0000
0100
0000
0010
0000
1000
0000
0010
0000
1000
0000
0000
1000
,
0000
0000
0100
0000
0010
0000
0000
0010
0000
0000
0001
0000
0100
0000
0001
0000
,
0010
0000
0100
0000
1000
0000
0100
0000
0010
0000
0001
0000
0100
0000
0000
0100
,
0000
0000
0010
0000
1000
0000
0000
1000
0000
0000
0100
0000
0010
0000
0001
0000
,
0010
0000
0100
0000
1000
0000
0100
0000
1000
0000
0010
0000
0100
0000
0000
0100
,
0000
0000
0001
0000
0100
0000
0000
0100
0000
0000
0001
0000
0010
0000
0100
0000
,
0010
0000
0001
0000
0100
0000
0010
0000
1000
0000
0010
0000
1000
0000
0000
1000
,
0000
0000
0100
0000
0010
0000
0000
0010
0000
0000
0001
0000
2002
0000
0000
0000
,
0000
0000
0000
0000
,
0000
0000
0000
0000
0000
0000
0000
0000
0000
0000
0000
3003
0100
0000
0000
0000
,
0010
0000
0000
0000
0001
0000
0100
0001
0100
0000
0000
0000
0100
0000
0010
0000
,
1000
0100
0000
0010
0000
0001
0000
0010
0000
0000
0100
0000
1000
0000
0000
0000
,
0100
0000
0000
0000
0010
0000
0001
0010
0001
0000
0000
0000
0100
0000
0010
0000
,
1000
0100
0000
0010
0000
0001
0000
0010
0000
0000
0100
0000
1000
0000
0000
0000
,
0100
0000
0000
0000
0001
0000
0100
0001
0100
0000
0000
0000
0001
0000
1000
0000
,
0100
0010
0000
0001
0000
0010
0000
0100
0000
0000
1000
0000
1000
0000
0100
0000
,
0010
0001
0100
0010
1000
0100
1000
0001
,
0100
0010
1000
0001
0010
0100
1000
0100
,
0010
0001
0100
0010
1000
0100
0010
0100
,
1000
0001
0100
0010
0100
0001
0010
0100
,
1000
0001
0100
0010
1000
0100
1000
0010
,
0100
0001
1000
0100
1000
0001
0100
0010
,
1000
0100
1000
0001
0100
0010
1000
0001
,
0100
0010
1000
0100
0010
0001
0101
0010
,
1000
0100
1000
0001
0100
0010
1000
0100
,
0010
0000
0001
0000
0100
0000
0010
1000
0010
1000
0010
0000
1000
0000
0001
0000
,
0100
0010
1000
0100
1000
0010
0100
0001
,
0010
0000
0100
0000
1000
0000
0100
0010
0100
0010
0100
0000
0010
0000
0001
0000
,
0100
0010
1000
0001
0100
0010
1000
0001
,
0100
0000
0010
0000
1000
0000
0100
1000
0100
1000
0100
0000
0010
0000
0001
0000
,
0100
0010
1000
0001
0100
0010
1000
0100
,
1000
0000
0001
0000
0100
0000
0010
1000
0010
1000
0010
0000
1000
0000
0000
0000
,
0100
0000
0000
0000
0010
0000
0000
0000
0002
0000
0000
2000
0000
0000
0000
0000
,
0000
0000
0000
0000
0000
3003
1000
0100
,
1000
0000
0100
0000
0010
0000
0001
0000
0010
0000
0001
0000
0100
0000
0000
0100
,
0000
0000
0001
0000
0010
0000
0000
0010
0000
0000
0100
0000
1000
0000
0100
0000
,
0010
0000
0001
0000
1000
0000
0001
0000
1000
0000
0100
0000
0010
0000
0000
0010
,
0000
0000
0001
0000
0100
0000
0000
0100
0000
0000
0010
0000
1000
0000
0100
0000
,
0010
0000
0001
0000
0010
0000
0001
0000
0100
0000
0001
0000
0100
0000
0000
0100
,
0000
0000
0010
0000
1000
0000
0000
1000
0000
0000
0100
0000
0010
0000
0001
0000
,
0010
0000
0001
0000
0100
0000
0001
0000
0100
0000
0010
0000
1000
0000
0000
1000
,
0000
0000
0100
0000
0010
0000
0000
0010
0000
0000
1000
0000
1020
0000
0000
0000
,
1030
0100
0010
0001
,
0100
0010
1000
0100
,
0010
0100
1000
0001
,
0100
0000
0010
0000
1000
0000
0001
0100
,
0001
0000
0100
0010
1000
0100
0010
0001
,
0100
0010
1000
0010
0100
0001
0010
0100
,
1000
0001
0100
0010
1000
0100
1000
0010
,
0100
0010
1000
0001
0100
0010
1010
1000
,
0100
0010
0011
0010
0100
1000
1001
0100
,
0001
0010
0011
0010
0100
1000
1001
1000
,
0100
1000
1100
0100
0010
0001
0101
0001
,
1000
0100
1100
0100
0010
0001
0011
0010
,
0100
1000
1100
0100
0010
0001
0011
0010
,
0011
0001
0101
0001
1001
1000
0200
1000
,
1000
0000
1000
0000
1000
0000
1000
0000
1000
0000
1000
0000
1300
0400
4000
0000
,
0000
0000
0000
0000
0000
0000
0000
0000
0000
0000
3300
0000
2000
0000
0000
0002
,
0000
0000
0000
0000
0000
3003
1000
0001
,
1000
0000
0001
0000
0100
0000
0001
0000
0010
0000
0100
0000
1000
0000
0000
1000
,
0000
0000
0100
0000
0010
0000
0000
0010
0000
0000
0001
0000
0010
0000
0100
0000
,
1000
0000
0100
0000
0010
0000
0100
0000
1000
0000
0100
0000
0010
0000
0000
0010
,
0000
0000
0001
0000
0100
0000
0000
0100
0000
0000
0010
0000
1000
0000
0001
0000
,
1000
0000
0001
0000
0100
0000
0010
0000
1000
0000
0100
0000
1000
0000
0000
1000
,
0000
0000
0100
0000
0010
0000
0000
0010
0000
0000
0001
0000
0100
0000
0001
0000
,
0100
0000
0001
0000
0100
0000
0010
0000
0100
0000
0010
0000
1000
0000
0000
1000
,
0000
0000
0100
0000
0010
0000
0000
0010
0000
0000
0001
0000
0100
0000
0010
0000
,
1000
0000
0010
0000
1000
0000
0100
0000
0010
0000
0001
0000
0100
0000
0000
0100
,
0000
0000
0001
0000
0010
0000
0000
0010
0000
0000
0100
0000
1000
0000
0100
0000
,
1000
0000
0100
0000
0010
0000
0001
0000
0010
0000
0001
0000
1000
0000
0000
1000
,
0000
0000
0100
0000
0010
0000
0000
0010
0000
0000
0001
0000
0100
0000
0001
0000
,
0100
0000
0001
0000
1000
0000
0001
0000
1000
0000
0100
0000
0010
0000
0000
0001
,
0000
0000
0100
0000
0010
0000
0000
1000
0000
0000
0100
0000
0010
0000
0001
0000
,
0010
0000
0100
0000
1000
0000
0100
0000
0010
0000
0001
0000
0100
0000
0000
0001
,
0000
0000
0100
0000
0010
0000
0000
1000
0000
0000
0100
0000
0010
0000
0010
0000
,
0011
2002
0000
0000
0000
0000
0000
0000
,
0000
0000
0000
0000
0000
3003
0000
0000
;
