#TITLE:We Gotz Game;
#SUBTITLE:;
#ARTIST:interrupt vector;
#TITLETRANSLIT:;
#SUBTITLETRANSLIT:;
#ARTISTTRANSLIT:;
#CREDIT:;
#BANNER:We Gotz Game - banner.jpg;
#BACKGROUND:We Gotz Game - bg.jpg;
#LYRICSPATH:;
#CDTITLE:pfx - icon.png;
#MUSIC:interruptvector_vs_DJ_Plague-we_gotz_game.mp3;
#OFFSET:0.047;
#SAMPLESTART:29.793;
#SAMPLELENGTH:12.000;
#SELECTABLE:YES;
#BPMS:0.000=122.000,64.000=244.100,128.000=122.050,132.000=244.100,360.000=122.050,362.000=244.100,378.000=122.050,442.000=244.100,570.000=122.050,602.000=244.100,608.000=122.050,613.000=244.100,645.000=122.050,653.000=244.100,685.000=122.070,693.000=244.080,837.000=122.070,893.000=244.140;
#STOPS:;
#BGCHANGES:;
// cache tags:
#FIRSTBEAT:0.000;
#LASTBEAT:892.500;
#SONGFILENAME:Songs/Community Keyboard Megapack - Volume 1/(pfx13AE) We Gotz Game/We Gotz Game.sm;
#HASMUSIC:1;
#HASBANNER:1;
#MUSICLENGTH:284.993;
// end cache tags

//---------------dance-single - ----------------
#NOTES:
     dance-single:
     :
     Hard:
     11:
     1.000,1.000,1.000,0.196,0.398,1456.000,550.000,56.000,0.000,17.000:
0002
0000
0023
0000
,
0230
0000
2300
0000
,
3020
0000
0032
0023
,
0230
0000
2300
0000
,
3102
0000
0023
0000
,
0230
0000
2300
0000
,
3200
0000
0320
0230
,
2300
0000
3002
0000
,
0123
0000
2030
0000
,
3201
0000
0302
0000
,
0213
0000
0302
0023
,
2130
0000
3200
0000
,
0312
0000
0203
0000
,
0321
0000
2031
0000
,
3202
0000
0000
0000
,
0000
0000
0303
0000
,
1000
1000
1000
1000
,
0010
0010
0010
0010
,
0010
0100
0010
0100
0001
0000
0000
0000
0001
0000
0000
0000
0001
0000
0000
0000
,
0001
0000
0000
0010
0000
0010
0100
0000
0100
0010
0000
0000
,
0001
0001
0001
0001
,
1000
1000
1000
1000
,
1000
0100
1000
0100
0010
0000
0000
0000
0010
0000
0000
0000
0010
0000
0000
0000
,
0001
0000
0000
0001
0000
1000
0010
0000
0010
1000
0000
0000
,
0100
0010
0001
1000
,
0010
1000
0100
0010
,
0001
1000
0001
1000
0100
0000
0000
0000
0100
0000
0000
0000
0100
0000
0000
0000
,
0010
0000
0000
0001
0000
0100
0010
0000
0010
0100
0000
0000
,
0001
1000
0010
1000
0001
0000
1000
0000
0100
0000
0000
0000
0100
0000
0000
0000
,
0100
1000
0010
0100
0001
0000
1000
0000
0010
0000
0000
0000
0010
0000
0000
0000
,
1000
0100
1000
0100
0010
0000
1000
0000
0001
0000
0000
0000
0001
0000
0000
0000
,
0001
0010
0100
1000
0001
0000
0100
0000
0001
0000
1000
0000
1000
0000
1000
0000
,
1000
0100
1000
0100
0010
0001
0010
0001
0100
0000
0010
0000
1000
0000
0100
0000
,
0011
0100
1000
0000
1100
0000
0001
0000
0011
0000
0000
0000
0110
0000
0000
0000
,
1100
0001
0110
1000
0101
0000
1001
0000
,
1100
0010
0001
0000
0110
0000
1000
0000
0011
0000
0000
0000
1100
0000
0000
0000
,
0011
1000
0110
0001
1010
0010
0101
0000
,
1010
1100
1001
1010
,
1100
0000
1100
0000
1100
0000
1100
0010
0001
0000
0100
0000
1010
0000
0000
0000
,
1001
0100
0011
1000
,
1010
0001
0101
0010
,
1010
0001
0100
0010
1000
0000
0100
0000
0011
0000
0000
0000
1000
0000
0001
0000
,
0110
0000
0001
0000
1010
0000
0001
0001
,
0011
1000
0110
0001
,
0101
0000
0010
0001
1100
0000
0001
0000
,
0110
0001
1000
0100
0010
0000
0001
0000
0101
0000
0010
0000
1000
0000
0100
0000
,
1001
0000
0100
0000
0011
1000
0010
0000
,
0011
0011
0011
0011
,
1000
1000
1000
1000
,
0011
1000
0011
1000
0011
0000
0000
0000
0011
0000
0000
0000
0001
0000
0000
0000
,
1000
0000
0000
1000
0000
1000
0001
0000
0001
1000
0000
0000
,
0011
0011
0011
0011
,
1000
1000
1000
1000
,
0011
1000
0011
1000
0011
0000
0000
0000
0011
0000
0000
0000
0001
0000
0000
0000
,
1000
0000
0000
1000
0000
1000
0001
0000
0001
1000
0000
0000
,
2000
0000
0000
0100
,
3100
0010
0001
0010
0100
1000
0100
0010
0001
0010
0100
1000
0100
0010
0001
0010
,
0200
0000
0000
1000
,
1300
0100
0010
0001
0010
0100
1000
0100
0010
0001
0010
0100
1000
0100
0010
0001
,
0020
0100
0001
0100
,
0031
0010
0100
1000
0100
0010
0001
0010
0100
1000
0100
0010
0001
0010
0100
1000
,
0200
0010
1000
0010
,
0310
0001
0010
0100
1000
0100
0010
0001
0010
0100
1000
0100
0010
0001
0010
0100
,
1000
0010
1000
0010
0100
0010
0100
0010
,
0001
1000
0001
1000
0100
0000
0100
0000
,
0011
1000
0001
1000
0110
0001
0100
0001
,
1100
0010
0100
0010
0100
0000
0100
0000
,
0011
1000
0110
0001
,
1010
0000
0001
0010
1100
0000
0000
0000
,
1010
0000
0001
0100
1010
0001
1000
0100
,
0011
0100
1000
0000
1001
0000
0001
0001
,
0011
0100
0100
0100
1010
0001
0001
0001
,
0011
1000
1000
1000
0101
0000
0001
0000
,
1010
0100
0100
0100
0011
1000
1000
1000
,
0110
0001
1000
0000
0011
0000
1000
0000
,
0110
0001
0010
0100
1000
0000
0001
0000
0101
0000
0000
0000
0100
0000
0000
0000
,
0011
1000
0110
0001
,
1010
0001
0010
0100
1000
0000
0001
0000
1000
0100
0010
0001
0010
0000
0100
0000
,
1000
0100
0010
0100
1000
0000
0010
0000
0101
0010
1000
0001
0100
0000
0000
0000
,
0011
0000
0000
0000
1010
0000
0000
0000
1100
0000
0000
0000
0100
0010
0001
0010
,
1100
0110
0011
0110
,
1100
1001
0011
1001
,
0101
0010
1000
0001
1100
0000
1001
0000
,
0011
0000
1000
0000
0110
0000
0001
0000
1100
0000
0110
0000
0011
0100
1000
0010
,
1000
0001
1000
0100
0011
1000
0100
0010
,
1001
0010
0100
0010
1100
0010
0001
1000
,
0110
0110
0110
0000
,
1100
0000
0001
0000
0110
0000
1000
0000
0101
0000
0010
0000
1100
0010
0001
0100
,
0001
1000
0001
1000
0110
0001
0100
0010
,
1000
0100
0010
0001
1000
0100
1000
0010
,
0100
0000
1100
1100
,
1100
0000
0110
0000
0011
1000
0010
1000
0110
0000
0000
0000
0110
0000
0000
0000
,
0011
0110
1100
1010
,
0110
0000
1001
0000
0011
1000
0100
0010
,
1001
0000
1010
0000
0001
0010
0100
0010
,
0001
0100
0010
0100
0001
0010
0100
1000
,
0010
0000
0100
0000
0001
0010
0100
0010
,
0001
0100
0010
0100
0001
0010
0100
1000
,
0010
0000
0100
0000
1100
0010
0011
1000
,
0100
0000
0010
0000
1001
0000
0010
0000
1000
0001
0010
0000
0101
0000
1000
0100
,
0010
0100
0011
0100
1000
0010
0101
0001
,
0010
0000
0100
0000
1010
0000
0100
0000
0010
0001
0010
0000
1100
0000
0100
0010
,
0001
0000
1000
0000
0110
0001
0001
0000
1100
0010
0001
0000
0110
0000
1000
0000
,
0100
0000
0000
0000
1100
0000
0000
0000
0011
0000
0000
0000
0001
0000
0000
0000
1010
0000
1000
0000
0000
0000
0000
0000
0100
0010
0100
0000
0000
0000
0000
0000
,
0000
1010
0101
0001
1100
0010
1001
0000
,
0000
0000
0000
0000
0110
0000
0000
0000
1001
0000
0000
0000
0000
0000
0000
0000
0101
0000
0001
0000
0000
0000
0000
0000
1000
0100
1000
0000
0000
0000
0000
0000
,
0000
0000
1100
0000
0110
0000
0001
0000
1100
0010
0001
0000
0011
0100
1000
0000
,
1100
0000
0010
0000
0001
0000
0010
0000
1100
0000
0000
0000
1100
0000
0000
0000
0101
0000
0001
0000
1000
0000
0000
0000
0011
0100
1000
0000
1000
0000
0100
0000
,
0010
0001
1010
0000
0101
0000
1000
0000
1100
0000
0110
0000
0011
0000
0110
0000
,
1100
0000
0010
0000
0101
0000
1000
0000
0110
0000
0000
0000
0110
0000
0000
0000
0011
0000
1000
0000
0100
0000
1000
0000
0011
0100
1000
0000
1000
0000
0100
0000
,
0011
0000
0110
0100
1001
0100
0011
1000
,
0101
0000
0010
0000
1100
0010
0001
0100
1010
0000
0001
0000
0110
0000
1000
0000
,
0011
0100
1001
0010
1001
0001
1100
0010
,
0101
0001
0011
0010
1100
0001
1000
0100
,
0011
0000
0011
1100
,
0110
0000
0001
0000
0011
0100
1000
0010
0101
0000
1000
0000
0010
0000
0100
0000
,
0001
1000
0001
1000
0110
0001
1100
0010
,
0101
1000
0110
0000
1100
0010
1001
0000
,
2010
0000
3101
0000
2001
0100
0010
0100
,
3002
0000
0010
0000
1003
0100
0010
0001
0020
0000
0001
0000
0100
0000
0001
0000
,
0130
0001
1000
0010
0100
0001
1000
0100
,
0010
0001
1000
0010
0100
0001
0010
0000
,
1001
1000
1000
0000
0012
1000
0010
0100
,
0023
0000
1000
0000
0031
0010
0100
1000
0002
0000
1000
0000
0100
0000
0010
0000
,
0103
1000
0010
0100
0001
0010
0100
0010
,
0001
1000
0010
0100
0010
1000
0100
0000
,
1001
0001
0001
0000
2001
0000
0010
0000
,
3102
0010
1203
0010
,
1301
0000
0101
0000
0011
1000
1100
0000
,
0110
1000
0011
0000
1010
0000
0101
1000
,
0011
1100
0012
1000
,
0213
0001
2301
0100
,
3101
0000
0011
0000
1100
0001
0110
0000
,
1100
0000
0011
1000
0110
0000
1100
0000
,
0011
0000
1100
1100
,
1100
0000
0000
0000
0110
0001
1000
0100
0011
0000
0000
0000
0011
0000
0000
0000
,
0011
0000
0000
0000
0011
1000
0010
0100
,
0011
0100
1000
0010
0101
0000
0110
0000
,
1010
0000
1000
1000
1100
0010
0101
0000
,
1010
0000
0110
0001
1100
0000
0101
0000
,
1001
0000
0000
0000
1001
0100
0011
0100
,
1010
0101
0110
0000
,
0000
0000
0110
0000
1001
0000
0000
0000
1001
0101
0000
0101
1001
0000
0000
0000
,
1001
1010
0000
1010
1001
0000
0000
0000
1001
1100
0000
1100
1001
0000
0000
0000
,
1001
0011
0000
0011
1001
0000
1100
0000
1001
0110
0000
0110
1001
0000
0011
0000
,
1001
1010
0000
1010
1001
0000
0110
0000
1001
0101
0000
0101
1001
0000
1010
0000
,
1001
1100
0000
1100
1001
0000
0110
0000
1001
0000
1000
0000
0100
0000
0010
0000
,
0101
0010
1000
0010
1100
0001
1000
0100
,
0011
0100
1000
0010
0101
0110
1100
0110
,
0011
0000
1100
0000
0011
0000
1001
0000
0110
0001
1100
0010
0101
1000
0110
0001
,
1010
0100
0011
1000
0110
0001
1100
0010
1001
0000
0000
0000
0011
0000
0000
0000
,
1100
0110
0011
1100
,
0110
0010
0010
0010
0010
0000
0010
0000
0010
0000
0010
0000
0010
0010
0010
0000
,
1010
0000
1010
0000
0101
0010
1100
0001
,
0110
0000
1100
0010
0101
0000
1100
0000
,
0110
0000
1100
0010
0101
0000
1100
0010
,
0101
0000
1000
0000
0110
0000
0000
0000
0011
0000
0000
0000
1010
0100
0010
0001
,
1100
1100
0001
0101
,
0010
0000
1100
0010
0001
0000
0110
0000
,
0110
0000
1010
0100
0011
1000
0110
0000
,
0011
0000
1100
0001
0110
0000
0011
0000
,
1100
0000
0001
0010
0100
0010
0001
0100
,
0010
0100
0001
0010
0100
1000
0010
0000
,
0100
0000
0011
1000
0110
0001
1100
0010
,
0101
0010
0100
1000
0011
0000
1000
0000
0110
0000
0001
0000
1100
0000
0010
0000
,
0101
0000
0000
0000
1100
0000
0010
0000
0001
0000
0010
0000
2200
0000
0000
0300
,
3100
0010
0011
0000
0110
0000
0202
0000
,
0303
0101
1100
0011
,
1100
0010
0001
1000
0101
0000
0000
0000
0011
0000
0000
0000
1100
0000
0000
0000
,
0110
0000
0011
1000
0110
0001
1100
0010
,
0001
0100
1010
0110
0101
0000
0011
0000
,
0000
0000
1001
0100
0011
0001
1100
1000
,
1100
0000
0000
1000
0110
0000
0001
0000
1100
0000
0010
0000
0101
0000
0001
0000
,
0101
0000
1010
0000
0110
0000
0011
1000
,
0110
0001
1000
0010
0101
0000
0000
0000
0011
0000
0000
0000
1100
0000
0000
0000
,
0110
0000
0011
0000
0110
0000
1100
0001
,
0110
0001
1000
0001
1100
0000
1000
0000
1000
0000
1000
0000
1000
0000
1000
0000
,
1000
1000
1001
0000
0011
0000
1100
0000
,
0011
0100
1000
0001
1100
0000
0000
0000
0110
0000
0001
0000
1100
0000
0000
0000
,
0110
0000
0011
1000
0110
0001
1100
0010
,
0101
1000
1100
0000
0101
0000
0110
0000
,
0000
0000
1100
1000
1001
0001
0101
0100
,
0110
0001
1000
0100
0011
0000
1000
0000
1100
0000
0000
0000
0011
0000
0000
0000
,
1100
0010
0101
0001
1010
0001
0110
1000
,
0011
0000
0000
0000
1100
0001
1000
0001
1000
0001
1000
0001
1000
0001
1000
0001
,
1000
0001
1000
0001
1001
0000
0000
0000
1100
0000
0000
0000
0110
0000
0000
0000
,
0011
1000
0100
1000
0110
0000
0000
0000
0011
0000
0000
0000
1100
0000
0001
0000
,
0110
0000
1001
0100
0011
1000
0210
0000
,
0311
0000
0000
0000
1010
0001
0010
0100
1000
0010
0100
0001
1100
0010
0001
0100
,
0010
1000
0001
0100
1010
0000
0000
0000
0110
0000
0000
0000
0011
0000
1000
0000
,
0110
0001
0010
0100
1001
0000
0000
0000
1010
0000
0000
0000
0101
0000
0000
0000
,
0011
0000
0110
0001
1100
0001
0110
0000
,
0011
1100
0110
1001
,
0000
0000
1000
0100
1000
0100
0010
0001
,
0010
0001
1000
0100
0010
0000
0100
0000
0010
0000
0100
0000
1000
0000
0100
0000
,
0011
1000
0110
0001
1100
0010
1100
0001
,
0110
0001
1100
0000
0011
0000
1100
0000
,
1000
0100
0011
1000
0001
1000
0010
0100
,
0010
0100
0001
1000
0110
0000
0001
0000
1100
0000
0010
0000
0101
0000
0000
0000
,
0101
0000
1100
0001
1010
0100
0011
0001
,
1100
0110
1100
0011
,
0000
0000
1001
0100
0010
0001
1000
0010
,
0100
0001
0010
0100
1001
0000
0100
0000
0011
0000
1000
0000
0110
0000
0000
0000
,
1100
0000
0110
0000
0011
0000
1100
0100
,
0011
0110
1100
1001
,
0000
0000
1001
0000
1000
0100
0011
0100
,
1000
0010
0100
0001
0110
0000
0000
0000
1100
0000
0000
0000
1001
0000
0000
0000
,
0011
0100
0011
1000
0110
0001
1010
0000
,
0110
0000
0012
0000
0000
0000
1003
0100
,
1000
0000
1100
0000
0011
0000
0000
0110
,
0011
0000
0000
0000
0000
0000
0000
0000
1100
0000
1100
0000
0000
0000
0000
0000
0011
0100
1000
0000
0000
0000
0000
0000
0000
0000
0000
0000
1100
0000
0000
0000
,
0011
0100
1000
0000
1001
0000
0000
0000
0011
0000
0000
0000
0000
0000
0110
0000
,
0011
0000
0000
0000
0000
0000
0000
0000
1010
0000
1010
0000
0000
0000
0000
0000
1100
0010
0001
0000
0000
0000
0000
0000
0000
0000
0000
0000
0110
0000
0000
0000
,
0011
1000
0100
0000
0101
0000
0000
0000
0110
0000
0000
0000
0000
0000
1100
0000
,
0110
0000
0000
0000
0000
0000
0000
0000
0101
0000
0101
0000
0000
0000
0000
0000
1001
0100
0010
0000
0000
0000
0000
0000
0000
0000
0000
0000
0110
0000
0000
0000
,
1001
0100
0010
0000
0011
0000
0000
0000
1010
0000
0000
0000
0000
0000
0011
0000
,
1010
0000
0000
0000
0000
0000
0000
0000
0011
0000
0011
0000
0000
0000
0000
0000
0011
1000
0100
0000
0000
0000
0000
0000
0000
0000
0000
0000
0011
0000
0000
0000
,
0110
0001
1000
0000
1100
0000
0000
0000
1001
0000
0000
0000
0000
0000
1100
0000
,
1001
0000
0000
0000
0000
0000
0000
0000
0110
0000
0110
0000
0000
0000
0000
0000
0001
1000
0001
0000
0000
0000
0000
0000
0000
0000
0000
0000
0110
0000
0000
0000
,
1001
0100
0010
0000
0001
0000
0000
0000
0100
0000
0000
0000
0000
0000
0010
0000
,
0100
0000
0000
0000
0000
0000
0000
0000
0001
0000
0001
0000
0000
0000
0000
0000
1000
0100
1000
0000
0000
0000
0000
0000
0000
0000
0000
0000
0000
0000
1000
0000
,
0001
0010
0100
0000
1000
0000
0000
0000
0010
0000
0000
0000
0000
0000
0100
0000
,
0010
0000
0000
0000
0000
0000
0000
0000
1000
0000
1000
0000
0000
0000
0000
0000
0010
0001
0010
0000
0000
0000
0000
0000
0000
0000
0000
0000
0000
0000
1000
0000
,
0100
0010
0001
0000
0000
0000
0000
0000
0000
0000
0000
0000
0000
0000
0000
0000
;
