#TITLE:片翼の鳥;
#SUBTITLE:;
#ARTIST:Hommarju feat. mamiko;
#TITLETRANSLIT:Katayoku no Tori;
#SUBTITLETRANSLIT:;
#ARTISTTRANSLIT:;
#CREDIT:;
#BANNER:../Banner.png;
#BACKGROUND:../BG.png;
#LYRICSPATH:;
#CDTITLE:../CDTitleBRAEDEN.png;
#MUSIC:Katayoku no Tori.ogg;
#OFFSET:-0.979;
#SAMPLESTART:65.760;
#SAMPLELENGTH:17.540;
#SELECTABLE:YES;
#BPMS:0.000=109.990,16.000=219.980,184.000=109.990,205.000=219.980;
#STOPS:;
#BGCHANGES:;
// cache tags:
#FIRSTBEAT:15.500;
#LASTBEAT:383.000;
#SONGFILENAME:Songs/Index Fusion/Katayoku no Tori - [Braeden]/Katayoku no Tori.sm;
#HASMUSIC:1;
#HASBANNER:1;
#MUSICLENGTH:120.929;
// end cache tags

//---------------dance-single - ----------------
#NOTES:
     dance-single:
     :
     Challenge:
     17:
     1.000,1.000,0.273,0.223,1.000,1148.000,33.000,27.000,0.000,0.000:
0000
0000
0000
0000
,
0000
0000
0000
0000
,
0000
0000
0000
0000
,
0000
0000
0000
0000
,
1001
0001
0100
0110
0010
1000
0100
0010
,
0001
0100
0001
0000
1000
0010
1000
0000
0001
0100
0001
0000
1000
0000
0010
0000
,
0101
0000
0010
0000
1000
0000
1010
0000
1000
0100
1000
0000
0001
0010
0001
0000
,
1001
0000
0010
0000
0100
0000
0101
0000
0010
1000
0010
0000
0100
0001
0100
0000
,
0001
0010
0001
0000
1000
0100
1000
0000
0001
0100
0010
0000
1000
0010
0100
0000
,
0001
0100
0010
0000
1000
0100
1000
0000
0001
0100
0010
0000
1010
0000
1010
0000
,
1000
0001
0100
0000
0010
1000
0010
0000
0100
0001
0100
0000
0001
0010
0001
0000
,
1000
0100
1000
0000
0001
0100
0001
0000
1000
0100
0010
0000
0001
0010
0100
0000
,
1000
0010
0100
0000
0001
0100
0010
0000
1000
0010
0100
0000
0001
1000
0001
1000
,
0001
0100
0010
0000
1000
0010
0100
0000
0001
0100
0010
0000
1000
0010
0100
0000
,
0001
0100
0010
0000
1000
0100
0010
0000
0001
0010
0100
0000
1000
0010
0100
0000
,
0001
0100
0010
0000
1000
0010
0100
0000
0001
0100
0010
1000
0010
0100
0001
0100
,
0002
0000
0203
0320
,
2030
0000
3020
0000
0230
0000
0300
0001
,
0200
0000
0320
0000
0030
0000
1000
0001
,
1000
0100
0010
0001
0010
0100
1000
0001
0100
0010
1000
0100
0010
0100
1000
0001
,
0100
0010
1000
0100
0010
0100
1000
0001
0100
0010
1000
0100
0010
0100
1000
0001
,
1000
0010
0100
0001
0100
0010
1000
0100
0010
0001
0010
0100
1000
0001
0100
0001
,
1001
0000
0000
0000
1000
0010
0100
0001
0100
0010
1000
0100
0010
0001
0010
0100
,
1000
0010
1000
0010
0100
0001
0100
0001
1000
0100
1000
0100
0010
0001
0010
0001
,
0100
0010
0100
0010
1000
0100
0010
0001
0010
0100
1000
0001
0010
0100
1000
0100
,
0010
0001
0100
0010
1000
0001
0100
0010
1000
0100
1000
0001
1000
0100
1000
0001
,
0100
0010
0100
0001
0100
0010
0100
0001
1000
0100
0010
0001
1000
0010
0100
0001
,
1000
0010
0100
0001
0100
0010
1000
0010
,
0110
1001
0101
1001
,
0101
0000
0000
0000
0101
0000
0000
0000
0001
0010
0100
1000
0100
0010
0001
1000
,
0100
0010
0100
1000
0001
0100
0010
1000
0100
0010
0001
0010
0100
1000
0001
0100
,
0010
1000
0100
1000
0001
0010
0100
1000
0100
0010
0001
1000
0100
0010
0100
1000
,
0001
0010
0100
1000
0001
0100
0001
1000
0100
0010
0100
1000
0001
0100
0010
1000
,
0100
0010
0001
0010
0100
1000
0001
0100
0010
0000
0100
0000
0001
0000
1000
0000
,
1000
0100
0010
0001
0010
0100
1000
0001
0010
0001
1000
0100
0010
0001
0010
0100
,
1000
0001
0100
0010
1000
0100
0010
0100
1000
0001
0100
0010
1000
0100
0010
0001
,
0010
0100
1000
0001
0010
0100
1000
0100
0010
0001
1000
0100
0010
0100
1000
0001
,
0100
0010
1000
0001
0100
0010
1000
0100
0010
0100
1000
0001
0100
0010
1000
0100
,
0010
0100
1000
0001
0010
0100
1000
0001
0100
0010
1000
0100
0010
0100
1000
0001
,
1000
0000
0010
0000
0100
0000
0010
0000
0100
0001
0100
0000
0001
0000
1000
0000
,
1001
0000
0000
0101
0000
0000
0110
0000
,
0110
2000
3020
0230
,
0302
0023
2030
3010
,
0101
0000
0000
0011
0000
0000
0101
0000
,
0102
0023
2030
3200
,
2300
3200
2300
3010
,
0201
0000
0300
0001
0100
0010
1000
0000
,
0000
0000
0001
0000
0100
0000
0010
0000
1000
0000
0000
0001
0100
0000
0010
0000
,
0000
0010
1000
0000
0002
0000
0000
0000
0000
0000
0203
0000
0000
0000
0310
0000
,
2000
0000
0000
0000
,
0000
0000
0000
0000
3000
0000
0001
0100
,
0010
0000
1000
0000
1000
0100
0010
0001
0010
0100
1000
0001
0100
0010
1000
0100
,
0010
0001
0010
0100
1000
0001
0100
0010
1000
0100
1000
0001
0010
0100
1000
0100
,
0010
0001
0010
0100
1000
0001
0010
0001
1000
0100
0010
0001
1000
0100
0010
0100
,
1000
0001
0010
0100
1000
0100
0010
0001
1000
0100
0010
0100
1000
0001
0100
0010
,
1000
0001
0010
0100
0010
0001
1000
0100
0010
0100
1000
0001
0010
0100
1000
0100
,
0010
0001
1000
0100
0010
0100
1000
0001
0100
0010
1000
0001
0010
0001
1000
0100
,
0010
0100
1000
0001
0100
0010
1000
0100
1000
0001
0100
0010
1000
0001
0100
0010
,
0100
0001
1000
0100
1000
0010
0100
0001
0100
0010
1000
0001
0100
0010
1000
0010
,
0100
0001
0100
0010
1000
0001
0100
0010
1000
0001
0100
0010
1000
0001
0100
0010
,
1000
0100
0010
0001
0010
0100
1000
0001
0100
0010
1000
0100
0010
0100
1000
0001
,
0010
0100
1000
0100
0010
0001
1000
0100
0010
0001
0010
0100
1000
0001
0100
0010
,
1000
0100
0010
0100
1000
0001
0100
0010
1000
0100
0010
0100
1000
0001
0100
0010
,
1000
0001
1000
0001
1000
0100
0010
0001
0010
0100
1000
0001
0010
0100
1000
0100
,
0010
0001
1000
0100
0010
0001
0010
0100
1000
0001
0100
0010
1000
0100
1000
0001
,
0010
0100
1000
0100
0010
0100
0010
0001
0010
0100
0010
0100
1000
0001
0100
0010
,
1000
0100
0010
0100
1000
0001
0010
0100
1000
0001
0100
0010
1000
0100
0010
0001
,
0010
0100
1000
0001
0100
0010
1000
0100
0010
0100
1000
0001
0100
0010
1000
0100
,
0010
0100
1000
0001
0010
0100
1000
0100
0010
0001
0100
0010
0100
0001
0100
0010
,
1000
0001
1000
0001
1000
0100
0010
0001
0010
0100
1000
0001
0010
0100
1000
0100
,
0010
0001
1000
0100
0010
0100
1000
0001
0100
0010
1000
0100
0010
0001
0010
0100
,
1000
0001
0010
0001
1000
0001
0010
0001
1000
0001
0010
0001
1000
0001
0010
0001
,
0100
0010
0100
0001
0100
0010
0100
0001
0100
0010
0100
0010
1000
0010
0100
0010
,
0100
0001
0100
0010
1000
0100
0010
0100
1000
0100
1000
0100
0010
0001
0010
0001
,
0100
0010
0100
0010
1000
0100
1000
0100
0010
0001
0010
0001
0100
0010
0100
0010
,
1000
0001
1000
0000
0001
0100
0010
1000
0100
0010
0100
1000
0001
0010
0100
1000
,
0001
0100
0010
1000
0100
0010
0100
1000
0001
0100
0010
1000
0001
0100
0010
1000
,
0001
0010
0001
1000
0001
0010
0001
1000
0001
0100
0010
1000
0001
0100
0001
1000
,
0100
0010
0100
1000
0001
0100
0010
1000
0001
0100
0010
1000
0001
0010
0001
1000
,
0100
1000
0001
0100
0010
1000
0010
1000
0001
0100
0001
0100
0010
1000
0010
1000
,
0001
0100
0010
1000
0100
0010
0100
1000
0001
0100
0010
1000
0100
0010
0100
1000
,
0001
0100
0010
1000
0001
0100
0010
1000
0001
0010
0001
1000
0100
0010
0001
0010
,
0100
1000
0001
0010
0001
1000
0100
0010
0100
1000
0001
0100
0010
1000
0100
0010
,
0100
1000
0001
0100
0010
1000
0001
0100
0010
1000
0100
0010
0100
0010
0001
1000
,
0001
0100
0010
1000
0010
0100
0001
0100
0010
1000
0100
0010
0100
1000
0001
1000
,
0001
0100
0010
1000
0001
0100
0010
1000
0100
0010
0100
1000
0001
0100
0010
1000
,
0100
0010
0100
1000
0001
0100
0010
1000
0100
0010
0100
1000
0001
0010
0100
1000
,
0100
0010
0001
0010
0100
1000
0001
0100
0010
1000
0100
0010
0100
1000
0001
0100
,
0010
1000
0010
1000
0001
0100
0001
0100
0010
1000
0010
1000
0001
0100
0001
0100
,
0010
1000
0100
0010
0100
1000
0001
0100
0010
1000
0100
0010
0100
1000
0001
0100
,
0010
1000
0001
1000
1001
0000
1001
0000
0101
0000
0101
0000
1010
0000
1010
0000
,
0110
0000
0110
0000
1000
0000
0001
0000
1000
0000
0001
0000
1000
0100
0010
0001
,
0010
0100
1000
0001
0100
0010
1000
0100
0010
0100
1000
0001
0100
0010
1000
0100
,
0010
0001
1000
0001
2002
0000
0000
0000
0000
0000
0000
0000
0000
0000
0000
0000
,
3003
0000
0000
0000
;

//---------------dance-single - ----------------
#NOTES:
     dance-single:
     :
     Medium:
     8:
     0.542,0.662,0.232,0.298,0.008,395.000,28.000,36.000,0.000,0.000:
0000
0000
0000
0000
,
0000
0000
0000
0000
,
0000
0000
0000
0000
,
0000
0000
0000
0000
,
1001
0000
0000
0001
0000
0000
0100
0000
,
0010
0000
1000
0000
0020
0000
0000
0230
,
0000
0301
0010
1000
,
0020
0000
0000
0230
0000
0000
0301
0000
,
0010
0100
1000
0100
,
0010
0100
1000
0001
,
1000
0000
0000
0001
0000
0000
0100
0000
,
0010
0000
1000
0000
0010
0000
0000
0010
,
0000
0100
0001
0100
,
0010
0000
0000
0010
0000
0000
1000
0000
,
0001
0100
0010
1000
,
0100
0010
0001
1000
,
2001
0000
3002
0203
,
0320
0000
2030
0000
3020
0000
0030
0100
,
0002
0000
0203
0000
0300
0000
0010
1000
,
0020
0030
0201
0302
,
0023
0000
0032
0000
0203
0000
0300
0001
,
0010
0200
0000
0300
,
1001
0000
0000
0010
0200
0000
0320
0000
,
0030
0000
0000
0000
2000
0000
3000
0001
,
0200
0320
2030
3020
,
0230
0000
0302
0203
,
0320
1030
0001
0000
,
0000
1000
0001
0100
,
1001
0001
0100
0110
,
0010
1000
1010
0010
,
0100
0101
0001
0010
,
0011
0001
0100
0110
,
0010
1000
1010
0001
,
0100
0101
0001
1000
,
1001
0010
0100
0110
,
0010
1000
1001
0001
,
0010
0011
0001
0100
,
0110
0010
1000
0010
,
0100
0001
1000
0010
,
0100
0001
0010
0001
,
0101
0000
0000
1001
0000
0000
0101
0000
,
0110
0010
1000
0010
,
0100
0010
1000
0001
,
0101
0000
0000
1010
0000
0000
0101
0000
,
0011
0001
0100
0010
,
1000
0001
0100
0001
,
1001
0000
0000
1000
0010
0100
0002
0000
,
0000
0003
0100
0000
0010
0000
1000
0000
0010
0000
0000
0100
0010
0000
1000
0000
,
0000
0100
0010
0000
0200
0000
0000
0000
0300
0000
1000
0000
0000
0000
0010
0000
,
2020
0000
0000
0000
,
0000
0000
0000
0000
3030
0000
1000
0100
,
0001
0100
0010
0000
1000
0000
0010
0000
,
0100
0001
0010
0001
,
0100
0001
0010
0001
,
0100
0010
1000
0010
,
0100
0001
0010
0001
,
0100
0010
1000
0001
,
1000
0001
0100
0001
,
0100
0001
0010
0001
,
0100
0010
1000
0010
,
0100
0000
0001
0010
0001
0000
0100
0000
,
0010
0000
1000
0000
0010
0000
0100
0010
,
0100
0001
0010
0100
,
1000
0000
0001
1000
0001
0000
0100
0000
,
0010
0100
0010
1000
,
0100
0010
0001
0100
,
0010
1000
0001
0010
,
0010
0100
0100
1000
,
1000
0000
0001
1000
0001
0000
1000
0001
,
0100
0010
1000
0010
,
0100
0000
0010
0000
1000
0000
0010
0100
,
0010
1000
0001
0010
,
0100
0000
1000
0100
1000
0000
0001
0000
,
0010
0000
0100
0000
1000
0000
0100
0010
,
0100
0010
0001
1000
,
0001
0000
1000
0001
1000
0000
0100
0000
,
0001
0000
0100
0000
0001
0100
0001
0000
,
0100
0010
0010
1000
,
0001
0100
0010
1000
,
0010
0100
0010
0000
1000
0000
0001
0010
,
0001
0010
0001
0000
0001
0000
1000
0000
,
0010
0000
0100
0010
0100
0010
0100
0000
,
0001
0000
1000
0000
0001
0000
0100
0001
,
0100
0001
0100
0001
0100
0001
1000
0001
,
1000
0000
0010
0100
0010
1000
0010
0100
,
0010
1000
0010
0000
0001
0000
0100
0001
,
1000
0001
0100
0001
1000
0001
0100
0001
,
1000
0000
0001
0010
0001
0010
0001
0010
,
0001
1000
0001
1000
0001
1000
0001
1000
,
0001
0100
0010
1000
0001
0100
0010
1000
,
0001
0010
0100
1000
0001
0010
0100
1000
,
0001
0100
0010
0100
0010
1000
0100
0010
,
0100
1000
0001
0100
0010
1000
0100
0010
,
0001
1000
2002
0000
0000
0000
0000
0000
,
0000
3003
0000
0000
;

//---------------dance-single - ----------------
#NOTES:
     dance-single:
     :
     Easy:
     6:
     0.359,0.435,0.058,0.116,0.000,283.000,7.000,14.000,0.000,0.000:
0000
0000
0000
0000
,
0000
0000
0000
0000
,
0000
0000
0000
0000
,
0000
0000
0000
0000
,
1001
0000
0000
1000
,
0001
0100
0010
1000
,
0000
0000
0001
0100
,
0001
0000
0000
0100
,
0010
0100
0010
0100
,
0010
0100
0000
0000
,
0001
0000
0000
1000
,
0001
0100
0001
0000
,
0000
0100
0010
1000
,
0010
0000
0000
0100
,
0001
0100
0001
0010
,
0001
0100
0000
0000
,
0010
0000
1000
0001
,
0100
0010
2000
0000
,
3001
0100
0000
0010
,
2000
0000
3001
0100
,
0010
1000
0200
0000
,
0310
0001
0000
0000
,
1001
0000
0010
2000
,
0000
3000
0002
0000
,
0203
0320
0000
0000
,
1030
0000
0001
0100
,
0010
0000
1000
0000
,
0001
0100
0010
1000
,
1001
0000
1001
1001
,
0010
0100
0002
0000
,
0103
0010
0000
1000
,
0002
0000
0103
0010
,
1000
0100
0020
0000
,
0031
0100
0000
0000
,
0020
0000
1030
0001
,
0000
0000
0200
0000
,
0310
1000
0001
0100
,
0010
1000
0001
0010
,
0100
1000
0001
0001
,
0100
0100
0000
0000
,
0010
0000
0000
1000
,
1000
0000
0000
0000
,
0000
0000
0000
0000
,
0001
0000
0000
0100
,
0100
0000
0000
0000
,
0000
0000
0000
0000
,
1001
0000
0000
0001
0000
0000
1000
0000
,
0000
0010
0000
0000
0100
0000
0000
0001
,
0000
0000
0010
0000
0000
0100
0000
0000
,
1000
0000
0000
0001
0000
0000
0100
0000
,
0000
0000
0000
0000
,
1000
0001
0100
0010
,
1000
0010
0100
0001
,
0010
0001
0100
0001
,
0010
0001
0100
0010
,
1000
0010
0100
0001
,
0010
0001
0010
0001
,
1000
0001
1000
0001
,
0100
0010
0100
0010
,
1000
0100
0010
0001
,
0010
0001
0100
0010
,
1000
0010
0100
0010
,
1000
0010
0100
0001
,
0010
0100
1000
0001
,
0010
0100
1000
0001
,
0100
0010
1000
0001
,
0100
0010
1000
0001
,
0010
0100
1000
0001
,
0100
0010
1000
0100
,
0010
0001
1000
0010
,
0100
0010
1000
0010
,
0100
0100
0001
0001
,
0010
0100
1000
0100
,
0010
0001
0100
0010
,
1000
0010
0100
0001
,
0010
0100
0000
0100
,
0100
0100
1000
0100
,
0010
0001
0100
0010
,
1000
0010
0100
0001
,
0010
0100
1000
0010
,
0100
0001
0010
0100
,
1000
0010
0100
0010
,
0100
0010
1000
0001
,
1000
0001
0100
0001
,
0100
0001
0010
0001
,
0100
0001
1000
0001
,
1000
0100
1000
0010
,
1000
0100
0000
0000
,
0100
0010
0001
0010
,
0001
0100
0010
1000
,
0010
0100
0001
0010
,
0100
1000
0001
0100
,
0100
0010
0010
1000
,
1000
2002
0000
0000
,
0000
0000
0000
0000
,
0000
0000
0000
3003
;

//---------------dance-single - ----------------
#NOTES:
     dance-single:
     :
     Beginner:
     3:
     0.172,0.274,0.041,0.066,0.000,133.000,5.000,8.000,0.000,0.000:
0000
0000
0000
0000
,
0000
0000
0000
0000
,
0000
0000
0000
0000
,
0000
0000
0000
0000
,
1001
0000
0000
0000
,
1000
0000
0001
0000
,
0000
0000
0100
0000
,
0010
0000
0000
0000
,
1000
0000
0001
0000
,
0000
0000
0000
0000
,
0000
1000
0000
0000
,
0001
0000
1000
0000
,
0000
0000
0010
0000
,
0100
0000
0000
0000
,
0001
0000
1000
0000
,
0000
0000
0000
0000
,
0000
0002
0000
0000
,
0003
0000
2000
0000
,
0000
3000
0000
0000
,
0020
0000
0000
0030
,
0000
0000
0200
0000
,
0000
0300
0000
0000
,
0002
0000
0000
0003
,
0000
0000
2000
0000
,
0000
3000
0000
0000
,
0010
0000
0000
0100
,
0000
0000
0001
0000
,
0000
1000
0000
0000
,
0001
0000
0000
0001
,
0000
0000
1000
0000
,
0000
0010
0000
0000
,
0100
0000
0000
0001
,
0000
0000
0100
0000
,
0000
0010
0000
0000
,
1000
0000
0000
0001
,
0000
0000
1000
0000
,
0000
0010
0000
0000
,
0100
0000
0000
0001
,
0000
0000
1000
0000
,
0000
0001
0000
0000
,
1000
0000
0000
1000
,
1000
0000
0000
0000
,
0000
0000
0000
0000
,
0010
0000
0000
0100
,
0100
0000
0000
0000
,
0000
0000
0000
0000
,
1001
0000
0000
1000
,
0000
0000
0001
0000
,
0000
0100
0000
0000
,
0010
0000
0000
0000
,
0000
0000
0000
0000
,
0000
1001
0000
0001
,
0000
0100
0100
0100
,
0000
0010
0000
1000
,
0000
0001
0000
0100
,
0000
0010
0000
1000
,
0000
0001
0000
1001
,
0000
0010
0000
0100
,
0000
0001
0000
1000
,
0000
0010
0000
0100
,
0000
0001
0000
0010
,
0000
0100
0000
1000
,
0000
0100
0000
0000
,
0000
0100
0000
0000
,
0010
0000
0000
0001
,
0001
0001
0000
0000
,
0010
0010
0010
0010
,
0000
0000
0000
0100
,
0000
0100
0000
1000
,
0000
1000
0000
0001
,
0000
0100
0000
0100
,
0000
0010
0000
0010
,
0000
0100
0000
0100
,
0000
1000
0000
1000
,
0000
0001
0000
0100
,
0000
0010
0000
0000
,
0010
0010
0000
1000
,
1000
0000
0001
0001
,
0000
0100
0000
0010
,
0000
1000
0000
0001
,
0000
0000
0100
0000
,
0000
0010
0000
0000
,
1000
0000
0000
0001
,
0000
0000
0100
0000
,
0000
0010
0010
0000
,
0010
0000
0000
1000
,
0000
0000
0001
0000
,
0000
1000
0000
0000
,
1000
0000
0000
0010
,
0000
0000
0010
0000
,
0000
0100
0000
0000
,
0100
0000
0000
0001
,
0001
0001
0001
0001
,
0001
2002
0000
0000
,
0000
0000
3003
0000
;

//---------------dance-single - Copied from----------------
#NOTES:
     dance-single:
     Copied from:
     Hard:
     13:
     0.937,1.000,0.232,0.504,0.533,704.000,28.000,61.000,0.000,0.000:
0000
0000
0000
0000
,
0000
0000
0000
0000
,
0000
0000
0000
0000
,
0000
0000
0000
0000
,
1001
0001
0100
0110
0010
1000
0100
0010
,
0001
0010
0100
1000
0001
0010
0100
1000
,
0100
0010
0001
0100
1000
0100
0001
0010
,
1000
0010
0001
0010
0100
1000
0100
0010
,
0001
0100
0010
1000
0100
0010
0011
0000
,
0101
0000
0110
0000
0010
1000
0010
0000
,
2000
0000
0000
3002
0000
0000
0103
0000
,
0010
0000
1000
0000
0020
0000
0000
1030
,
0000
0000
0000
0000
0001
0000
0000
0000
0100
0000
0000
0000
0001
1000
0001
1000
,
0002
0000
0000
2003
0000
0000
3020
0000
,
0230
0302
0203
0320
,
0230
0000
0000
0000
0301
0000
1000
0000
0001
0100
0010
1000
0010
0100
0001
0100
,
0002
0000
0203
0320
,
2030
0000
3020
0000
0230
0000
0300
0001
,
0200
0000
0320
0000
0030
0000
1000
0001
,
1000
0000
0000
0100
0020
0000
0032
0000
,
0203
0320
2030
0000
,
3200
0020
0000
0330
,
1001
0000
1000
0100
0010
0001
0010
0100
,
1000
0100
0010
0001
0200
0000
0000
0310
,
1000
0100
0010
0100
1000
0001
0100
0010
,
2010
0000
3002
2003
,
0020
3030
0220
0330
,
1001
0010
0100
0001
0100
0010
1000
0010
,
0110
1001
0101
1001
,
0101
0000
0101
0000
1010
0000
0000
0010
,
1000
0000
0202
0000
0303
0000
0001
0010
,
0011
0000
0000
0001
0020
0000
0230
0000
,
2300
3020
0230
0000
,
0302
0000
0000
0000
2003
0000
0000
0000
3100
0000
0010
0000
0001
0000
1000
0001
,
1000
0010
0100
0001
1000
0100
0010
0100
,
1000
0001
0100
0010
1000
0100
0010
0100
,
1000
0001
0100
0010
1000
0100
0010
0100
,
1000
0001
0100
0010
1000
0100
0010
0100
,
1000
0001
0100
0010
1000
0100
0100
0010
,
0001
0000
0010
0000
0100
0000
0010
0000
0100
1000
0100
0000
1000
0000
0001
0000
,
1001
0000
0000
0101
0000
0000
0110
0000
,
0110
2000
3020
0230
,
0302
0023
2030
3010
,
0101
0000
0000
0011
0000
0000
0101
0000
,
0102
0023
0230
2300
,
3020
0230
0302
0103
,
0201
0000
0300
0001
0100
0010
1000
0000
,
0000
0000
0001
0000
0100
0000
0010
0000
1000
0000
0000
0001
0100
0000
0010
0000
,
0000
0010
1000
0000
0002
0000
0000
0000
0000
0000
0203
0000
0000
0000
0310
0000
,
2000
0000
0000
0000
,
0000
0000
0000
0000
3000
0000
0001
0100
,
0010
0000
1000
0000
0001
0000
0100
0000
0010
0000
1000
0000
0001
0000
0100
0010
,
0100
0000
0001
0010
0001
0000
1000
0001
1000
0000
0010
0000
0100
0000
0001
0000
,
1000
0000
0010
0100
0010
0000
1000
0010
1000
0000
0001
1000
0001
0000
1000
0010
,
1000
0000
0001
0000
0100
0000
0010
0000
1000
0000
0100
0000
0010
0000
0001
1000
,
0001
0000
0100
0010
0100
0000
0001
1000
0001
0000
0100
0000
0010
0000
1000
0000
,
0100
0000
0010
0001
0010
0000
0100
1000
0100
0000
1000
0000
0001
0000
0010
0100
,
0010
0000
0100
0000
1000
0000
0001
0000
0100
0000
0010
0000
1000
0000
0100
0010
,
0001
0000
0100
0000
0010
0000
1000
0010
1000
0000
0100
0000
0010
0000
0001
0000
,
0010
1000
0010
0001
0100
1000
0100
0001
,
0100
0000
0010
0000
1000
0000
0100
0000
0010
0000
0001
0000
0100
0000
0010
1000
,
0001
0000
0100
0010
1000
0000
0001
0100
0010
0000
1000
0010
0100
0000
0001
0000
,
0100
0000
0010
1000
0010
0000
0100
0001
0100
0000
0001
0010
0001
0000
1000
0001
,
1000
0000
0001
0100
0001
0000
0100
0000
0010
1000
0010
1000
0001
0000
0100
0010
,
0100
0000
0001
0100
0001
0000
1000
0010
1000
0000
0001
1000
0001
0000
0100
0000
,
0010
0000
1000
0100
1000
0000
0001
0010
0001
0000
1000
0001
1000
0000
0010
0100
,
0001
0000
0100
0000
0010
0000
1000
0000
0100
0000
0010
0000
0001
0000
1000
0010
,
1000
0000
0001
0000
0100
0000
0010
1000
0010
0000
0100
0000
0001
0000
1000
0000
,
0100
0000
0010
0001
0010
0000
0100
1000
0100
0000
0010
0000
0001
0000
0100
0000
,
0010
1000
0010
1000
0010
0000
0100
0000
0001
0000
0100
0000
0010
0000
1000
0001
,
1000
0000
0001
0100
0001
0000
1000
0010
1000
0000
0001
0000
0100
0000
0010
0000
,
1000
0100
1000
0001
1000
0000
0010
0100
0001
0000
0100
0010
1000
0000
0010
0100
,
0001
0000
0100
0010
1000
0000
0001
0000
0100
0000
0010
0000
1000
0000
0100
0010
,
0001
0000
0100
0000
0010
0000
1000
0001
1000
0000
0010
0100
0010
0000
1000
0001
,
1000
0000
0001
0100
0001
0000
1000
0010
1000
0000
0001
0100
0001
0000
1000
0010
,
1000
0000
0001
0000
0100
0000
0010
1000
0010
0000
0100
0000
0001
1000
0001
0100
,
0010
0000
1000
0000
0100
0000
0010
0001
1000
0000
0010
0000
0100
0001
0100
0010
,
1000
0000
0001
0100
0001
0000
1000
0010
1000
0000
0001
0100
0001
0000
0100
0000
,
0010
0000
1000
0000
0100
0010
0100
0010
0100
0000
1000
0001
0100
0000
0010
1000
,
0001
0000
0100
0010
1000
0001
0100
0010
1000
0000
0001
0000
0100
0010
1000
0001
,
0100
0000
0010
1000
0010
0000
0100
0001
0100
0000
0001
0010
0001
0000
1000
0100
,
0010
0000
0001
0000
1000
0000
0010
0000
0100
0000
0001
0000
0100
0000
0010
1000
,
0010
0000
0100
0000
0001
0000
1000
0010
1000
0000
0001
0000
0100
0000
0010
0000
,
1000
0000
0100
0010
0100
0000
0010
0001
0010
0000
0001
1000
0001
0000
1000
0001
,
0100
0000
0010
1000
0010
0000
0100
0000
0001
0000
0100
0000
0010
0000
1000
0100
,
0010
0000
0001
0100
0001
0000
1000
0010
1000
0000
0001
0100
0001
1000
0010
0100
,
0001
0000
0100
0010
0100
0000
0001
0010
0001
0100
0010
1000
0100
0010
0100
1000
,
0001
0100
0010
1000
0100
0000
0010
0000
0001
0100
0010
1000
0001
0000
0100
0010
,
1000
0000
0010
0100
0001
0000
0100
0010
1000
0000
0010
0000
0100
0000
0001
0000
,
0100
0000
0010
1000
0010
0000
0100
0001
0100
0000
0010
0000
1000
0000
0100
0000
,
0010
0001
1000
0010
0100
0001
0100
0010
,
1000
0000
0001
0000
1000
0000
0001
0000
1000
0000
0001
0000
1000
0100
0010
0001
,
0010
0100
1000
0001
0100
0010
1000
0100
0010
0100
1000
0001
0100
0010
1000
0100
,
0010
0001
1000
0001
2002
0000
0000
0000
0000
0000
0000
0000
0000
0000
0000
0000
,
3003
0000
0000
0000
;

//---------------dance-single - Copied from----------------
#NOTES:
     dance-single:
     Copied from:
     Edit:
     18:
     1.000,1.000,0.017,0.058,1.000,1355.000,2.000,7.000,0.000,0.000:
0000
0000
0000
0000
,
0000
0000
0000
0000
,
0000
0000
0000
0000
,
0000
0000
0000
0000
0000
0000
0000
0000
0000
0000
0000
0000
0000
0000
0000
0000
0000
0000
0000
0000
0000
0000
0000
0000
0000
0000
0000
0000
1000
0001
1000
0000
,
0001
0010
0100
1000
0100
0010
0001
1000
0100
0010
0100
1000
0001
0100
0010
1000
,
0100
0010
0100
1000
0001
0100
0010
1000
0100
0010
0001
0010
0100
1000
0001
0100
,
0010
1000
0100
0010
0100
1000
0001
0100
0010
1000
0100
0010
0100
1000
0001
0100
,
0010
1000
0100
0010
0100
1000
0001
0100
0010
1000
0001
0010
0100
1000
0100
0010
,
0001
1000
0100
0010
0001
0010
0100
1000
0001
0010
0100
1000
0100
0010
0001
1000
,
0100
0010
0100
1000
0001
0010
0100
1000
0100
0010
0001
1000
0100
0010
0001
0010
,
0100
1000
0100
0010
0001
1000
0100
0010
0100
1000
0001
0010
0100
0010
0001
1000
,
0100
0010
0100
1000
0001
0010
0100
1000
0100
0010
0001
0010
0100
1000
0001
0100
,
0010
1000
0010
0100
0001
0100
0010
1000
0100
0010
0100
1000
0001
0100
0010
1000
,
0100
0010
0100
1000
0001
0100
0010
1000
0100
0010
0001
0010
0100
1000
0100
0010
,
0001
0010
0100
1000
0001
0100
0010
1000
0001
0100
0010
1000
0001
0100
0010
1000
,
0001
0100
0010
1000
0100
0010
0100
1000
0001
0100
0010
1000
0100
0010
0001
0010
,
0001
0100
0010
1000
0001
0100
0010
1000
0100
0010
0100
1000
0001
0100
0010
1000
,
0100
0010
0001
0010
0100
1000
0001
0010
0100
1000
0100
0010
0001
1000
0100
0010
,
0100
1000
0001
0100
0010
1000
0100
0010
0100
1000
0001
0100
0010
1000
0100
0010
,
0001
0010
0100
1000
0100
0010
0001
1000
0010
0100
0001
0010
0100
0010
0001
1000
,
0010
0100
0001
0010
0100
0010
0001
1000
0010
0100
0001
0010
0100
0010
0001
1000
,
0001
0100
0001
0010
0100
1000
0010
0100
0001
0100
0010
1000
0100
0010
0001
0100
,
0002
1003
0100
0010
0001
0100
0010
1000
0010
0100
0001
0010
0100
1000
0100
0010
,
0001
0100
0001
0100
0010
1000
0010
1000
0001
0010
0001
0010
0100
1000
0100
1000
,
0010
0100
0010
0100
0001
0010
0100
1000
0100
0010
0001
1000
0100
0010
0001
0010
,
0100
1000
0010
0100
0001
1000
0010
0100
0001
0010
0001
1000
0001
0010
0001
1000
,
0010
0100
0010
1000
0100
0010
0001
0100
0010
0100
0001
0100
0010
1000
0001
0100
,
0010
1000
0010
1000
0001
0100
0001
0100
0010
1000
0010
1000
0001
0100
0010
1000
,
0100
0010
0100
1000
0001
0100
0010
1000
0100
0010
0100
1000
0001
0100
0010
1000
,
0100
0010
0100
1000
0001
0100
0010
1000
0001
0010
0100
1000
0100
0010
0001
1000
,
0100
0010
0100
1000
0001
0100
0010
1000
0100
0010
0001
0010
0100
1000
0001
0100
,
0010
1000
0100
1000
0001
0010
0100
1000
0100
0010
0001
1000
0100
0010
0100
1000
,
0001
0010
0100
1000
0001
0100
0001
1000
0100
0010
0100
1000
0001
0100
0010
1000
,
0100
0010
0001
0010
0100
1000
0001
0100
0010
0100
0001
0100
0001
0010
0100
1000
,
0001
0010
0100
1000
0100
0010
0001
1000
0100
1000
0001
0010
0100
1000
0100
0010
,
0001
1000
0010
0100
0001
0010
0100
0010
0001
1000
0010
0100
0001
0010
0100
1000
,
0100
0010
0001
1000
0100
0010
0001
0010
0100
1000
0001
0010
0100
0010
0001
1000
,
0010
0100
0001
1000
0010
0100
0001
0010
0100
0010
0001
1000
0010
0100
0001
0010
,
0100
1000
0100
0010
0001
1000
0100
0010
0100
1000
0001
0100
0010
1000
0100
0010
,
0100
1000
0001
0100
0010
1000
0100
0010
0001
0010
0100
1000
0100
0010
0001
1000
,
0001
0100
0001
0000
0000
0000
1000
0010
1000
0000
0000
0000
0001
1000
0001
0000
,
1000
0001
1000
0100
0010
0001
0010
0100
1000
0001
0100
0010
1000
0100
0010
0100
,
1000
0001
0100
0010
1000
0100
0010
0001
0010
0100
1000
0001
0010
0100
1000
0100
,
0010
0001
0010
0000
0000
0000
0001
0100
0001
0000
0000
0000
0001
0100
0001
0000
,
1000
0001
1000
0000
0010
0100
0001
0100
0001
0100
0010
1000
0100
0010
0100
1000
,
0001
0100
0010
1000
0100
0010
0001
0010
0100
1000
0001
0100
0010
1000
0001
0100
,
0201
0000
0300
0001
0100
0010
1000
0000
,
0000
0000
0001
0000
0100
0000
0010
0000
1000
0000
0000
0001
0100
0000
0010
0000
,
0000
0010
1000
0000
0002
0000
0000
0000
0000
0000
0203
0000
0000
0000
0310
0000
,
2000
0000
0000
0000
,
0000
0000
0000
0000
3000
0000
0001
0100
,
0010
0000
1000
0000
1000
0100
0010
0001
0010
0100
1000
0001
0100
0010
1000
0100
,
0010
0001
0010
0100
1000
0001
0100
0010
1000
0100
1000
0001
0010
0100
1000
0100
,
0010
0001
0010
0100
1000
0001
0010
0001
1000
0100
0010
0001
1000
0100
0010
0100
,
1000
0001
0010
0100
1000
0100
0010
0001
1000
0100
0010
0100
1000
0001
0100
0010
,
1000
0001
0010
0100
0010
0001
1000
0100
0010
0100
1000
0001
0010
0100
1000
0100
,
0010
0001
1000
0100
0010
0100
1000
0001
0100
0010
1000
0001
0010
0001
1000
0100
,
0010
0100
1000
0001
0100
0010
1000
0100
1000
0001
0100
0010
1000
0001
0100
0010
,
0100
0001
1000
0100
1000
0010
0100
0001
0100
0010
1000
0001
0100
0010
1000
0010
,
0100
0001
0100
0010
1000
0001
0100
0010
1000
0001
0100
0010
1000
0001
0100
0010
,
1000
0100
0010
0001
0010
0100
1000
0001
0100
0010
1000
0100
0010
0100
1000
0001
,
0010
0100
1000
0100
0010
0001
1000
0100
0010
0001
0010
0100
1000
0001
0100
0010
,
1000
0100
0010
0100
1000
0001
0100
0010
1000
0100
0010
0100
1000
0001
0100
0010
,
1000
0001
1000
0001
1000
0100
0010
0001
0010
0100
1000
0001
0010
0100
1000
0100
,
0010
0001
1000
0100
0010
0001
0010
0100
1000
0001
0100
0010
1000
0100
1000
0001
,
0010
0100
1000
0100
0010
0100
0010
0001
0010
0100
0010
0100
1000
0001
0100
0010
,
1000
0100
0010
0100
1000
0001
0010
0100
1000
0001
0100
0010
1000
0100
0010
0001
,
0010
0100
1000
0001
0100
0010
1000
0100
0010
0100
1000
0001
0100
0010
1000
0100
,
0010
0100
1000
0001
0010
0100
1000
0100
0010
0001
0100
0010
0100
0001
0100
0010
,
1000
0001
1000
0001
1000
0100
0010
0001
0010
0100
1000
0001
0010
0100
1000
0100
,
0010
0001
1000
0100
0010
0100
1000
0001
0100
0010
1000
0100
0010
0001
0010
0100
,
1000
0001
0010
0001
1000
0001
0010
0001
1000
0001
0010
0001
1000
0001
0010
0001
,
0100
0010
0100
0001
0100
0010
0100
0001
0100
0010
0100
0010
1000
0010
0100
0010
,
0100
0001
0100
0010
1000
0100
0010
0100
1000
0100
1000
0100
0010
0001
0010
0001
,
0100
0010
0100
0010
1000
0100
1000
0100
0010
0001
0010
0001
0100
0010
0100
0010
,
1000
0001
1000
0010
0100
0001
0100
0010
1000
0100
0010
0100
1000
0001
0010
0100
,
1000
0001
0100
0010
1000
0100
0010
0001
0010
0100
1000
0001
0100
0010
0100
0001
,
1000
0100
0010
0001
0100
0010
1000
0100
0010
0100
1000
0001
0100
0010
1000
0100
,
0010
0001
0010
0100
1000
0010
0100
0001
0100
0010
1000
0100
0010
0001
0010
0100
,
1000
0001
0100
0010
1000
0100
0010
0100
1000
0001
0100
0010
1000
0100
0010
0100
,
1000
0001
0100
0010
1000
0100
0010
0100
1000
0001
0100
0010
1000
0100
0010
0001
,
0010
0100
1000
0001
0100
0010
1000
0100
0010
0100
1000
0001
0100
0010
0100
0001
,
0100
0010
1000
0100
0010
0001
0010
0100
1000
0001
0100
0010
1000
0100
0010
0100
,
1000
0001
0100
0010
1000
0100
0010
0100
1000
0001
0100
0010
1000
0100
0010
0100
,
1000
0001
0100
0010
1000
0100
0010
0100
1000
0001
0100
0010
1000
0100
0010
0100
,
1000
0001
0100
0010
1000
0100
0010
0100
1000
0001
0100
0010
1000
0100
0010
0100
,
1000
0001
0100
0010
1000
0100
0010
0001
0010
0100
1000
0001
0100
0010
1000
0100
,
0010
0100
1000
0001
0100
0010
1000
0100
0010
0001
0010
0100
1000
0100
0010
0001
,
0100
0010
1000
0100
0010
0100
1000
0001
0100
0010
1000
0001
0010
0100
1000
0100
,
0010
0001
0100
0010
1000
0100
0010
0100
1000
0001
0100
0010
1000
0100
0010
0001
,
0100
0010
1000
0001
0100
0010
0100
0010
1000
0001
1000
0001
1000
0100
1000
0100
,
0010
0001
0010
0001
1000
0010
0100
0001
1000
0010
0100
0001
0100
0010
1000
0010
,
0100
0001
0010
0100
1000
0010
1000
0100
0010
0100
1000
0001
0100
0010
1000
0100
,
0010
0001
1000
0001
2002
0000
0000
0000
0000
0000
0000
0000
0000
0000
0000
0000
,
3003
0000
0000
0000
;
