#TITLE:Just the Way You Are;
#SUBTITLE:Sexuality Violation;
#ARTIST:Bruno Mars;
#TITLETRANSLIT:;
#SUBTITLETRANSLIT:;
#ARTISTTRANSLIT:;
#CREDIT:;
#BANNER:Just the Way You Are-bn.png;
#BACKGROUND:Just the Way You Are-bg.png;
#LYRICSPATH:;
#CDTITLE:GazeboCD.png;
#MUSIC:Just the Way You Are.ogg;
#OFFSET:-0.285;
#SAMPLESTART:51.438;
#SAMPLELENGTH:17.594;
#SELECTABLE:YES;
#BPMS:0.000=217.985;
#STOPS:;
#BGCHANGES:;
// cache tags:
#FIRSTBEAT:32.000;
#LASTBEAT:712.000;
#SONGFILENAME:Songs/Sexuality Violation 2/Just the Way You Are - [Gazebo]/Just the Way You Are.sm;
#HASMUSIC:1;
#HASBANNER:1;
#MUSICLENGTH:198.811;
// end cache tags

//---------------dance-single - Gazebo----------------
#NOTES:
     dance-single:
     Gazebo:
     Challenge:
     17:
     1.000,1.000,0.216,0.121,1.000,1754.000,43.000,24.000,9.000,0.000:
0000
0000
0000
0000
,
0000
0000
0000
0000
,
0000
0000
0000
0000
,
0000
0000
0000
0000
,
0000
0000
0000
0000
,
0000
0000
0000
0000
,
0000
0000
0000
0000
,
0000
0000
0000
0000
,
0101
0100
1010
1000
,
1001
0001
0011
1000
,
1100
0100
0011
1000
,
1001
0001
0101
1000
,
1010
0010
0101
0001
,
1001
1000
1100
0001
,
1001
1000
1010
0001
,
0101
0000
0010
1000
0010
1000
0001
0000
,
1000
0000
0001
0010
0001
0000
1000
0001
,
1000
0100
0010
0000
0011
0000
1000
0100
,
1000
0000
0001
0100
0010
0000
1000
0010
,
1000
0001
1000
0000
1010
0000
0001
1000
,
0100
0000
1000
0001
0010
0000
0100
1000
,
0100
1000
0001
0000
1001
0000
0001
1000
,
0001
0000
0100
0001
1000
0000
0010
1000
,
0010
1000
0001
0000
0101
0000
1000
0001
,
0010
0000
0100
1000
0001
0000
0010
0001
,
1000
0001
0010
0000
0110
0000
0010
0001
,
1000
0000
0001
0100
0001
0000
1000
0010
,
0100
0010
1000
0000
1001
0000
0001
1000
,
0100
0000
0010
0001
1000
0000
0100
0010
,
0100
1000
0001
0000
0011
0000
0001
1000
,
0010
0000
0100
0010
1000
0000
0001
0100
,
0001
1000
0010
1000
0100
0010
0001
1000
,
0002
0000
1003
0010
1000
0000
0001
0100
,
0010
0100
0001
0000
1001
0000
0001
1000
,
0100
0000
0010
0001
1000
0000
0100
0010
,
0100
1000
0001
0000
0011
0000
1000
0001
,
0200
0000
0310
1000
0001
0000
1000
0010
,
1000
0001
1000
0000
1010
0000
1000
0001
,
0010
0000
0100
0010
0001
0000
1000
0001
,
0010
0100
0010
0000
0011
0000
0001
1000
,
0020
0000
0130
0010
1000
0000
0001
0100
,
0010
0100
0001
0000
1001
0000
0001
1000
,
0100
0000
0010
0100
1000
0000
0001
0010
,
0001
1000
0100
0000
0110
0000
0010
0001
,
2000
0000
3001
0100
0001
0000
1000
0010
,
1000
0001
1000
0000
1010
0000
1000
0001
,
0010
0000
0100
0010
0001
0000
1000
0001
,
0100
0010
0100
0010
1000
0100
0010
0001
,
1000
0100
1000
0100
0010
0001
1000
0001
1000
0100
0010
0001
1000
0001
1000
0100
,
0010
0001
1000
0001
1000
0100
0010
0001
1000
0001
1000
0100
0010
0001
0010
0100
,
1000
0001
0100
0001
0100
0010
1000
0001
1000
0001
0100
0010
1000
0001
1000
0001
,
0100
0010
1000
0100
0010
0001
0010
0001
1000
0100
0010
0001
1000
0010
1000
0010
,
0100
0001
1000
0001
1000
0100
1000
0100
0010
0001
1000
0001
1000
0010
1000
0010
,
0100
0001
1000
0001
1000
0100
1000
0100
0010
0001
1000
0001
1000
0010
0100
0001
,
1000
0001
0100
0001
0100
0010
1000
0001
1000
0001
0100
0001
0100
0010
1000
0001
,
0010
0100
0010
0001
1000
0100
0010
0001
0010
0100
1000
0010
0100
0001
0100
0001
,
1000
0001
1000
0001
0010
0100
1000
0100
1000
0001
1000
0010
0100
0001
0100
0001
,
1000
0001
1000
0001
0010
0100
1000
0100
1000
0001
0010
0001
0100
0010
1000
0010
,
1000
0001
0100
0001
0010
0100
1000
0100
1000
0001
0010
0001
0100
0010
1000
0010
,
1000
0001
0100
0001
1000
0100
0010
0001
1000
0001
1000
0001
0100
0010
1000
0001
,
0100
0001
0100
0010
1000
0001
1000
0001
0100
0001
0100
0010
1000
0001
1000
0001
,
0010
0100
1000
0001
1000
0001
0010
0001
0010
0100
1000
0001
1000
0001
0100
0010
,
1000
0001
0100
0001
0100
0010
1000
0001
1000
0001
0100
0010
0100
0001
1000
0010
,
1000
0001
0100
0001
0010
0100
1000
0100
0010
0001
0010
0001
1000
0100
0010
0001
,
1000
0100
1000
0100
0010
0001
1000
0001
1000
0100
0010
0001
1000
0001
1000
0100
,
0010
0001
1000
0001
1000
0100
0010
0001
1000
0001
1000
0100
0010
0001
0010
0100
,
1000
0001
0100
0001
0100
0010
1000
0001
1000
0001
0100
0010
1000
0001
1000
0001
,
0100
0010
1000
0100
0010
0001
0010
0001
1000
0100
0010
0001
1000
0010
1000
0010
,
0100
0001
1000
0001
1000
0100
1000
0100
0010
0001
1000
0001
1000
0010
1000
0010
,
0100
0001
1000
0001
1000
0100
1000
0100
0010
0001
1000
0001
1000
0010
0100
0001
,
1000
0001
0100
0001
0100
0010
1000
0001
1000
0001
0100
0001
0100
0010
1000
0001
,
0010
0100
0010
0001
1000
0100
0010
0001
0010
0100
1000
0010
0100
0001
0100
0001
,
1000
0001
1000
0001
0010
0100
1000
0100
1000
0001
1000
0010
0100
0001
0100
0001
,
1000
0001
1000
0001
0010
0100
1000
0100
1000
0001
0010
0001
0100
0010
1000
0010
,
1000
0001
0100
0001
0010
0100
1000
0100
1000
0001
0010
0001
0100
0010
1000
0010
,
1000
0001
0100
0001
1000
0100
0010
0001
1000
0001
1000
0001
0100
0010
1000
0001
,
0100
0001
0100
0010
1000
0001
1000
0001
0100
0001
0100
0010
1000
0001
1000
0001
,
0010
0100
1000
0001
1000
0001
0010
0001
0010
0100
1000
0001
1000
0001
0100
0010
,
1000
0001
0100
0001
0100
0010
1000
0001
1000
0001
0100
0010
1000
0100
0010
0001
,
1000
0100
1000
0100
0010
0001
0010
0001
,
1000
0000
0001
0100
0001
0000
1000
0001
,
1000
0010
0100
0000
0101
0000
0001
1000
,
0001
0000
1000
0100
0010
0000
0001
0010
,
0001
1000
0001
0000
0011
0000
1000
0001
,
0100
0000
0001
1000
0010
0000
0100
0001
,
0100
0001
1000
0000
1001
0000
1000
0001
,
1000
0000
0100
1000
0001
0000
0010
0001
,
0010
0001
1000
0000
1100
0000
0001
1000
,
0010
0000
0100
0001
1000
0000
0010
1000
,
0001
1000
0010
0000
0110
0000
0010
1000
,
0001
0000
1000
0100
1000
0000
0001
0010
,
0100
0010
0001
0000
1001
0000
1000
0001
,
0100
0000
0010
1000
0001
0000
0100
0010
,
0100
0001
1000
0000
1010
0000
1000
0001
,
0010
0000
0100
0010
0001
0000
1000
0100
,
1000
0001
0010
0001
0100
0010
1000
0001
,
2000
0000
3001
0010
0001
0000
1000
0100
,
0010
0100
1000
0000
1001
0000
1000
0001
,
0100
0000
0010
1000
0001
0000
0100
0010
,
0100
0001
1000
0000
1010
0000
0001
1000
,
0200
0000
0310
0001
1000
0000
0001
0010
,
0001
1000
0001
0000
0011
0000
0001
1000
,
0010
0000
0100
0010
1000
0000
0001
1000
,
0010
0100
0010
0000
1010
0000
1000
0001
,
0020
0000
0130
0010
0001
0000
1000
0100
,
0010
0100
1000
0000
1001
0000
1000
0001
,
0100
0000
0010
0100
0001
0000
1000
0010
,
1000
0001
0100
0000
0110
0000
0010
1000
,
0002
0000
1003
0100
1000
0000
0001
0010
,
0001
1000
0001
0000
0011
0000
0001
1000
,
0010
0000
0100
0010
1000
0000
0001
1000
,
0100
0010
0100
0010
0001
0100
0010
1000
,
0001
0100
0001
0100
0010
1000
0001
1000
0001
0100
0010
1000
0001
1000
0001
0100
,
0010
1000
0001
1000
0001
0100
0010
1000
0001
1000
0001
0100
0010
1000
0010
0100
,
0001
1000
0100
1000
0100
0010
0001
1000
0001
1000
0100
0010
0001
1000
0001
1000
,
0100
0010
0001
0100
0010
1000
0010
1000
0001
0100
0010
1000
0001
0010
0001
0010
,
0100
1000
0001
1000
0001
0100
0001
0100
0010
1000
0001
1000
0001
0010
0001
0010
,
0100
1000
0001
1000
0001
0100
0001
0100
0010
1000
0001
1000
0001
0010
0100
1000
,
0001
1000
0100
1000
0100
0010
0001
1000
0001
1000
0100
1000
0100
0010
0001
1000
,
0010
0100
0010
1000
0001
0100
0010
1000
0010
0100
0001
0010
0100
1000
0100
1000
,
0001
1000
0001
1000
0010
0100
0001
0100
0001
1000
0001
0010
0100
1000
0100
1000
,
0001
1000
0001
1000
0010
0100
0001
0100
0001
1000
0010
1000
0100
0010
0001
0010
,
0001
1000
0100
1000
0010
0100
0001
0100
0001
1000
0010
1000
0100
0010
0001
0010
,
0001
1000
0100
1000
0001
0100
0010
1000
0001
1000
0001
1000
0100
0010
0001
1000
,
0100
1000
0100
0010
0001
1000
0001
1000
0100
1000
0100
0010
0001
1000
0001
1000
,
0010
0100
0001
1000
0001
1000
0010
1000
0010
0100
0001
1000
0001
1000
0100
0010
,
0001
1000
0100
1000
0100
0010
0001
1000
0001
1000
0100
0010
0100
1000
0001
0010
,
0001
1000
0100
1000
0010
0100
0001
0100
0010
1000
0010
1000
0001
0100
0010
1000
,
0001
0100
0001
0100
0010
1000
0001
1000
0001
0100
0010
1000
0001
1000
0001
0100
,
0010
1000
0001
1000
0001
0100
0010
1000
0001
1000
0001
0100
0010
1000
0010
0100
,
0001
1000
0100
1000
0100
0010
0001
1000
0001
1000
0100
0010
0001
1000
0001
1000
,
0100
0010
0001
0100
0010
1000
0010
1000
0001
0100
0010
1000
0001
0010
0001
0010
,
0100
1000
0001
1000
0001
0100
0001
0100
0010
1000
0001
1000
0001
0010
0001
0010
,
0100
1000
0001
1000
0001
0100
0001
0100
0010
1000
0001
1000
0001
0010
0100
1000
,
0001
1000
0100
1000
0100
0010
0001
1000
0001
1000
0100
1000
0100
0010
0001
1000
,
0010
0100
0010
1000
0001
0100
0010
1000
0010
0100
0001
0010
0100
1000
0100
1000
,
0001
1000
0001
1000
0010
0100
0001
0100
0001
1000
0001
0010
0100
1000
0100
1000
,
0001
1000
0001
1000
0010
0100
0001
0100
0001
1000
0010
1000
0100
0010
0001
0010
,
0001
1000
0100
1000
0010
0100
0001
0100
0001
1000
0010
1000
0100
0010
0001
0010
,
0001
1000
0100
1000
0001
0100
0010
1000
0001
1000
0001
1000
0100
0010
0001
1000
,
0100
1000
0100
0010
0001
1000
0001
1000
0100
1000
0100
0010
0001
1000
0001
1000
,
0010
0100
0001
1000
0001
1000
0010
1000
0010
0100
0001
1000
0001
1000
0100
0010
,
0001
1000
0100
1000
0100
0010
0001
1000
0001
1000
0100
0010
0001
1000
0001
1000
,
0010
0100
0001
0100
0001
1000
0001
1000
0100
0010
0001
1000
0010
0100
0010
0100
,
0001
1000
0001
0100
0010
1000
0010
1000
0001
1000
0001
0100
0010
1000
0010
1000
,
0001
1000
0001
0100
0010
1000
0010
1000
0001
1000
0001
0100
0010
1000
0010
1000
,
0001
1000
0001
0010
0100
1000
0100
1000
0001
1000
0001
0100
0010
0100
0001
1000
,
0001
1000
0100
0010
0001
0010
0100
1000
0100
1000
0001
1000
0001
0100
0001
0100
,
0010
1000
0001
1000
0001
0100
0001
0100
0010
1000
0010
1000
0100
0010
0001
0010
,
0001
1000
0001
1000
0100
0010
0001
1000
0001
1000
0100
0010
0100
1000
0001
1000
,
0001
1000
0010
1000
0010
0100
0001
1000
0001
1000
0010
1000
0010
0100
0001
1000
,
0100
0010
0100
1000
0001
0010
0100
1000
0100
0010
0001
0100
0010
1000
0010
1000
,
0001
1000
0001
1000
0100
0010
0001
0010
0001
1000
0001
0100
0010
1000
0010
1000
,
0001
1000
0001
1000
0100
0010
0001
0010
0001
1000
0100
1000
0010
0100
0001
0100
,
0001
1000
0010
1000
0100
0010
0001
0010
0001
1000
0100
1000
0010
0100
0001
0100
,
0001
1000
0010
1000
0001
0010
0100
1000
0001
1000
0001
1000
0010
0100
0001
1000
,
0010
1000
0010
0100
0001
1000
0001
1000
0010
1000
0010
0100
0001
1000
0001
1000
,
0100
0010
0001
1000
0001
1000
0100
1000
0100
0010
0001
1000
0001
1000
0010
0100
,
0001
1000
0010
1000
0010
0100
0001
1000
0001
1000
0010
0100
0001
1000
0001
1000
,
0100
0010
0100
0010
0001
0100
0010
0100
,
0001
1000
0100
0020
,
0130
0020
0130
1000
,
0001
0100
0010
2000
,
3010
2000
3010
0100
,
0001
1000
0100
0020
,
0130
0020
0130
1000
,
0001
0100
0010
2000
,
3010
2000
3010
0100
,
0001
0010
0100
2000
,
3100
2000
3100
0010
,
0001
1000
0010
0200
,
0310
0200
0310
1000
,
0100
0010
0001
2000
,
3001
2000
3001
0100
,
0010
1000
0001
0020
,
0130
0020
0130
1000
,
000M
0M00
00M0
M000
,
0M00
000M
00M0
M000
,
000M
0000
0000
0000
;

//---------------dance-single - Gazebo----------------
#NOTES:
     dance-single:
     Gazebo:
     Hard:
     13:
     1.000,1.000,0.216,0.126,1.000,1440.000,43.000,25.000,9.000,0.000:
0000
0000
0000
0000
,
0000
0000
0000
0000
,
0000
0000
0000
0000
,
0000
0000
0000
0000
,
0000
0000
0000
0000
,
0000
0000
0000
0000
,
0000
0000
0000
0000
,
0000
0000
0000
0000
,
0101
0100
1010
1000
,
1001
0001
0011
1000
,
1100
0100
0011
1000
,
1001
0001
0101
1000
,
1010
0010
0101
0001
,
1001
1000
1100
0001
,
1001
1000
1010
0001
,
0101
0000
0010
1000
0010
1000
0001
0000
,
1000
0000
0001
0010
0001
0000
1000
0001
,
1000
0100
0010
0000
0011
0000
1000
0100
,
1000
0000
0001
0100
0010
0000
1000
0010
,
1000
0001
1000
0000
1010
0000
0001
1000
,
0100
0000
1000
0001
0010
0000
0100
1000
,
0100
1000
0001
0000
1001
0000
0001
1000
,
0001
0000
0100
0001
1000
0000
0010
1000
,
0010
1000
0001
0000
0101
0000
1000
0001
,
0010
0000
0100
1000
0001
0000
0010
0001
,
1000
0001
0010
0000
0110
0000
0010
0001
,
1000
0000
0001
0100
0001
0000
1000
0010
,
0100
0010
1000
0000
1001
0000
0001
1000
,
0100
0000
0010
0001
1000
0000
0100
0010
,
0100
1000
0001
0000
0011
0000
0001
1000
,
0010
0000
0100
0010
1000
0000
0001
0100
,
0001
1000
0010
1000
0100
0010
0001
1000
,
0002
0000
1003
0010
1000
0000
0001
0100
,
0010
0100
0001
0000
1001
0000
0001
1000
,
0100
0000
0010
0001
1000
0000
0100
0010
,
0100
1000
0001
0000
0011
0000
1000
0001
,
0200
0000
0310
1000
0001
0000
1000
0010
,
1000
0001
1000
0000
1010
0000
1000
0001
,
0010
0000
0100
0010
0001
0000
1000
0001
,
0010
0100
0010
0000
0011
0000
0001
1000
,
0020
0000
0130
0010
1000
0000
0001
0100
,
0010
0100
0001
0000
1001
0000
0001
1000
,
0100
0000
0010
0100
1000
0000
0001
0010
,
0001
1000
0100
0000
0110
0000
0010
0001
,
2000
0000
3001
0100
0001
0000
1000
0010
,
1000
0001
1000
0000
1010
0000
1000
0001
,
0010
0000
0100
0010
0001
0000
1000
0001
,
0100
0010
0100
0010
1000
0100
0010
0001
,
1000
0100
1000
0100
0010
0001
1000
0001
1000
0010
0100
0001
,
1000
0100
1000
0100
0010
0001
1000
0001
1000
0010
0100
0001
,
1000
0100
1000
0100
0010
0001
1000
0001
1000
0010
0100
0010
,
1000
0001
0100
0001
0010
0100
1000
0100
1000
0001
0100
0001
,
0100
0010
1000
0001
0010
0100
1000
0001
1000
0001
0100
0001
,
0100
0010
1000
0001
0010
0100
1000
0001
1000
0001
0100
0010
,
1000
0010
1000
0001
1000
0001
0100
0001
1000
0010
1000
0001
,
0010
0100
1000
0001
0010
0001
1000
0010
1000
0100
1000
0100
,
0010
0001
1000
0010
0100
0001
0100
0001
1000
0100
1000
0100
,
0010
0001
1000
0010
0100
0001
0100
0001
0010
0100
1000
0100
,
1000
0001
0100
0001
0100
0010
1000
0001
0010
0100
0010
0100
,
1000
0001
0100
0001
0100
0010
1000
0001
0010
0100
0010
0100
,
1000
0001
0010
0001
1000
0010
1000
0001
0010
0100
1000
0100
,
1000
0001
0010
0001
1000
0010
1000
0001
0010
0100
1000
0100
,
1000
0001
0010
0001
1000
0010
1000
0001
0100
0001
1000
0100
,
0010
0001
0100
0001
1000
0010
1000
0010
0100
0001
0010
0001
,
1000
0100
1000
0100
0010
0001
1000
0001
1000
0010
0100
0001
,
1000
0100
1000
0100
0010
0001
1000
0001
1000
0010
0100
0001
,
1000
0100
1000
0100
0010
0001
1000
0001
1000
0010
0100
0010
,
1000
0001
0100
0001
0010
0100
1000
0100
1000
0001
0100
0001
,
0100
0010
1000
0001
0010
0100
1000
0001
1000
0001
0100
0001
,
0100
0010
1000
0001
0010
0100
1000
0001
1000
0001
0100
0010
,
1000
0010
1000
0001
1000
0001
0100
0001
1000
0010
1000
0001
,
0010
0100
1000
0001
0010
0001
1000
0010
1000
0100
1000
0100
,
0010
0001
1000
0010
0100
0001
0100
0001
1000
0100
1000
0100
,
0010
0001
1000
0010
0100
0001
0100
0001
0010
0100
1000
0100
,
1000
0001
0100
0001
0100
0010
1000
0001
0010
0100
0010
0100
,
1000
0001
0100
0001
0100
0010
1000
0001
0010
0100
0010
0100
,
1000
0001
0010
0001
1000
0010
1000
0001
0010
0100
1000
0100
,
1000
0001
0010
0001
1000
0010
1000
0001
0010
0100
1000
0100
,
1000
0001
0010
0001
1000
0010
0100
0001
1000
0002
0000
0000
,
1003
0100
1000
0100
0010
0001
0010
0001
,
1000
0000
0001
0100
0001
0000
1000
0001
,
1000
0010
0100
0000
0101
0000
0001
1000
,
0001
0000
1000
0100
0010
0000
0001
0010
,
0001
1000
0001
0000
0011
0000
1000
0001
,
0100
0000
0001
1000
0010
0000
0100
0001
,
0100
0001
1000
0000
1001
0000
1000
0001
,
1000
0000
0100
1000
0001
0000
0010
0001
,
0010
0001
1000
0000
1100
0000
0001
1000
,
0010
0000
0100
0001
1000
0000
0010
1000
,
0001
1000
0010
0000
0110
0000
0010
1000
,
0001
0000
1000
0100
1000
0000
0001
0010
,
0100
0010
0001
0000
1001
0000
1000
0001
,
0100
0000
0010
1000
0001
0000
0100
0010
,
0100
0001
1000
0000
1010
0000
1000
0001
,
0010
0000
0100
0010
0001
0000
1000
0100
,
1000
0001
0010
0001
0100
0010
1000
0001
,
2000
0000
3001
0010
0001
0000
1000
0100
,
0010
0100
1000
0000
1001
0000
1000
0001
,
0100
0000
0010
1000
0001
0000
0100
0010
,
0100
0001
1000
0000
1010
0000
0001
1000
,
0200
0000
0310
0001
1000
0000
0001
0010
,
0001
1000
0001
0000
0011
0000
0001
1000
,
0010
0000
0100
0010
1000
0000
0001
1000
,
0010
0100
0010
0000
1010
0000
1000
0001
,
0020
0000
0130
0010
0001
0000
1000
0100
,
0010
0100
1000
0000
1001
0000
1000
0001
,
0100
0000
0010
0100
0001
0000
1000
0010
,
1000
0001
0100
0000
0110
0000
0010
1000
,
0002
0000
1003
0100
1000
0000
0001
0010
,
0001
1000
0001
0000
0011
0000
0001
1000
,
0010
0000
0100
0010
1000
0000
0001
1000
,
0100
0010
0100
0010
0001
0100
0010
1000
,
0001
0100
0001
0100
0010
1000
0001
1000
0001
0010
0100
1000
,
0001
0100
0001
0100
0010
1000
0001
1000
0001
0010
0100
1000
,
0001
0100
0001
0100
0010
1000
0001
1000
0001
0010
0100
0010
,
0001
1000
0100
1000
0010
0100
0001
0100
0001
1000
0100
1000
,
0100
0010
0001
1000
0010
0100
0001
1000
0001
1000
0100
1000
,
0100
0010
0001
1000
0010
0100
0001
1000
0001
1000
0100
0010
,
0001
0010
0001
1000
0001
1000
0100
1000
0001
0010
0001
1000
,
0010
0100
0001
1000
0010
1000
0001
0010
0001
0100
0001
0100
,
0010
1000
0001
0010
0100
1000
0100
1000
0001
0100
0001
0100
,
0010
1000
0001
0010
0100
1000
0100
1000
0010
0100
0001
0100
,
0001
1000
0100
1000
0100
0010
0001
1000
0010
0100
0010
0100
,
0001
1000
0100
1000
0100
0010
0001
1000
0010
0100
0010
0100
,
0001
1000
0010
1000
0001
0010
0001
1000
0010
0100
0001
0100
,
0001
1000
0010
1000
0001
0010
0001
1000
0010
0100
0001
0100
,
0001
1000
0010
1000
0001
0010
0001
1000
0100
1000
0001
0100
,
0010
1000
0100
1000
0001
0010
0001
0010
0100
1000
0010
1000
,
0001
0100
0001
0100
0010
1000
0001
1000
0001
0010
0100
1000
,
0001
0100
0001
0100
0010
1000
0001
1000
0001
0010
0100
1000
,
0001
0100
0001
0100
0010
1000
0001
1000
0001
0010
0100
0010
,
0001
1000
0100
1000
0010
0100
0001
0100
0001
1000
0100
1000
,
0100
0010
0001
1000
0010
0100
0001
1000
0001
1000
0100
1000
,
0100
0010
0001
1000
0010
0100
0001
1000
0001
1000
0100
0010
,
0001
0010
0001
1000
0001
1000
0100
1000
0001
0010
0001
1000
,
0010
0100
0001
1000
0010
1000
0001
0010
0001
0100
0001
0100
,
0010
1000
0001
0010
0100
1000
0100
1000
0001
0100
0001
0100
,
0010
1000
0001
0010
0100
1000
0100
1000
0010
0100
0001
0100
,
0001
1000
0100
1000
0100
0010
0001
1000
0010
0100
0010
0100
,
0001
1000
0100
1000
0100
0010
0001
1000
0010
0100
0010
0100
,
0001
1000
0010
1000
0001
0010
0001
1000
0010
0100
0001
0100
,
0001
1000
0010
1000
0001
0010
0001
1000
0010
0100
0001
0100
,
0001
1000
0010
1000
0001
1000
0100
0010
0100
1000
0001
0100
,
0001
0100
0010
1000
0001
0010
0100
0010
0001
1000
0010
1000
,
0001
1000
0100
1000
0001
0010
0001
1000
0001
1000
0010
1000
,
0001
1000
0100
1000
0001
0010
0001
1000
0001
1000
0010
1000
,
0001
0100
0001
1000
0010
1000
0100
0010
0100
1000
0001
0100
,
0001
0100
0010
1000
0001
0010
0100
0010
0001
1000
0010
1000
,
0001
1000
0100
1000
0001
0010
0001
1000
0001
0100
0010
0100
,
0001
1000
0010
1000
0001
1000
0001
0010
0001
1000
0100
1000
,
0001
1000
0001
0100
0001
1000
0010
1000
0001
0010
0100
1000
,
0001
0100
0001
1000
0010
1000
0001
0010
0001
0100
0001
0100
,
0010
1000
0001
0010
0100
1000
0100
1000
0001
0100
0001
0100
,
0010
1000
0001
0010
0100
1000
0100
1000
0010
0100
0001
0100
,
0001
1000
0100
1000
0100
0010
0001
1000
0010
0100
0010
0100
,
0001
1000
0100
1000
0100
0010
0001
1000
0010
0100
0010
0100
,
0001
1000
0010
1000
0001
0010
0001
1000
0010
0100
0001
0100
,
0001
1000
0010
1000
0001
0010
0001
1000
0010
0100
0001
0100
,
0001
1000
0010
1000
0001
1000
0001
0010
0001
1000
0100
1000
,
0001
0010
0100
0010
0001
0100
0010
0100
,
0001
1000
0100
0020
,
0130
0020
0130
1000
,
0001
0100
0010
2000
,
3010
2000
3010
0100
,
0001
1000
0100
0020
,
0130
0020
0130
1000
,
0001
0100
0010
2000
,
3010
2000
3010
0100
,
0001
0010
0100
2000
,
3100
2000
3100
0010
,
0001
1000
0010
0200
,
0310
0200
0310
1000
,
0100
0010
0001
2000
,
3001
2000
3001
0100
,
0010
1000
0001
0020
,
0130
0020
0130
1000
,
000M
0M00
00M0
M000
,
0M00
000M
00M0
M000
,
000M
0000
0000
0000
;

//---------------dance-single - Gazebo----------------
#NOTES:
     dance-single:
     Gazebo:
     Medium:
     10:
     0.860,0.761,0.216,0.121,0.000,1130.000,43.000,24.000,9.000,0.000:

0000
0000
0000
0000
,
0000
0000
0000
0000
,
0000
0000
0000
0000
,
0000
0000
0000
0000
,
0000
0000
0000
0000
,
0000
0000
0000
0000
,
0000
0000
0000
0000
,
0000
0000
0000
0000
,
0101
0100
1010
1000
,
1001
0001
0011
1000
,
1100
0100
0011
1000
,
1001
0001
0101
1000
,
1010
0010
0101
0001
,
1001
1000
1100
0001
,
1001
1000
1010
0001
,
0101
0000
0010
1000
0010
1000
0001
0000
,
1000
0000
0001
0010
0001
0000
1000
0001
,
1000
0100
0010
0000
0011
0000
1000
0100
,
1000
0000
0001
0100
0010
0000
1000
0010
,
1000
0001
1000
0000
1010
0000
0001
1000
,
0100
0000
1000
0001
0010
0000
0100
1000
,
0100
1000
0001
0000
1001
0000
0001
1000
,
0001
0000
0100
0001
1000
0000
0010
1000
,
0010
1000
0001
0000
0101
0000
1000
0001
,
0010
0000
0100
1000
0001
0000
0010
0001
,
1000
0001
0010
0000
0110
0000
0010
0001
,
1000
0000
0001
0100
0001
0000
1000
0010
,
0100
0010
1000
0000
1001
0000
0001
1000
,
0100
0000
0010
0001
1000
0000
0100
0010
,
0100
1000
0001
0000
0011
0000
0001
1000
,
0010
0000
0100
0010
1000
0000
0001
0100
,
0001
1000
0010
1000
0100
0010
0001
1000
,
0002
0000
1003
0010
1000
0000
0001
0100
,
0010
0100
0001
0000
1001
0000
0001
1000
,
0100
0000
0010
0001
1000
0000
0100
0010
,
0100
1000
0001
0000
0011
0000
1000
0001
,
0200
0000
0310
1000
0001
0000
1000
0010
,
1000
0001
1000
0000
1010
0000
1000
0001
,
0010
0000
0100
0010
0001
0000
1000
0001
,
0010
0100
0010
0000
0011
0000
0001
1000
,
0020
0000
0130
0010
1000
0000
0001
0100
,
0010
0100
0001
0000
1001
0000
0001
1000
,
0100
0000
0010
0100
1000
0000
0001
0010
,
0001
1000
0100
0000
0110
0000
0010
0001
,
2000
0000
3001
0100
0001
0000
1000
0010
,
1000
0001
1000
0000
1010
0000
1000
0001
,
0010
0000
0100
0010
0001
0000
1000
0001
,
0100
0010
0100
0010
1000
0100
0010
0001
,
1000
0010
1000
0001
1000
0100
0010
0001
,
1000
0010
1000
0001
1000
0100
0010
0001
,
1000
0010
1000
0001
1000
0100
0010
0100
,
1000
0001
0100
0010
0100
0001
1000
0100
,
0010
0001
1000
0010
0100
0001
1000
0100
,
0010
0001
0010
0100
1000
0001
0100
0010
,
0100
0010
0100
0001
1000
0010
1000
0001
,
0010
0100
0010
0100
1000
0001
0100
0001
,
1000
0010
1000
0100
0010
0001
0100
0001
,
1000
0010
1000
0100
0010
0001
0100
0010
,
0100
0001
0010
0100
0010
0001
1000
0010
,
1000
0010
0100
0001
0100
0001
1000
0001
,
1000
0100
0010
0100
1000
0001
0100
0001
,
1000
0001
0100
0001
1000
0001
0010
0100
,
1000
0010
0100
0010
1000
0001
0010
0001
,
0100
0001
1000
0010
0100
0001
0010
0001
,
1000
0100
1000
0001
1000
0010
0100
0001
,
1000
0100
1000
0001
1000
0010
0100
0001
,
1000
0100
1000
0001
1000
0010
0100
0010
,
1000
0001
0010
0100
0010
0001
1000
0010
,
0100
0001
1000
0100
0010
0001
1000
0010
,
0100
0001
0100
0010
1000
0001
0010
0100
,
0010
0100
0010
0001
1000
0100
1000
0001
,
0100
0010
0100
0010
1000
0001
0010
0001
,
1000
0100
1000
0010
0100
0001
0010
0001
,
1000
0100
1000
0010
0100
0001
0010
0100
,
0010
0001
0100
0010
0100
0001
1000
0100
,
1000
0100
0010
0001
0010
0001
1000
0001
,
1000
0010
0100
0010
1000
0001
0010
0001
,
1000
0001
0010
0001
1000
0001
0100
0010
,
1000
0100
1000
0001
0010
0001
0100
0010
,
1000
0100
1000
0100
0010
0001
0010
0001
,
1000
0000
0001
0100
0001
0000
1000
0001
,
1000
0010
0100
0000
0101
0000
0001
1000
,
0001
0000
1000
0100
0010
0000
0001
0010
,
0001
1000
0001
0000
0011
0000
1000
0001
,
0100
0000
0001
1000
0010
0000
0100
0001
,
0100
0001
1000
0000
1001
0000
1000
0001
,
1000
0000
0100
1000
0001
0000
0010
0001
,
0010
0001
1000
0000
1100
0000
0001
1000
,
0010
0000
0100
0001
1000
0000
0010
1000
,
0001
1000
0010
0000
0110
0000
0010
1000
,
0001
0000
1000
0100
1000
0000
0001
0010
,
0100
0010
0001
0000
1001
0000
1000
0001
,
0100
0000
0010
1000
0001
0000
0100
0010
,
0100
0001
1000
0000
1010
0000
1000
0001
,
0010
0000
0100
0010
0001
0000
1000
0100
,
1000
0001
0010
0001
0100
0010
1000
0001
,
2000
0000
3001
0010
0001
0000
1000
0100
,
0010
0100
1000
0000
1001
0000
1000
0001
,
0100
0000
0010
1000
0001
0000
0100
0010
,
0100
0001
1000
0000
1010
0000
0001
1000
,
0200
0000
0310
0001
1000
0000
0001
0010
,
0001
1000
0001
0000
0011
0000
0001
1000
,
0010
0000
0100
0010
1000
0000
0001
1000
,
0010
0100
0010
0000
1010
0000
1000
0001
,
0020
0000
0130
0010
0001
0000
1000
0100
,
0010
0100
1000
0000
1001
0000
1000
0001
,
0100
0000
0010
0100
0001
0000
1000
0010
,
1000
0001
0100
0000
0110
0000
0010
1000
,
0002
0000
1003
0100
1000
0000
0001
0010
,
0001
1000
0001
0000
0011
0000
0001
1000
,
0010
0000
0100
0010
1000
0000
0001
1000
,
0100
0010
0100
0010
0001
0100
0010
1000
,
0001
0010
0001
1000
0001
0100
0010
1000
,
0001
0010
0001
1000
0001
0100
0010
1000
,
0001
0010
0001
1000
0001
0100
0010
0100
,
0001
1000
0100
0010
0100
1000
0001
0100
,
0010
1000
0001
0010
0100
1000
0001
0100
,
0010
1000
0010
0100
0001
1000
0100
0010
,
0100
0010
0100
1000
0001
0010
0001
1000
,
0010
0100
0010
0100
0001
1000
0100
1000
,
0001
0010
0001
0100
0010
1000
0100
1000
,
0001
0010
0001
0100
0010
1000
0100
0010
,
0100
1000
0010
0100
0010
1000
0001
0010
,
0001
0010
0100
1000
0100
1000
0001
1000
,
0001
0100
0010
0100
0001
1000
0100
1000
,
0001
1000
0100
1000
0001
1000
0010
0100
,
0001
0010
0100
0010
0001
1000
0010
1000
,
0100
1000
0001
0010
0100
1000
0010
1000
,
0001
0100
0001
1000
0001
0010
0100
1000
,
0001
0100
0001
1000
0001
0010
0100
1000
,
0001
0100
0001
1000
0001
0010
0100
0010
,
0001
1000
0010
0100
0010
1000
0001
0010
,
0100
1000
0001
0100
0010
1000
0001
0010
,
0100
1000
0100
0010
0001
1000
0010
0100
,
0010
0100
0010
1000
0001
0100
0001
1000
,
0100
0010
0100
0010
0001
1000
0010
1000
,
0001
0100
0001
0010
0100
1000
0010
1000
,
0001
0100
0001
0010
0100
1000
0010
0100
,
0010
1000
0100
0010
0100
1000
0001
0100
,
0001
0100
0010
1000
0010
1000
0001
1000
,
0001
0010
0100
0010
0001
1000
0010
1000
,
0001
1000
0010
1000
0001
1000
0100
0010
,
0001
0100
0001
1000
0010
1000
0100
0010
,
0100
0010
0001
1000
0010
1000
0100
0010
,
0001
0010
0100
0010
0001
0010
0100
0010
,
0001
0010
0100
0010
0001
0010
0100
1000
,
0001
1000
0001
0100
0010
1000
0001
0010
,
0001
0010
0100
1000
0100
1000
0010
0100
,
0001
0100
0010
0100
0001
1000
0100
0010
,
0100
1000
0100
0010
0100
1000
0100
0010
,
0001
1000
0010
1000
0001
0100
0001
1000
,
0100
0010
0100
0010
0001
1000
0010
1000
,
0001
0100
0001
0010
0100
1000
0010
1000
,
0001
0100
0001
0010
0100
1000
0010
0100
,
0010
1000
0100
0010
0100
1000
0001
0100
,
0001
0100
0010
1000
0010
1000
0001
1000
,
0001
0010
0100
0010
0001
1000
0010
1000
,
0001
1000
0010
1000
0001
1000
0100
0010
,
0001
0100
0010
0100
0001
1000
0100
1000
,
0001
0010
0001
0100
0010
0100
0010
1000
,
0001
1000
0100
0020
,
0130
0020
0130
1000
,
0001
0100
0010
2000
,
3010
2000
3010
0100
,
0001
1000
0100
0020
,
0130
0020
0130
1000
,
0001
0100
0010
2000
,
3010
2000
3010
0100
,
0001
0010
0100
2000
,
3100
2000
3100
0010
,
0001
1000
0010
0200
,
0310
0200
0310
1000
,
0100
0010
0001
2000
,
3001
2000
3001
0100
,
0010
1000
0001
0020
,
0130
0020
0130
1000
,
000M
0M00
00M0
M000
,
0M00
000M
00M0
M000
,
000M
0000
0000
0000
;
