#TITLE:The War We Live in;
#SUBTITLE:;
#ARTIST:Kurt-Ingvarz;
#TITLETRANSLIT:;
#SUBTITLETRANSLIT:;
#ARTISTTRANSLIT:;
#CREDIT:;
#BANNER:The War We Live in Banner.jpg;
#BACKGROUND:The War We Live in BG.jpg;
#LYRICSPATH:;
#CDTITLE:!IzzyTitle.png;
#MUSIC:Kurt-Ingvarz - The War We Live in.mp3;
#OFFSET:0.000;
#SAMPLESTART:32.297;
#SAMPLELENGTH:12.000;
#SELECTABLE:YES;
#BPMS:0.000=186.000,128.000=93.000,144.000=186.000,240.000=93.000,256.000=186.000,384.000=93.000,384.500=186.000;
#STOPS:;
#BGCHANGES:;
// cache tags:
#FIRSTBEAT:0.000;
#LASTBEAT:384.500;
#SONGFILENAME:Songs/Bemani.se Megapack/(Izzy) The War We Live in/The War We Live in.sm;
#HASMUSIC:1;
#HASBANNER:1;
#MUSICLENGTH:137.150;
// end cache tags

//---------------dance-single - KURT-Ingvarz----------------
#NOTES:
     dance-single:
     KURT-Ingvarz:
     Hard:
     10:
     1.000,1.000,1.000,0.386,0.029,537.000,420.000,53.000,0.000,0.000:
1001
1000
1100
1000
1010
1000
1001
1000
,
1001
1000
1001
1000
1010
1000
1100
1000
,
1001
0001
0011
0001
0011
0001
1001
0001
,
1001
0001
1001
0001
0101
0001
0011
0001
,
0110
0010
1010
0010
0011
0010
0011
0010
,
1010
0010
0110
0010
0110
0010
1010
0010
,
0110
0100
0101
0100
1100
0100
1100
0100
,
0101
0100
0110
0100
0110
0100
0101
0100
,
1001
1001
1001
0000
1010
1100
1010
1100
,
1001
1001
1001
0000
0101
0011
0101
0011
,
0220
0000
0000
0000
0000
0330
2002
0000
0000
3003
1001
0000
1000
0000
1100
0000
,
1010
0000
0110
1001
0000
0000
0000
0000
,
1001
1001
1001
0000
0101
0011
0101
0011
,
1001
1001
1001
0000
1010
1100
1010
1100
,
0220
0000
0000
0000
0000
0330
2002
0000
0000
3003
1001
0000
0001
0000
0011
0000
,
0101
0000
0110
1001
0000
0000
0000
0000
,
1001
0000
1100
1100
0011
0000
1010
0000
,
0101
0000
0011
0011
0110
0000
1010
0000
,
0101
0000
0011
0011
1100
0000
1100
0000
,
0110
0000
1010
1010
0101
0000
0011
0000
,
1001
0000
0110
0110
0110
0000
1010
0000
,
1100
0000
1010
1010
0101
0000
0011
0000
,
1010
0000
1100
1100
0011
0000
0110
0000
,
0110
0000
0011
0011
0101
0000
0101
0000
,
1010
0000
0110
0110
1001
0000
0110
0000
,
1001
0000
1001
1001
1001
0000
1100
0000
,
1100
0000
0011
0011
0011
0000
0110
0000
,
0101
0000
0011
0011
1100
0000
1100
0000
,
1010
0000
1010
1010
0101
0000
0011
0000
,
0110
0000
1001
1001
1100
0000
0011
0000
,
1001
0000
0110
0110
0110
0000
1001
0000
,
1001
0000
1001
1001
1001
0000
0110
0000
,
2002
3003
0000
0100
0110
0000
0000
1000
,
1001
0000
0000
0000
0000
0000
0010
0000
0011
0011
0000
0101
0000
0000
1010
0000
,
1001
0000
0000
0010
0110
0000
0000
0001
,
1001
0000
0000
0000
0000
0000
1000
0000
1100
1100
0000
1010
0000
0000
0101
0000
,
1001
1001
1001
0000
1010
1100
1010
1100
,
1001
1001
1001
0000
0101
0011
0101
0011
,
0220
0000
0000
0000
0000
0330
2002
0000
0000
3003
1001
0000
1000
0000
1100
0000
,
1010
0000
0110
1001
0000
0000
0000
0000
,
1001
1001
1001
0000
0101
0011
0101
0011
,
1001
1001
1001
0000
1010
1100
1010
1100
,
0220
0000
0000
0000
0000
0330
2002
0000
0000
3003
1001
0000
0001
0000
0011
0000
,
0101
0000
0110
1001
0000
0000
0000
0000
,
1001
0000
1100
1100
0011
0000
1010
0000
,
0101
0000
0011
0011
0110
0000
1010
0000
,
0101
0000
0011
0011
1100
0000
1100
0000
,
0110
0000
1010
1010
0101
0000
0011
0000
,
1001
0000
0110
0110
0110
0000
1010
0000
,
1100
0000
1010
1010
0101
0000
0011
0000
,
1010
0000
1100
1100
0011
0000
0110
0000
,
0110
0000
0011
0011
0101
0000
0101
0000
,
1010
0000
0110
0110
1001
0000
0110
0000
,
1001
0000
1001
1001
1001
0000
1100
0000
,
1100
0000
0011
0011
0011
0000
0110
0000
,
0101
0000
0011
0011
1100
0000
1100
0000
,
1010
0000
1010
1010
0101
0000
0011
0000
,
0110
0000
1001
1001
1100
0000
0011
0000
,
1001
0000
0110
0110
0110
0000
1001
0000
,
1001
0000
1001
1001
1001
0000
0110
0000
,
2002
3003
0000
1000
0101
0000
0000
0001
,
1010
0000
0000
0000
0000
0000
0010
0000
1001
0101
0000
0011
0000
0000
1100
0000
,
0011
0000
0000
0001
1010
0000
0000
1000
,
0101
0000
0000
0000
0000
0000
0100
0000
1001
1010
0000
1100
0000
0000
0011
0000
,
1001
1001
1001
0000
1010
1100
1010
1100
,
1001
1001
1001
0000
0101
0011
0101
0011
,
0220
0000
0000
0000
0000
0330
2002
0000
0000
3003
1001
0000
1000
0000
1100
0000
,
1010
0000
0110
1001
0000
0000
0000
0000
,
1001
1001
1001
0000
0101
0011
0101
0011
,
1001
1001
1001
0000
1010
1100
1010
1100
,
0220
0000
0000
0000
0000
0330
2002
0000
0000
3003
1001
0000
1000
0000
1100
0000
,
1010
0000
0110
1001
0000
0000
0000
0000
,
2000
0000
0000
0000
0000
0000
0000
0000
0000
0000
0000
3000
0200
0000
0000
0300
,
0020
0000
0000
0000
0000
0000
0000
0000
0000
0000
0000
0030
0200
0000
0000
0300
,
2000
0000
0000
0000
0000
0000
0000
0000
0000
0000
0000
3000
2000
0000
0000
3000
,
0002
0003
0002
0000
0000
0003
0020
0000
0000
0000
0000
0030
0200
0000
0000
0300
,
2001
0000
0000
0000
0000
0000
0000
0000
0001
0000
0000
3000
0020
0000
0000
0030
,
1200
0000
0000
0000
0000
0000
0000
0000
0010
0000
0000
0300
0020
0000
0000
0030
,
1002
0000
0000
0000
0000
0000
0000
0000
0100
0000
0000
0003
0002
0000
0000
0003
,
2010
3000
2000
0000
0000
3000
0200
0000
0001
0000
0000
0300
0020
0000
0000
0030
,
1001
1000
1100
1000
1010
1000
1001
1000
,
1001
1000
1001
1000
1010
1000
1100
1000
,
1001
0001
0011
0001
0011
0001
1001
0001
,
1001
0001
1001
0001
0101
0001
0011
0001
,
0110
0010
1010
0010
0011
0010
0011
0010
,
1010
0010
0110
0010
0110
0010
1010
0010
,
0110
0100
0101
0100
1100
0100
1100
0100
,
0101
0100
0110
0100
0110
0100
0101
0100
,
1001
1001
1001
1001
1001
1001
1001
1001
,
0101
0101
0101
0101
0101
0101
0101
0101
,
1010
1010
1010
1010
1010
1010
1010
1010
,
0110
0110
0110
0110
0110
0110
0110
0110
,
1001
0000
1000
0001
0000
1000
0001
1000
,
0001
0000
0100
0010
0000
0100
0010
0100
,
0010
0000
0110
1001
0000
1100
0011
0000
,
0002
0000
0000
0000
0000
0003
2000
0000
0000
0000
0000
3000
0020
0000
0000
0030
,
0220
0330
0000
0000
0000
0000
0000
0000
;

//---------------dance-single - KURT-Ingvarz----------------
#NOTES:
     dance-single:
     KURT-Ingvarz:
     Medium:
     7:
     0.604,0.631,0.489,0.335,0.029,467.000,67.000,46.000,0.000,0.000:
1001
1000
0100
0010
,
1001
0001
0010
0100
,
1001
0010
0010
0010
,
1001
0100
0100
0100
,
0110
1000
0001
1000
,
1010
0001
1000
0001
,
0110
0100
0100
0010
,
0101
0010
0010
0100
,
1000
0001
1000
0000
1000
1000
1000
1000
,
0001
1000
0001
0000
0001
0001
0001
0001
,
2000
0000
0000
0000
0000
3000
2002
0000
0000
3003
0010
0000
0010
0000
0010
0000
,
0100
0000
0100
1001
0000
0000
0000
0000
,
0001
1000
0001
0000
0001
0001
0001
0001
,
1000
0001
1000
0000
1000
1000
1000
1000
,
0002
0000
0000
0000
0000
0003
2002
0000
0000
3003
0100
0000
0100
0000
0100
0000
,
0010
0000
0010
1001
0000
0000
0000
0000
,
1001
0000
1000
1000
0011
0000
1000
0000
,
0001
0000
0001
0001
0110
0000
0010
0000
,
0100
0000
0010
0010
1100
0000
0100
0000
,
0100
0000
1000
1000
0101
0000
0010
0000
,
0010
0000
0100
0100
0110
0000
1000
0000
,
0001
0000
0010
0010
0101
0000
0001
0000
,
1000
0000
0100
0100
0110
0000
0100
0000
,
0010
0000
0010
0010
0101
0000
0010
0000
,
0100
0000
0010
0010
1001
0000
0100
0000
,
0001
0000
1000
1000
1001
0000
0010
0000
,
1000
0000
0010
0010
0011
0000
0100
0000
,
0100
0000
0001
0001
1100
0000
0010
0000
,
0010
0000
0010
0010
0101
0000
0001
0000
,
0001
0000
1000
1000
1100
0000
1000
0000
,
1000
0000
0010
0010
0110
0000
0010
0000
,
1000
0000
0001
0001
1001
0000
0000
0000
,
2002
3003
0000
0100
0010
0000
0000
1000
,
0001
0000
0000
0000
0000
0000
0010
0000
0001
0001
0000
0100
0000
0000
0100
0000
,
1001
0000
0000
0010
0100
0000
0000
0001
,
1000
0000
0000
0000
0000
0000
0100
0000
1000
1000
0000
0010
0000
0000
0010
0000
,
1000
0001
1000
0000
1000
1000
1000
1000
,
0001
1000
0001
0000
0001
0001
0001
0001
,
2000
0000
0000
0000
0000
3000
2002
0000
0000
3003
0010
0000
0010
0000
0010
0000
,
0100
0000
0100
1001
0000
0000
0000
0000
,
0001
1000
0001
0000
0001
0001
0001
0001
,
1000
0001
1000
0000
1000
1000
1000
1000
,
0002
0000
0000
0000
0000
0003
2002
0000
0000
3003
0100
0000
0100
0000
0100
0000
,
0010
0000
0010
1001
0000
0000
0000
0000
,
1001
0000
1000
1000
0011
0000
1000
0000
,
0001
0000
0001
0001
0110
0000
0010
0000
,
0100
0000
0010
0010
1100
0000
0100
0000
,
0100
0000
1000
1000
0101
0000
0010
0000
,
0010
0000
0100
0100
0110
0000
1000
0000
,
0001
0000
0010
0010
0101
0000
0001
0000
,
1000
0000
0100
0100
0110
0000
0100
0000
,
0010
0000
0010
0010
0101
0000
0010
0000
,
0100
0000
0010
0010
1001
0000
0100
0000
,
0001
0000
1000
1000
1001
0000
0010
0000
,
1000
0000
0010
0010
0011
0000
0100
0000
,
0100
0000
0001
0001
1100
0000
0010
0000
,
0010
0000
0010
0010
0101
0000
0001
0000
,
0001
0000
1000
1000
1100
0000
1000
0000
,
1000
0000
0010
0010
0110
0000
0010
0000
,
1000
0000
0001
0001
1001
0000
0000
0000
,
2002
3003
0000
1000
0010
0000
0000
0100
,
0001
0000
0000
0000
0000
0000
0100
0000
1000
0010
0000
0001
0000
0000
1000
0000
,
1001
0000
0000
0001
0100
0000
0000
0010
,
1000
0000
0000
0000
0000
0000
0010
0000
0001
0100
0000
1000
0000
0000
0001
0000
,
1000
0001
1000
0000
1000
1000
1000
1000
,
0001
1000
0001
0000
0001
0001
0001
0001
,
2000
0000
0000
0000
0000
3000
2002
0000
0000
3003
0010
0000
0010
0000
0010
0000
,
0100
0000
0100
1001
0000
0000
0000
0000
,
0001
1000
0001
0000
0001
0001
0001
0001
,
1000
0001
1000
0000
1000
1000
1000
1000
,
0002
0000
0000
0000
0000
0003
2002
0000
0000
3003
0100
0000
0100
0000
0100
0000
,
0010
0000
0010
1001
0000
0000
0000
0000
,
2000
0000
0000
0000
0000
0000
0000
0000
0000
0000
0000
3000
0200
0000
0000
0300
,
0020
0000
0000
0000
0000
0000
0000
0000
0000
0000
0000
0030
0200
0000
0000
0300
,
2000
0000
0000
0000
0000
0000
0000
0000
0000
0000
0000
3000
2000
0000
0000
3000
,
0002
0003
0002
0000
0000
0003
0020
0000
0000
0000
0000
0030
0200
0000
0000
0300
,
2000
0000
0000
0000
0000
0000
0000
0000
0000
0000
0000
3000
0020
0000
0000
0030
,
0200
0000
0000
0000
0000
0000
0000
0000
0000
0000
0000
0300
0020
0000
0000
0030
,
0002
0000
0000
0000
0000
0000
0000
0000
0000
0000
0000
0003
0002
0000
0000
0003
,
2000
3000
2000
0000
0000
3000
0200
0000
0000
0000
0000
0300
0020
0000
0000
0030
,
1001
1000
0100
0010
,
1001
0001
0010
0100
,
1001
0010
0010
0010
,
1001
0100
0100
0100
,
0110
1000
0001
1000
,
1010
0001
1000
0001
,
0110
0100
0100
0010
,
0101
0010
0010
0100
,
1000
1000
1000
1000
1000
1000
1000
1000
,
0001
0001
0001
0001
0001
0001
0001
0001
,
0010
0010
0010
0010
0010
0010
0010
0010
,
0100
0100
0100
0100
0100
0100
0100
0100
,
1001
0000
1000
0001
0000
1000
0001
1000
,
0001
0000
0100
0010
0000
0100
0010
0100
,
0010
0000
0010
0001
0000
1000
0100
0000
,
0002
0000
0000
0000
0000
0003
2000
0000
0000
0000
0000
3000
0020
0000
0000
0030
,
0200
0300
0000
0000
0000
0000
0000
0000
;

//---------------dance-single - KURT-Ingvarz----------------
#NOTES:
     dance-single:
     KURT-Ingvarz:
     Easy:
     5:
     0.420,0.421,0.270,0.066,0.015,357.000,37.000,9.000,0.000,0.000:
1000
1000
0100
0010
,
0001
0001
0010
0100
,
0001
0010
0010
0010
,
1000
0100
0100
0100
,
0010
1000
0001
1000
,
0100
0001
1000
0001
,
0100
0100
0100
0010
,
0010
0010
0010
0100
,
1000
1000
1000
1000
,
0001
0001
0001
0001
,
1000
0000
0000
0000
0000
0000
0200
0000
0000
0300
0000
0000
0010
0000
0000
0000
,
0100
0000
0100
0100
0000
0000
0000
0000
,
0001
0001
0001
0001
,
1000
1000
1000
1000
,
0001
0000
0000
0000
0000
0000
0020
0000
0000
0030
0000
0000
0100
0000
0000
0000
,
0010
0000
0010
0010
0000
0000
0000
0000
,
1001
1000
0011
1000
,
0001
0001
0110
0010
,
0100
0010
1100
0100
,
0100
1000
0101
0010
,
0010
0100
0110
1000
,
0001
0010
0101
0001
,
1000
0100
0110
0100
,
0010
0010
0101
0010
,
0100
0010
1001
0100
,
0001
1000
1001
0010
,
1000
0010
0011
0100
,
0100
0001
1100
0010
,
0010
0010
0101
0001
,
0001
1000
1100
1000
,
1000
0010
0110
0010
,
1000
0001
1001
0000
,
0200
0300
0000
0100
0010
0000
0000
1000
,
0001
0000
0000
0000
0000
0000
0010
0000
0001
0000
0000
0100
0000
0000
0100
0000
,
1001
0000
0000
0010
0100
0000
0000
0001
,
1000
0000
0000
0000
0000
0000
0100
0000
1000
0000
0000
0010
0000
0000
0010
0000
,
1000
1000
1000
1000
,
0001
0001
0001
0001
,
1000
0000
0000
0000
0000
0000
0200
0000
0000
0300
0000
0000
0010
0000
0000
0000
,
0100
0000
0100
0100
0000
0000
0000
0000
,
0001
0001
0001
0001
,
1000
1000
1000
1000
,
0001
0000
0000
0000
0000
0000
0020
0000
0000
0030
0000
0000
0100
0000
0000
0000
,
0010
0000
0010
0010
0000
0000
0000
0000
,
1001
1000
0011
1000
,
0001
0001
0110
0010
,
0100
0010
1100
0100
,
0100
1000
0101
0010
,
0010
0100
0110
1000
,
0001
0010
0101
0001
,
1000
0100
0110
0100
,
0010
0010
0101
0010
,
0100
0010
1001
0100
,
0001
1000
1001
0010
,
1000
0010
0011
0100
,
0100
0001
1100
0010
,
0010
0010
0101
0001
,
0001
1000
1100
1000
,
1000
0010
0110
0010
,
1000
0001
1001
0000
,
0200
0300
0000
0100
0010
0000
0000
1000
,
0001
0000
0000
0000
0000
0000
0010
0000
0001
0000
0000
0100
0000
0000
0100
0000
,
1001
0000
0000
0010
0100
0000
0000
0001
,
1000
0000
0000
0000
0000
0000
0100
0000
1000
0000
0000
0010
0000
0000
0010
0000
,
1000
1000
1000
1000
,
0001
0001
0001
0001
,
1000
0000
0000
0000
0000
0000
0200
0000
0000
0300
0000
0000
0010
0000
0000
0000
,
0100
0000
0100
0100
0000
0000
0000
0000
,
0001
0001
0001
0001
,
1000
1000
1000
1000
,
0001
0000
0000
0000
0000
0000
0020
0000
0000
0030
0000
0000
0100
0000
0000
0000
,
0010
0000
0010
0010
0000
0000
0000
0000
,
1000
0000
0000
0100
,
0010
0000
0000
0100
,
1000
0000
0000
1000
,
0001
0000
0000
0010
0000
0000
0100
0000
,
1000
0000
0000
0010
,
0100
0000
0000
0010
,
0001
0000
0000
0001
,
1000
0000
0000
0100
0000
0000
0010
0000
,
1000
1000
0100
0010
,
0001
0001
0010
0100
,
0001
0010
0010
0010
,
1000
0100
0100
0100
,
0010
1000
0001
1000
,
0100
0001
1000
0001
,
0100
0100
0100
0010
,
0010
0010
0010
0100
,
1000
1000
1000
1000
,
0001
0001
0001
0001
,
0010
0010
0010
0010
,
0100
0100
0100
0100
,
1001
0000
0000
1000
0000
0000
0001
0000
,
0001
0000
0000
0100
0000
0000
0010
0000
,
0010
0000
0000
0010
0000
0000
0100
0000
,
0001
0000
0000
1000
0000
0000
0010
0000
,
0200
0300
0000
0000
0000
0000
0000
0000
;
