#TITLE:Nasty Time;
#SUBTITLE:;
#ARTIST:Robbie Long &  Stormtrooper;
#TITLETRANSLIT:;
#SUBTITLETRANSLIT:;
#ARTISTTRANSLIT:;
#CREDIT:;
#BANNER:nasty time.banner.jpg;
#BACKGROUND:nasty.bg.jpg;
#LYRICSPATH:;
#CDTITLE:CDTITLE.jpg;
#MUSIC:Nasty Time - Robbie Long & Stormtrooper.mp3;
#OFFSET:-0.060;
#SAMPLESTART:100.000;
#SAMPLELENGTH:12.000;
#SELECTABLE:YES;
#BPMS:0.000=177.201;
#STOPS:;
#BGCHANGES:;
// cache tags:
#FIRSTBEAT:32.000;
#LASTBEAT:431.375;
#SONGFILENAME:Songs/Definitive Keyboard Megapack/Nasty Time - Robbie Long & Stormtrooper(Leone510)/Nasty Time - Robbie Long & Stormtrooper.sm;
#HASMUSIC:1;
#HASBANNER:1;
#MUSICLENGTH:146.259;
// end cache tags

//---------------dance-single - ----------------
#NOTES:
     dance-single:
     :
     Hard:
     11:
     0.990,1.000,1.000,0.485,0.885,774.000,169.000,71.000,0.000,1.000:
0000
0000
0000
0000
,
0000
0000
0000
0000
,
0000
0000
0000
0000
,
0000
0000
0000
0000
,
0000
0000
0000
0000
,
0000
0000
0000
0000
,
0000
0000
0000
0000
,
0000
0000
0000
0000
,
1000
0000
0010
0000
0001
0010
0100
0000
0100
0000
0000
1000
0000
0000
0101
0000
,
0001
0000
1000
0000
0000
0001
0000
0000
1000
0000
0010
0000
0001
0000
0000
0000
1000
0000
0000
0000
0000
0000
0001
0000
0000
0000
0000
0100
0000
0000
0010
0000
,
0100
0000
0000
0000
1100
0000
0000
0000
0001
0000
0100
0000
1000
0000
0000
0000
0010
0000
0000
0000
0000
0000
1000
0000
0000
0000
0001
0000
0000
0000
0000
0010
,
0000
1000
0000
0000
0010
0000
0000
0000
0100
0000
0000
0000
1000
0000
0000
0000
0010
0000
0000
0000
0100
0000
0000
0000
0010
0000
0000
0000
0001
0000
0000
0000
,
0100
0000
0000
0000
0001
0000
0000
0000
0100
0000
0001
0000
0010
0000
0000
0000
0000
1000
0000
0000
0000
0000
0010
0000
0000
0000
0000
0100
0000
0000
0100
0000
,
1000
0000
0000
0000
0001
0000
0000
0000
0010
0000
0001
0000
2000
3000
0000
0000
0002
0003
0000
0000
0000
0000
1000
0000
0000
0000
0000
0010
0000
0000
0001
0000
,
0100
0000
0000
0000
1010
0000
0000
0000
1000
0000
0002
0003
1000
0000
0000
0000
0110
0000
0000
0000
0000
0001
0000
0000
0000
0000
1000
0000
0000
0000
0010
0000
,
0100
0000
0000
0000
2000
3000
0000
0000
0002
0003
0000
0000
2000
3000
0000
0000
0002
0003
0000
0000
0000
0000
0000
0000
2000
0000
0000
0000
0000
0000
0000
0000
,
3010
0101
1010
1100
0011
1100
0101
1001
,
0110
1010
0101
1100
0101
1001
0110
0101
,
1010
1100
0011
1100
0101
1001
0110
1010
,
0101
1100
0101
1001
0110
1001
0110
0101
,
1000
0100
0010
0001
0010
0100
1000
0010
1000
0010
1000
0100
1000
0001
0100
0010
,
0100
0001
0100
0001
1000
0010
1000
0010
0100
0001
1000
0010
0100
1000
0010
1000
,
0010
0100
0001
0100
0001
0100
0010
1000
0010
0100
0010
1000
0010
0001
0100
0001
0100
0010
0001
0100
0010
1000
0010
0100
,
0011
0000
0000
0000
,
1000
0101
1000
0011
1000
0101
0100
0011
,
1000
0110
0100
0101
1000
1010
0100
0011
,
1000
1010
0001
1100
1000
0110
1000
0011
,
0100
1010
0101
1100
1001
1010
0011
1100
,
1000
0101
1000
0011
1000
0101
0100
0011
,
1000
0110
0100
0101
1000
1010
0100
0011
,
1000
1010
0001
1100
1000
0110
1000
0011
,
0100
1010
0101
1100
1001
1010
0011
1100
,
1000
0101
1000
0011
1000
0101
0100
0011
,
1000
0110
0100
0101
1000
1010
0100
0011
,
1000
1010
0001
1100
1000
0110
1000
0011
,
0100
1010
0101
1100
1001
1010
0011
1100
,
1000
0101
1000
0011
1000
0101
0100
0011
,
1000
0110
0100
0101
1000
1010
0100
0011
,
1000
0010
0001
0010
1000
0001
1000
0010
1000
0100
0010
0100
1000
0001
0010
0100
,
1000
0002
2003
3020
2030
3002
0203
0300
,
0010
0100
1000
0010
1000
0100
0010
1000
0010
1000
0010
1000
0001
0010
0100
0010
,
0100
0010
0100
1000
0001
0100
0010
0001
0100
0001
0100
0001
1000
0001
1000
0001
,
0010
0100
1000
0001
1000
0001
1000
0100
0010
0001
1000
0001
0100
0001
0100
0001
,
0100
0010
0001
1000
0001
0100
0001
0100
0001
1000
0001
1000
0010
0100
0010
0100
,
0010
0100
1000
0010
1000
0100
0010
1000
0010
1000
0010
1000
0001
0010
0100
0010
,
0100
0010
0100
1000
0001
0100
0010
0001
0100
0001
0100
0001
1000
0001
1000
0001
,
0010
0100
1000
0001
1000
0001
1000
0100
0010
0001
1000
0001
0100
0001
0100
0001
,
0100
0000
0101
0000
1001
0000
1100
0000
0011
0000
1001
0000
2020
0000
0000
3030
,
0010
0100
1000
0010
1000
0100
0010
1000
0010
1000
0010
1000
0001
0010
0100
0010
,
0100
0010
0100
1000
0001
0100
0010
0001
0100
0001
0100
0001
1000
0001
1000
0001
,
0010
0100
1000
0001
1000
0001
1000
0100
0010
0001
1000
0001
0100
0001
0100
0001
,
0100
0010
0001
1000
0001
0100
0001
0100
0001
1000
0001
1000
0010
0100
0010
0100
,
0010
0100
1000
0010
1000
0100
0010
1000
0010
1000
0010
1000
0001
0010
0100
0010
,
0100
0010
0100
1000
0001
0100
0010
0001
0100
0001
0100
0001
1000
0001
1000
0001
,
0010
0100
1000
0001
1000
0001
1000
0100
0010
0001
1000
0001
0100
0001
0100
0001
,
0200
0000
0000
0000
0000
0000
0000
0000
0000
0000
0000
0000
0000
0000
0000
0300
,
0100
0001
1000
0001
0100
0001
1000
0100
,
0001
1100
0010
1100
0001
0101
0001
1100
,
0001
1000
0010
0001
0010
1000
0010
0100
,
0001
1010
0100
1001
0010
0101
0010
1100
,
0001
1000
0010
0100
1000
0100
0001
0010
,
0100
0101
0010
1100
0001
1010
0001
1100
,
0010
0100
1000
0010
0001
0100
0001
0100
,
0010
0101
0010
0101
1000
0110
0001
1100
,
0200
0000
2300
3002
0203
0302
2003
3200
,
0301
1100
0010
1100
0001
0101
0001
1100
,
0002
0000
0023
0032
0023
2030
3020
0230
,
0301
1010
0100
1001
0010
0101
0010
1100
,
0002
0000
0023
0230
2300
3200
0302
0023
,
0130
0101
0010
1100
0001
1010
0001
1100
,
0010
0001
0100
0001
1000
0100
0010
1000
0001
0010
0100
0010
0001
1000
0100
0001
,
1010
0000
0000
0000
,
2020
0000
0000
0000
0000
0000
0000
0000
0000
0000
0000
0000
0000
0000
0000
0000
0000
0000
0000
0000
0000
0000
0000
0000
0000
0000
0000
0000
0000
0000
0000
3030
,
0202
0000
0000
0000
0000
0000
0000
0000
0000
0000
0000
0000
0000
0000
0000
0000
0000
0000
0000
0000
0000
0000
0000
0000
0000
0000
0000
0000
0000
0000
0000
0303
,
2002
0000
0000
0000
,
0000
0000
0000
0000
0000
0000
0000
0000
0000
0000
0000
0000
0000
0000
0000
0000
0000
0000
0000
0000
0000
0000
0000
0000
0000
0000
0000
0000
0000
0000
0000
3003
,
0220
0000
0000
0000
0000
0000
0000
0000
0000
0000
0000
0000
0000
0000
0000
0000
0000
0000
0000
0000
0000
0000
0000
0000
0000
0000
0000
0000
0000
0000
0000
0330
,
2200
0000
0000
0000
0000
0000
0000
0000
0000
0000
0000
0000
0000
0000
0000
0000
0000
0000
0000
0000
0000
0000
0000
0000
0000
0000
0000
0000
0000
0000
0000
3300
,
0022
0000
0000
0000
,
0000
0000
0000
0000
0000
0000
0000
0000
0000
0000
0000
0000
0000
0000
0000
0000
0000
0000
0000
0000
0000
0000
0000
0033
2000
0000
0000
0000
3002
0000
0000
0000
,
2023
0000
0000
0000
0000
0000
0000
0000
0000
0000
0000
0000
0000
0000
0000
0000
0000
0000
0000
0000
0000
0000
0000
0000
0000
0000
0000
0000
0000
0000
0000
3030
,
0202
0000
0000
0000
0000
0000
0000
0000
0000
0000
0000
0000
0000
0000
0000
0000
0000
0000
0000
0000
0000
0000
0000
0000
0000
0000
0000
0000
0000
0000
0000
0303
,
2002
0000
0000
0000
,
0000
0000
0000
0000
0000
0000
0000
0000
0000
0000
0000
0000
0000
0000
0000
0000
0000
0000
0000
0000
0000
0000
0000
0000
0000
0000
0000
0000
0000
0000
0000
3003
,
0220
0000
0000
0000
0000
0000
0000
0000
0000
0000
0000
0000
0000
0000
0000
0000
0000
0000
0000
0000
0000
0000
0000
0000
0000
0000
0000
0000
0000
0000
0000
0330
,
0202
0000
0000
0000
0000
0000
0000
0000
0000
0000
0000
0000
0000
0000
0000
0000
0000
0000
0000
0000
0000
0000
0000
0000
0000
0000
0000
0000
0000
0000
0000
0303
,
1010
0100
0001
0100
0001
0010
0001
1000
0100
0010
0100
0001
0100
0010
0001
1000
,
0010
0100
1000
0001
1000
0010
0100
1000
0100
0010
0001
0100
0001
0100
0010
1000
,
0202
0000
0000
0000
,
0000
0000
0000
0000
,
0000
0000
0000
0000
,
0000
0000
0000
0000
,
0303
0000
0000
0000
,
0000
0000
0000
0000
,
0000
0000
0000
0000
,
0000
0000
0000
0000
,
0000
0000
0000
0000
,
0000
0000
0000
0000
,
0000
0000
0000
0000
,
0000
0000
0000
0000
,
0000
1200
0000
0301
0000
1100
0000
0001
0010
0100
1000
0010
0000
0101
0000
1000
,
0000
0102
0000
1003
0000
0110
0000
1000
0100
0010
0001
1000
0000
0011
0000
1000
,
0000
0120
0000
1030
0000
1010
0000
0100
0010
0001
0100
0001
0000
1000
0000
0110
,
0000
0001
0010
0100
0010
0100
0010
0001
0010
0100
0010
0100
0010
0001
0000
0010
,
0000
1200
0000
0301
0000
1100
0000
0001
0010
0100
1000
0010
0000
0101
0000
1000
,
0000
0102
0000
1003
0000
0110
0000
1000
0100
0010
0001
1000
0000
0011
0000
1000
,
0000
0000
0120
0000
0000
0000
1030
0000
0000
0000
1010
0000
0000
0000
0100
0000
0010
0000
0001
0000
0100
0000
0001
0000
0000
0000
0000
1100
0000
0000
0000
0000
,
0000
0000
0110
0000
0000
0000
0000
0000
0000
0000
0000
0000
0000
0000
0000
0000
1000
0000
0000
0000
0011
0000
0000
0000
0100
0000
0020
0030
0000
0000
0000
0000
;

//---------------dance-single - Copied from----------------
#NOTES:
     dance-single:
     Copied from:
     Medium:
     8:
     0.534,0.811,0.157,0.294,0.195,481.000,23.000,43.000,0.000,1.000:
0000
0000
0000
0000
,
0000
0000
0000
0000
,
0000
0000
0000
0000
,
0000
0000
0000
0000
,
0000
0000
0000
0000
,
0000
0000
0000
0000
,
0000
0000
0000
0000
,
0000
0000
0000
0000
,
1000
0010
0001
0000
0100
0010
1000
0000
,
0001
1000
0001
0000
1000
0010
1000
0000
,
0100
1000
0001
0000
0010
1000
0010
0000
,
0010
0001
0100
0000
0010
0100
0010
0000
,
0100
0001
0100
0000
1000
0001
1000
0000
,
1000
0001
0010
0000
0001
1000
0001
0000
,
0100
0010
1000
0000
0010
0100
0001
0000
,
0100
1000
0001
0000
1010
0000
0100
0000
,
0010
0001
1000
0100
0001
1000
0001
1000
,
0010
1000
0100
1000
0001
1000
0010
0100
,
0010
1000
0001
1000
0100
0001
0100
0010
,
0100
1000
0100
0001
0010
1000
0010
0100
,
1000
0010
0010
0001
1000
0010
1000
0100
,
0100
1000
0100
1000
0100
1000
0001
0010
,
0010
0100
0010
0100
0010
0001
0001
1000
,
0001
0000
0000
0000
,
1000
0001
1000
0000
1000
0100
0010
0000
,
0100
0001
0100
0000
1000
0010
0100
0000
,
1000
0010
0001
0000
1000
0100
1000
0000
,
0100
0010
0001
0000
0001
1000
0001
0000
,
1000
0001
1000
0000
1000
0100
1000
0000
,
1000
0010
0100
0000
1000
0010
0100
0000
,
1000
0010
0001
0000
1000
0010
1000
0000
,
0100
1000
0100
0000
1000
0010
0010
0000
,
1000
0001
1000
0000
1000
0100
0010
0000
,
0100
0001
0100
0000
1000
0010
0100
0000
,
1000
0010
0001
0000
1000
0100
1000
0000
,
0100
0010
0001
0000
0001
1000
0001
0000
,
1000
0001
1000
0000
1000
0100
1000
0000
,
1000
0010
0100
0000
1000
0010
0100
0000
,
1000
0010
0001
0000
1000
0010
1000
0000
,
0110
0000
0100
0000
1000
0010
0010
0000
,
0010
1000
1000
0010
0010
0010
0001
0100
,
0100
0100
0001
0010
0100
0100
1000
1000
,
0010
1000
1000
1000
0010
1000
0100
0100
,
0100
0001
0001
0001
0001
0001
0010
0010
,
0010
1000
1000
0010
0010
0010
0001
0100
,
0100
0100
0001
0010
0100
0100
1000
1000
,
0010
1000
1000
1000
0010
1000
0100
0100
,
0100
0101
1001
1100
0011
1001
1010
0000
,
0010
1000
1000
0010
0010
0010
0001
0100
,
0100
0100
0001
0010
0100
0100
1000
1000
,
0010
1000
1000
1000
0010
1000
0100
0100
,
0100
0001
0001
0001
0001
0001
0010
0010
,
0010
1000
1000
0010
0010
0010
0001
0100
,
0100
0100
0001
0010
0100
0100
1000
1000
,
0010
1000
1000
1000
0010
1000
0100
0100
,
0200
0000
0000
0000
0000
0000
0000
0000
0000
0000
0000
0000
0000
0000
0000
0300
,
0100
0000
1000
0010
0100
0000
1000
0000
,
0001
0010
0001
1000
,
0001
0000
0010
0001
0010
0000
0010
0000
,
0001
0100
0010
0100
,
0001
0000
0010
0100
1000
0000
0001
0000
,
0100
0010
0001
1000
,
0010
0000
1000
0010
0001
0000
0001
0000
,
0010
1000
0001
0010
,
0200
0000
2300
3002
0203
0300
2000
3000
,
0001
0010
0001
1000
,
0002
0000
0023
0032
0023
0030
2000
3000
,
0001
0100
0010
1000
,
0002
0000
0023
0230
2300
3000
0002
0003
,
0100
0010
0001
1000
,
0010
0100
1000
0010
0001
0100
0001
0100
,
0010
0000
0000
0000
,
2020
0000
0000
0000
0000
0000
0000
0000
0000
0000
0000
0000
0000
0000
0000
0000
0000
0000
0000
0000
0000
0000
0000
0000
0000
0000
0000
0000
0000
0000
0000
3030
,
0202
0000
0000
0000
0000
0000
0000
0000
0000
0000
0000
0000
0000
0000
0000
0000
0000
0000
0000
0000
0000
0000
0000
0000
0000
0000
0000
0000
0000
0000
0000
0303
,
2002
0000
0000
0000
,
0000
0000
0000
0000
0000
0000
0000
0000
0000
0000
0000
0000
0000
0000
0000
0000
0000
0000
0000
0000
0000
0000
0000
0000
0000
0000
0000
0000
0000
0000
0000
3003
,
0220
0000
0000
0000
0000
0000
0000
0000
0000
0000
0000
0000
0000
0000
0000
0000
0000
0000
0000
0000
0000
0000
0000
0000
0000
0000
0000
0000
0000
0000
0000
0330
,
2200
0000
0000
0000
0000
0000
0000
0000
0000
0000
0000
0000
0000
0000
0000
0000
0000
0000
0000
0000
0000
0000
0000
0000
0000
0000
0000
0000
0000
0000
0000
3300
,
0022
0000
0000
0000
,
0000
0000
0000
0000
0000
0000
0000
0000
0000
0000
0000
0000
0000
0000
0000
0000
0000
0000
0000
0000
0000
0000
0000
0033
2000
0000
0000
0000
3002
0000
0000
0000
,
2023
0000
0000
0000
0000
0000
0000
0000
0000
0000
0000
0000
0000
0000
0000
0000
0000
0000
0000
0000
0000
0000
0000
0000
0000
0000
0000
0000
0000
0000
0000
3030
,
0202
0000
0000
0000
0000
0000
0000
0000
0000
0000
0000
0000
0000
0000
0000
0000
0000
0000
0000
0000
0000
0000
0000
0000
0000
0000
0000
0000
0000
0000
0000
0303
,
2002
0000
0000
0000
,
0000
0000
0000
0000
0000
0000
0000
0000
0000
0000
0000
0000
0000
0000
0000
0000
0000
0000
0000
0000
0000
0000
0000
0000
0000
0000
0000
0000
0000
0000
0000
3003
,
0220
0000
0000
0000
0000
0000
0000
0000
0000
0000
0000
0000
0000
0000
0000
0000
0000
0000
0000
0000
0000
0000
0000
0000
0000
0000
0000
0000
0000
0000
0000
0330
,
0202
0000
0000
0000
0000
0000
0000
0000
0000
0000
0000
0000
0000
0000
0000
0000
0000
0000
0000
0000
0000
0000
0000
0000
0000
0000
0000
0000
0000
0000
0000
0303
,
1010
0001
1000
0001
0100
1000
0100
0001
,
0010
1000
0100
0010
0100
0001
1000
0010
,
0202
0000
0000
0000
,
0000
0000
0000
0000
,
0000
0000
0000
0000
,
0000
0000
0000
0000
,
0303
0000
0000
0000
,
0000
0000
0000
0000
,
0000
0000
0000
0000
,
0000
0000
0000
0000
,
0000
0000
0000
0000
,
0000
0000
0000
0000
,
0000
0000
0000
0000
,
0000
0000
0000
0000
,
0000
1000
0000
0001
0000
1000
0000
0001
0000
0100
0000
0010
0000
0001
0000
1000
,
0000
0001
0000
1000
0000
0010
0000
1000
0000
0010
0000
1000
0000
0010
0000
1000
,
0000
0100
0000
0001
0000
1000
0000
0100
0000
0001
0000
0010
0000
1000
0000
0100
,
0000
0001
0000
0100
0000
1000
0000
0001
0000
0100
0000
0010
0000
0001
0000
0010
,
0000
1000
0000
0001
0000
1000
0000
0001
0000
0100
0000
0010
0000
0001
0000
1000
,
0000
0100
0000
1000
0000
0010
0000
1000
0000
0010
0000
1000
0000
0001
0000
1000
,
0000
0000
0100
0000
0000
0000
0001
0000
0000
0000
1000
0000
0000
0000
0100
0000
0000
0000
0001
0000
0000
0000
1000
0000
0000
0000
0000
1100
0000
0000
0000
0000
,
0000
0000
0110
0000
0000
0000
0000
0000
0000
0000
0000
0000
0000
0000
0000
0000
1000
0000
0000
0000
0001
0000
0000
0000
0100
0000
0020
0030
0000
0000
0000
0000
;
