#TITLE:FuriFuri;
#SUBTITLE:;
#ARTIST:DJ Sharpnel;
#TITLETRANSLIT:;
#SUBTITLETRANSLIT:;
#ARTISTTRANSLIT:;
#CREDIT:by kabot;
#BANNER:bn.png;
#BACKGROUND:bg.png;
#LYRICSPATH:;
#CDTITLE:kabot-cdtitle.png;
#MUSIC:DJ Sharpnel - FuriFuri.mp3;
#OFFSET:-2.194;
#SAMPLESTART:61.596;
#SAMPLELENGTH:12.000;
#SELECTABLE:YES;
#BPMS:0.000=215.340;
#STOPS:124.000=0.280
;
#BGCHANGES:;
// cache tags:
#FIRSTBEAT:0.000;
#LASTBEAT:420.000;
#SONGFILENAME:Songs/toune 3/Furi Furi/furifuri.sm;
#HASMUSIC:1;
#HASBANNER:1;
#MUSICLENGTH:120.398;
// end cache tags

//---------------dance-single - by kabot----------------
#NOTES:
     dance-single:
     by kabot:
     Hard:
     10:
     0.886,0.868,1.000,0.116,0.004,534.000,199.000,14.000,0.000,0.000:
1001
0110
0011
0110
,
1100
0110
0011
0110
,
1100
1010
0011
0101
,
1100
0000
1010
0000
0010
0000
0010
1000
,
0010
0010
1010
0101
,
0110
0000
1010
0000
0110
0000
0100
0010
,
0100
0010
0100
0000
0011
0000
0100
1000
,
2200
0000
0000
0000
3300
0000
1000
0001
,
1000
1001
0110
0110
,
1001
1100
1100
0011
,
0011
0101
0101
0110
,
0110
0000
1010
0000
1010
0000
0010
1000
,
0100
0110
0011
0110
,
1100
0000
1001
0000
1100
0000
1000
0100
,
0010
0001
0001
0000
0011
0000
0101
0000
,
1100
0000
0000
0000
1001
0000
0000
0000
1100
0000
0000
0010
0001
0000
0000
0000
,
0011
0000
0001
0010
0001
0010
0100
1000
,
0100
1000
0100
1000
0001
1000
0100
0010
,
0001
0001
0010
0100
1000
1000
0001
1000
,
0001
0010
0001
1000
0010
1000
0001
0000
,
0011
0110
1100
1100
,
0110
0011
0101
1010
,
0101
1100
0011
1100
,
1010
0101
0011
1010
,
1100
0011
0101
0101
,
0110
1010
1100
0011
,
1100
1010
0101
1001
,
1100
0011
1100
0110
,
0011
0110
1100
1010
,
1001
1100
1001
0011
,
1001
0101
1001
0110
,
2002
3003
0000
0000
0000
0000
0000
0000
0000
0000
0000
0000
0000
0000
0000
0000
0001
0000
0000
0000
0000
0000
0000
0000
1000
0000
0000
0000
0000
0000
0000
0000
0001
0000
0000
0000
0000
0000
0000
0000
0000
0000
0000
0000
0000
0000
0000
0000
1100
0000
0000
0000
0000
0000
0000
0000
0000
0000
0000
0000
0000
0000
0000
0000
,
1100
0000
1000
0100
0010
0001
0011
0000
,
0011
0000
0001
0100
0010
1000
1010
0000
,
1010
0000
1000
0010
0100
0001
0101
0000
,
0101
0000
0001
1000
0001
1000
1001
0000
,
1001
0000
0010
0100
0010
0100
0110
0000
,
0110
0000
0010
1000
0001
1000
1100
0000
,
1100
0000
1000
0010
1000
0010
1010
0000
,
1010
0000
0010
0100
0010
0100
0110
0000
,
0110
0000
0100
0001
0100
0001
0101
0000
,
0101
0000
0010
0001
0010
0001
0011
0000
,
0011
0000
0001
1000
0100
0010
0001
0000
,
0001
0000
0001
0010
0100
1000
1000
0000
,
1000
0000
1000
0001
1000
0001
0001
0000
,
0001
0000
0001
1000
0001
1000
1000
0000
,
1000
0000
1000
0100
0010
0000
1001
0110
,
1001
1100
1010
0101
,
0011
0011
0110
0110
,
1100
1100
1010
1010
,
0101
0101
0110
0110
,
1010
0101
1010
1100
,
0011
1100
0110
1001
,
0110
1100
0110
0011
,
0110
1100
1010
0110
,
0101
0000
0110
0000
2020
3030
0110
0000
,
0110
1001
1001
0011
,
1100
0011
1100
1010
,
0101
1010
0101
1001
,
0110
1001
0110
1100
,
1010
1100
1010
0011
,
0101
0011
0101
0011
,
1001
0011
1001
1100
,
1001
0000
1100
0000
1001
0000
1000
0001
,
1000
0100
0000
0010
0000
0001
0000
0001
,
0000
0001
0010
0100
1000
0001
1000
0001
,
0010
0100
0000
0100
0000
1000
0000
1000
,
0000
1000
0100
0010
0001
1000
0100
1000
,
0100
1000
0000
1100
0000
1001
0000
0011
,
0000
0001
0010
0001
0010
0001
1000
0100
,
0010
0001
0000
1000
0000
2002
0000
0000
,
0000
0000
0000
0000
3003
0000
1000
0100
,
0010
0100
0000
1000
0000
1100
0000
0011
,
0000
0001
0100
0001
0100
0001
1000
0010
,
1000
0010
0000
1010
0000
0101
0000
1001
,
0000
1000
0100
0000
0001
0100
0010
1000
,
0100
0010
0000
0011
0000
0101
0000
1010
,
0000
1000
0100
0010
0001
1000
0100
1000
,
0100
1000
0000
1100
0000
1001
0000
1100
,
0000
1000
0100
0000
0010
0001
0010
0100
,
1000
0100
0010
0001
0010
0100
1000
0001
,
1000
0100
0010
0001
1000
0001
0010
0001
,
0010
0001
0010
0100
1000
0100
1000
0001
,
1000
0100
1000
0010
1000
0010
1000
0100
,
0010
0001
0100
0001
0100
0001
1000
0001
,
1000
0001
0010
0001
0010
0001
1000
0001
,
0100
0001
0100
0001
0010
0100
1000
0100
,
0010
0001
0100
0010
1000
0010
0200
0000
,
0010
0001
0010
0002
,
0000
0000
0303
0000
1000
0001
1000
0000
,
0100
0010
0001
1000
,
0001
0010
0001
0002
,
0100
1000
0100
2000
,
0000
0000
3003
0000
1000
0001
1000
0000
,
0100
0010
0001
0010
,
0100
1000
0100
1000
,
1000
0000
1000
1000
1000
0000
1000
1000
,
1000
1000
0000
1000
1000
0000
0001
0000
,
0001
0000
0001
0001
0001
0000
0001
0001
,
0001
0001
0000
0001
0001
0000
0010
0000
,
0100
0000
0010
0100
0010
0000
0010
0100
,
0010
0100
0000
0010
0100
0000
0001
0000
,
0001
0000
0001
0001
0001
0000
0010
0100
,
0000
0000
0010
0100
0010
0100
0220
0000
,
0000
0000
0330
0000
;

//---------------dance-single - by kabot----------------
#NOTES:
     dance-single:
     by kabot:
     Medium:
     7:
     0.613,0.694,0.490,0.075,0.000,449.000,59.000,9.000,0.000,0.000:
1001
0001
0010
0110
,
0100
1000
1100
0100
,
0010
0110
0010
0001
,
0011
0000
0001
0000
0010
0000
0001
0010
,
0001
0001
0100
0101
,
0010
0000
1000
0000
0010
0000
1000
0010
,
1000
0010
1000
0000
1010
0000
1000
0001
,
2000
0000
0000
0000
3000
0000
1000
0100
,
0010
0001
0011
0001
,
1000
1001
1000
0100
,
0110
0010
0001
0011
,
0001
0000
0100
0000
0001
0000
0100
0001
,
0100
0101
0001
0010
,
0011
0000
0001
0000
1000
0000
0010
1000
,
0010
1000
0010
0000
1010
0000
0100
0000
,
0001
0101
0001
1001
,
0001
0010
0001
0011
,
0001
0100
0101
0001
,
0100
1100
1000
0010
,
1010
0000
1000
0000
0001
1000
0001
0000
,
0010
0100
1000
0100
,
0010
0001
1000
0001
,
1000
0001
1000
0010
,
1000
0010
1000
0001
,
0010
0011
0100
0110
,
0100
1100
1000
1001
,
0001
0011
0100
1100
,
1000
1010
0010
0011
,
0001
0010
0100
1000
,
0100
0010
0001
1000
,
0001
1000
0001
1000
,
2002
3003
0000
0000
0000
0000
0000
0000
0000
0000
0000
0000
0000
0000
0000
0000
0001
0000
0000
0000
0000
0000
0000
0000
1000
0000
0000
0000
0000
0000
0000
0000
0001
0000
0000
0000
0000
0000
0000
0000
0000
0000
0000
0000
0000
0000
0000
0000
0010
0000
0000
0000
0000
0000
0000
0000
0000
0000
0000
0000
0000
0000
0000
0000
,
0100
0000
1000
0100
1000
0000
0001
0000
,
1000
0000
0001
1000
0001
0000
0010
0000
,
0100
0000
0010
0100
0010
0000
0100
0000
,
1000
0000
0100
1000
0100
0000
0100
0000
,
0010
0000
0100
0010
0100
0000
0010
0000
,
0001
0000
0010
0001
0010
0000
0010
0000
,
0100
0000
1000
0100
1000
0000
0100
0000
,
1000
0000
0001
1000
0001
0000
0001
0000
,
0010
0000
0001
0010
0001
0000
0010
0000
,
0100
0000
0010
0100
0010
0000
0001
0000
,
0100
0000
0010
1000
0010
0000
0100
0000
,
0001
0000
0010
0001
0010
0000
0001
0000
,
1000
0000
0010
0100
0010
0000
1000
0000
,
1000
0000
0100
0010
0001
0000
0010
0000
,
0100
0000
1000
0100
1000
0000
0001
1000
,
0001
1100
1000
0100
,
0010
0001
0011
0010
,
0100
0010
0100
0110
,
0001
0010
0100
1000
,
1100
1000
0010
1000
,
0010
1010
0100
0001
,
0100
0001
0101
0010
,
0101
1000
1010
0100
,
1010
0100
2020
3030
,
1010
0100
0001
0100
,
0001
0101
0010
0100
,
1000
0100
1100
0100
,
0010
0001
0010
0100
,
1000
0001
1000
0001
,
1001
1100
1100
1001
,
1001
0011
0011
1001
,
1001
1100
0110
1000
,
1000
0001
0000
1000
0000
0001
0000
1000
,
0000
0001
1000
0001
1000
0000
0001
1000
,
0001
1000
0000
0001
0000
1000
0000
0001
,
0000
1000
0001
1000
0001
0000
1000
0001
,
1000
0001
0000
0010
0000
0100
0000
1000
,
0000
0100
1000
0100
1000
0000
0100
0010
,
0001
1000
0000
0001
0000
2000
0000
0000
,
0000
0000
3000
1000
,
0100
0010
0001
0010
,
0001
0010
0001
0010
,
0100
1000
0100
1000
,
0100
1000
0001
1000
,
0001
1000
0100
0010
,
0001
0010
0001
0100
,
0001
0100
0001
1000
,
0001
1000
0001
0010
,
0100
1000
0100
1000
,
0100
1000
0010
1000
,
0001
1000
0100
0010
,
0001
1000
0001
0100
,
0001
0100
0001
0100
,
0001
0100
0010
1000
,
0010
0100
0001
0100
,
0001
0100
0001
0001
,
0010
0001
0010
0002
,
0000
0003
0001
0010
,
0001
0010
0001
1000
,
0100
0010
0001
0010
,
0100
1000
0100
2000
,
0000
3000
0001
1000
,
0100
0010
0001
0010
,
0100
1000
0100
1000
,
1000
0000
1000
0001
1000
0000
1000
0001
,
1000
0001
0000
1000
0001
0000
0001
0000
,
0001
0000
0001
1000
0001
0000
0001
1000
,
0001
1000
0000
0001
1000
0000
0011
0000
,
0010
0001
0011
0010
,
0100
0110
0100
1000
,
1100
0100
0010
0110
,
1001
0000
1000
0001
1000
0001
2000
0000
,
0000
0000
3000
0000
;

//---------------dance-single - by kabot----------------
#NOTES:
     dance-single:
     by kabot:
     Easy:
     5:
     0.422,0.522,0.789,0.083,0.000,251.000,95.000,10.000,0.000,0.000:
1001
0000
0110
0000
,
1100
0000
0011
0000
,
0110
0000
1100
0000
,
0101
0000
1001
0001
,
1000
0000
1001
0000
,
0110
0000
1010
1000
,
0010
1000
0000
1000
,
0002
0000
0003
1000
,
1000
0000
1100
0000
,
0110
0000
0011
0000
,
0101
0000
1001
0000
,
0101
0000
1010
0010
,
1000
0000
1010
0000
,
0110
0000
0011
0010
,
0001
0010
0011
0000
,
1001
0000
1001
0000
,
0110
0000
1000
0000
,
0100
0010
0001
0000
,
1000
0000
0010
0000
,
1000
0010
1000
0000
,
0001
1000
0001
1000
,
0001
1000
0001
1000
,
0001
1000
0010
1000
,
0010
1000
0001
0010
,
0011
0000
0110
0000
,
1100
0000
1001
0000
,
0011
0000
1100
0000
,
1010
0000
0110
0000
,
0100
0010
0100
0010
,
0100
0010
0100
0010
,
0100
0010
0100
0010
,
0200
0300
0000
0000
0000
0000
0000
0000
0000
0000
0000
0000
0000
0000
0000
0000
0010
0000
0000
0000
0000
0000
0000
0000
0000
0000
0000
0000
0000
0000
0000
0000
0010
0000
0000
0000
0000
0000
0000
0000
0000
0000
0000
0000
0000
0000
0000
0000
0000
0000
0000
0000
0000
0000
0000
0000
0000
0000
0000
0000
0000
0000
0000
0000
,
1100
0000
0011
0000
,
1100
0000
1010
0000
,
0110
0000
0101
0000
,
1010
0000
1100
0000
,
1010
0000
0011
0000
,
0101
0000
1001
0000
,
0011
0000
1001
0000
,
0101
0000
1001
0000
,
1010
0000
1001
0000
,
1100
0000
1001
0000
,
1010
0000
1001
0000
,
1100
0000
1001
0000
,
0011
0000
1100
0000
,
0110
0000
1100
0000
,
1100
0000
1010
0000
,
1010
0000
1001
0000
,
1001
0000
0011
0000
,
0011
0000
1010
0000
,
1010
0000
0110
0000
,
0011
0000
0011
0000
,
1001
0000
1001
0000
,
1100
0000
1100
0000
,
1010
0000
1100
0000
,
1100
0000
0220
0330
,
0110
0000
1001
0000
,
1001
0000
1100
0000
,
1100
0000
1010
0000
,
1010
0000
0011
0000
,
0011
0000
0101
0000
,
0101
0000
1000
0100
,
0010
0001
0010
0100
,
1000
0001
0000
1000
,
1000
0000
0000
0000
0000
1001
0000
0000
,
0000
1000
0000
0001
0000
0000
0001
0000
,
0001
0000
0000
1001
0000
0000
0000
0000
,
0000
1000
0000
0001
0000
0000
0000
0001
,
0000
1000
0000
0000
0000
0110
0000
0000
,
0000
0100
0000
0100
0000
0000
0100
0000
,
0010
0000
0000
0100
0000
0020
0000
0000
,
0000
0000
0030
0000
,
1000
0000
0100
0000
,
0010
0000
0001
0000
,
1000
0000
0001
0000
,
1000
0000
0100
0000
,
1000
0000
0010
0000
,
1000
0000
0100
0000
,
1000
0000
0010
0000
,
1000
0000
0001
0000
,
1000
0000
0001
0000
,
0010
0000
0001
0000
,
0010
0000
0100
0000
,
1000
0000
0001
0000
,
0010
0000
0001
0000
,
0010
0000
0001
0000
,
1000
0000
0001
0000
,
0100
0000
0010
0000
,
2000
0000
0000
0002
,
0000
3003
0001
0000
,
0001
0000
0010
0000
,
0001
0000
0100
0000
,
0020
0000
0000
2000
,
0000
3030
0010
0000
,
1000
0000
0010
0000
,
1000
0000
0000
1000
,
1000
1000
1000
1000
,
1000
1000
1000
0001
,
0001
0001
0001
0001
,
0001
0001
0001
0010
,
0010
0010
0010
0010
,
0010
0010
0010
0010
,
0010
0001
0010
0100
,
1000
0100
1000
0200
,
0000
0000
0000
0300
;

//---------------dance-single - by kabot----------------
#NOTES:
     dance-single:
     by kabot:
     Beginner:
     3:
     0.248,0.349,0.831,0.033,0.000,105.000,100.000,4.000,0.000,0.000:
1001
0000
0000
0000
,
1001
0000
0000
0000
,
1001
0000
0000
0000
,
0110
0000
0000
0000
,
0110
0000
0000
0000
,
0110
0000
0000
0000
,
1001
0000
0000
0000
,
1001
0000
0000
0000
,
1001
0000
0000
0000
,
0110
0000
0000
0000
,
1001
0000
0000
0000
,
0110
0000
0000
0000
,
1001
0000
0000
0000
,
0110
0000
0000
0000
,
1001
0000
0000
0000
,
1001
0000
0000
0000
,
1000
0000
0000
0000
,
0100
0000
0000
0000
,
0010
0000
0000
0000
,
0001
0000
0000
0000
,
0010
0000
0000
0000
,
1001
0000
0000
0000
,
0110
0000
0000
0000
,
1001
0000
0000
0000
,
0110
0000
0000
0000
,
0110
0000
0000
0000
,
1001
0000
0000
0000
,
1001
0000
0000
0000
,
0110
0000
0000
0000
,
1001
0000
0000
0000
,
0110
0000
0000
0000
,
2002
3003
0000
1001
,
0000
0000
0000
1001
,
0000
0000
0000
1001
,
0000
0000
0000
0110
,
0000
0000
0000
0110
,
0000
0000
0000
1001
,
0000
0000
0000
0110
,
0000
0000
0000
1001
,
0000
0000
0000
1001
,
0000
0000
0000
0110
,
0000
0000
0000
0110
,
0000
0000
0000
1001
,
0000
0000
0000
0110
,
0000
0000
0000
0110
,
0000
0000
0000
1001
,
0000
0000
0000
0110
,
0000
0000
0000
0110
,
0000
0000
0000
1001
,
0000
0000
0000
0110
,
0000
0000
0000
0110
,
0000
0000
0000
0110
,
0000
0000
0000
1001
,
0000
0000
0000
1001
,
0000
0000
0000
1001
,
0000
0000
0000
0110
,
0000
0000
0000
1001
,
0000
0000
0000
1001
,
0000
0000
0000
1001
,
0000
0000
0000
0110
,
0000
0000
0000
0110
,
0000
0000
0000
1001
,
0000
0000
0000
1001
,
0000
0000
0000
0110
,
0000
0000
0000
1001
,
0000
0000
0000
0110
,
0000
0000
0000
1001
,
0000
0000
0000
0110
,
0000
0000
0000
0110
,
0000
0000
0000
0110
,
0000
0000
0000
1001
,
0000
0000
0000
1001
,
0000
0000
0000
1001
,
0000
0000
0000
1001
,
0000
0000
0000
0110
,
0000
0000
0000
0110
,
0000
0000
0000
1001
,
0000
0000
0000
0110
,
0000
0000
0000
1001
,
0000
0000
0000
0110
,
0000
0000
0000
0110
,
0000
0000
0000
1001
,
0000
0000
0000
0110
,
0000
0000
0000
1001
,
0000
0000
0000
0110
,
0000
0000
0000
0110
,
0000
0000
0000
1001
,
0000
0000
0000
1001
,
0000
0000
0000
1001
,
0000
0000
0000
0110
,
0000
0000
0000
0110
,
0000
0000
0000
0110
,
0000
0000
0000
1001
,
0000
0000
0000
0110
,
0000
0000
0000
1001
,
0000
0000
0000
1001
,
0000
0000
0000
0110
,
0000
0000
0000
0110
,
0000
0000
0000
1001
,
0000
0000
0000
0110
,
0000
0000
0000
1001
,
0000
0000
0000
1001
,
0000
0000
0000
0110
,
0000
0000
0000
0220
,
0000
0000
0000
0000
,
0330
0000
0000
0000
;
