#TITLE:Cyberstorm;
#SUBTITLE:(DJKurara Remix);
#ARTIST:SD-501;
#TITLETRANSLIT:;
#SUBTITLETRANSLIT:;
#ARTISTTRANSLIT:;
#CREDIT:;
#BANNER:../ban - Jawn2.png;
#BACKGROUND:../Jawn2 - bg.png;
#LYRICSPATH:;
#CDTITLE:CDa.png;
#MUSIC:Cyberstorm (DJKurara Remix).ogg;
#OFFSET:0.009;
#SAMPLESTART:89.598;
#SAMPLELENGTH:12.000;
#SELECTABLE:YES;
#BPMS:0.000=300.000;
#STOPS:;
#BGCHANGES:;
// cache tags:
#FIRSTBEAT:32.000;
#LASTBEAT:713.000;
#SONGFILENAME:Songs/Jimmy Jawns 2/Cyberstorm - [Aoreo]/Cyberstorm (DJKurara Remix).sm;
#HASMUSIC:1;
#HASBANNER:1;
#MUSICLENGTH:150.000;
// end cache tags

//---------------dance-single - J. Nero----------------
#NOTES:
     dance-single:
     J. Nero:
     Challenge:
     22:
     1.000,1.000,0.080,0.367,0.790,1269.000,12.000,55.000,0.000,0.000:
0000
0000
0000
0000
,
0000
0000
0000
0000
,
0000
0000
0000
0000
,
0000
0000
0000
0000
,
0000
0000
0000
0000
,
0000
0000
0000
0000
,
0000
0000
0000
0000
,
0000
0000
0000
0000
,
1000
0001
0000
1000
0000
0100
0000
0010
,
0000
0001
0000
1000
0000
0010
0000
0100
,
0001
1000
0000
0100
0000
0010
0000
0001
,
0000
0100
0000
0001
0000
1000
0000
0010
,
0100
0010
1000
0001
1000
0100
0010
0001
,
0100
0001
1000
0100
0010
0100
1000
0001
,
0100
0001
0100
0010
1000
0001
1000
0100
0010
0001
1000
0001
0100
0010
1000
0010
,
0100
0001
1000
0001
0100
0010
1000
0001
0100
0010
0100
0001
2000
0000
3000
0000
,
0001
0000
0100
0001
0000
0010
0100
0000
,
1000
0000
0100
1000
0000
0010
1000
0000
,
0001
0000
0100
0002
0000
0013
0100
0000
,
1000
0000
0100
2000
0000
3001
0100
0001
,
1000
0000
0010
0100
0000
0001
0010
0000
,
0100
0000
1000
0100
0000
1000
0001
0000
,
0100
0000
0010
2000
0000
3100
0010
0000
,
0001
1000
0001
0000
1000
0000
0010
1000
0010
0000
0100
0000
0001
1000
0001
0000
,
1000
0000
0100
1000
0000
0001
1000
0000
,
0100
0000
0000
0000
0010
0000
0001
0000
0000
0000
1000
0000
0002
0003
0000
0000
,
0100
0000
0010
1000
0000
0100
1000
0000
,
0001
0100
0000
0100
0000
0001
1000
0100
,
0010
0000
0001
0000
0100
0000
0001
0000
1000
0000
0100
0000
1000
0001
1000
0100
,
0010
0000
0001
0000
0100
0000
0001
0000
1000
0000
0100
0000
1000
0001
0100
0010
,
1000
0001
0100
0001
1000
0100
1000
0001
0100
0010
1000
0010
0100
0001
1000
0001
,
0010
0100
1000
0001
1000
0010
0100
0001
0100
0010
1000
0001
1000
0100
0010
0001
,
2000
3000
0000
0000
0000
0000
2002
3003
0000
0000
0000
0000
0202
0303
0000
0000
,
0000
0100
0001
1000
0001
0010
0100
1000
,
0002
0003
0000
0000
1000
0000
0200
0300
0000
0000
1000
0000
0002
0003
0000
0000
,
0000
0100
0001
0010
0100
0010
0001
1000
,
0020
0030
0000
0000
0000
0000
2020
3030
0000
0000
0000
0000
2002
3003
0000
0000
,
0000
0001
0100
0001
0010
0100
1000
0001
,
2000
3000
0000
0000
0000
0000
2020
3030
0000
0000
0000
0000
0220
0330
0000
0000
,
0000
0100
0001
1000
0001
0010
0100
1000
,
0002
0003
0000
0000
1000
0000
0200
0300
0000
0000
1000
0000
0002
0003
0000
0000
,
1000
0100
1000
0010
0100
0001
1000
0100
,
0020
0030
0000
0000
0001
0000
0200
0300
0000
0000
0001
0000
2000
3000
0000
0000
,
0010
0000
0100
0000
0010
0000
1000
0000
0100
0000
0010
0000
0001
1000
0001
0100
,
0020
0030
1000
0000
0100
0000
0020
0030
0100
0000
1000
0000
0020
0030
1000
0000
,
0001
0100
0001
0010
0001
1000
0100
0010
,
0001
1000
0001
0100
0010
1000
0010
0100
0001
1000
0100
1000
0001
0100
0010
0100
,
0001
1000
0001
0100
0010
1000
0001
1000
0100
0010
0001
1000
0001
0100
0010
1000
,
0001
0100
0001
1000
0100
0010
0100
1000
,
0001
0100
0010
1000
0001
0010
0001
0100
,
0010
1000
0010
0100
0001
1000
0100
0010
,
0001
0000
0100
0000
0010
0000
1000
0000
0100
0000
0010
0000
0001
1000
0001
0100
,
0010
1000
0100
1000
0001
0100
0001
1000
,
0100
0010
0001
0100
0001
1000
0100
1000
,
0010
0100
0010
1000
0100
0010
0001
1000
,
0001
0000
0000
0000
1000
0000
0000
0000
0001
1000
0001
0100
0010
1000
0001
1000
,
0100
0010
0001
0100
0001
1000
0100
0010
,
0100
1000
0001
0100
0010
1000
0010
0100
,
0001
1000
0100
1000
0010
0100
0001
1000
,
0100
0000
0010
0000
0001
0000
0100
0000
0001
0000
1000
0000
0010
1000
0010
0100
,
0001
1000
0100
1000
0010
0100
0001
1000
,
0001
0010
0100
1000
0001
0100
0010
0100
,
0001
1000
0001
0100
0010
1000
0010
0100
0001
1000
0001
0010
0100
1000
0001
0100
,
0001
1000
0010
1000
0001
0100
0010
1000
0001
0000
0000
0000
1000
0000
0001
0000
,
0100
0000
0001
1000
0000
0100
1000
0000
,
0001
0000
0100
0001
0000
0010
0100
0000
,
1000
0000
0001
2000
0000
3100
1000
0000
,
0001
0000
0100
0002
0000
0013
0100
1000
,
0001
0000
0100
0010
0000
0100
0001
0000
,
0010
0000
0100
1000
0000
0001
1000
0000
,
0001
0000
0100
0002
0000
0013
0100
0000
,
1000
0000
0010
2000
0000
3100
0010
0001
,
1000
0001
0100
0010
,
0100
0001
0010
0100
,
1000
0001
0100
0010
,
0100
0001
1000
0100
,
0010
0001
1000
0001
0100
0010
1000
0100
,
0010
0001
0100
0001
1000
0100
1000
0001
,
0100
0001
0100
0010
1000
0001
1000
0100
0010
0001
1000
0001
0100
0010
0100
0001
,
2000
3000
0000
0000
,
0001
0100
0001
1000
0100
1000
0001
0100
,
0010
1000
0010
0100
0001
1000
0100
0010
,
0100
1000
0001
0100
0010
1000
0010
0100
,
0001
0000
1000
0000
0100
0000
0010
0000
0001
0000
0100
0000
0001
1000
0001
0010
,
0100
1000
0001
0100
0001
1000
0100
1000
,
0010
0100
0010
1000
0001
1000
0100
0010
,
0001
0000
1000
0100
0000
0000
1000
0000
,
0001
0000
0100
0001
0000
0010
0100
0000
,
1000
0010
1000
0100
0010
0001
0100
0001
,
1000
0010
0100
0001
0100
0010
1000
0001
,
1000
0100
0010
0001
0100
0001
1000
0100
,
1000
0000
0010
0000
0100
0000
0001
0000
1000
0001
1000
0100
0010
0000
0001
0000
,
0100
0001
1000
0100
1000
0001
1000
0010
,
0100
0001
0010
0001
1000
0010
0100
0010
,
4000
3400
0340
0034
4003
3040
0430
0304
,
1003
0000
0100
1000
0000
0001
1000
0000
,
0001
0100
0010
0100
0001
1000
0100
0010
,
0001
0100
0001
1000
0100
0010
0001
0100
,
0001
1000
0100
0010
0100
1000
0001
0100
,
0010
0000
1000
0000
0010
0000
0100
0000
0001
0000
1000
0000
0001
0100
0001
1000
,
0100
0010
0001
0100
0001
1000
0100
1000
,
0001
0100
0010
1000
0010
0100
0001
1000
,
0001
1000
0000
0001
0100
0000
0001
1000
,
0100
0000
0000
0000
0010
0000
0001
0000
0000
0000
1000
0000
0001
1000
0001
0100
,
0010
1000
0001
0100
0001
0010
0100
1000
,
0001
1000
0010
0100
0001
1000
0100
1000
,
0010
0100
0001
1000
0001
0100
0010
1000
,
0001
0000
0010
0000
0100
0000
1000
0000
0001
1000
0001
0100
0010
1000
0010
0100
,
0001
1000
0100
1000
0010
0100
0001
1000
,
0001
0010
0100
0010
0001
0100
0010
1000
,
0001
0100
0001
1000
0010
0100
0001
1000
0010
1000
0100
0010
0001
1000
0001
0100
,
0010
0000
0100
0001
0000
1000
0100
0010
,
0001
0000
0000
1000
0000
1000
0001
0000
,
0100
0000
0000
0000
0000
0000
0001
0100
,
0001
0000
0000
0001
0000
0010
0100
0000
,
1000
0000
0001
0100
0010
0000
0010
0000
,
0100
0000
0000
0001
0000
0001
1000
0000
,
0100
0000
0000
0000
0000
0000
1000
0100
,
0010
0000
0000
0010
0000
0001
0100
0000
,
0001
0000
0000
0000
0000
0000
1000
0000
0000
0100
0000
0000
1000
0000
0001
0000
1000
0000
0100
0000
0010
0000
0001
0000
,
0100
0000
0000
0001
0000
0001
0010
0000
,
0100
0000
0000
0000
0000
0000
1000
0001
,
0100
0000
0000
0100
0000
0001
0010
0000
,
0100
0000
1000
0001
1000
0000
1000
0000
,
0010
0000
0000
0100
0000
0100
0001
0000
,
1000
0000
0000
0000
0000
0000
0001
0010
,
0100
0000
0000
1000
0000
1000
0001
0000
,
0100
0000
0000
0000
0000
0000
0010
0000
0000
1000
0000
0000
0001
0000
1000
0000
0001
0000
0010
0000
0100
0000
1000
0000
,
0020
0030
0000
0000
0000
0000
1000
0000
0000
0000
1000
0000
0001
0000
0000
0000
,
0100
0000
0000
0000
0000
0000
0001
1000
,
0200
0300
0000
0000
0000
0000
1000
0000
0000
0000
1000
0000
0001
0000
0000
0000
,
0100
0000
0000
0000
0000
0000
0001
0100
,
0020
0030
0000
0000
0000
0000
1000
0000
0000
0000
1000
0000
0001
0000
0000
0000
,
0100
0000
0000
0000
0000
0000
0001
1000
,
0200
0300
0000
0000
0000
0000
0010
0000
0000
0000
0010
0000
0001
0000
0000
0000
,
1000
0000
0000
0000
0002
0003
0020
0030
,
0110
0100
1000
0001
,
0101
0100
0010
1000
,
1100
0100
0010
0001
,
1001
1000
0010
0100
,
0001
0100
0001
1000
0100
0010
0001
1000
,
0010
0100
0001
1000
0100
0010
0001
0100
,
0001
1000
0001
0100
0010
1000
0010
0100
0001
1000
0001
0100
0010
1000
0001
1000
,
0100
0010
0001
1000
0001
0100
0010
1000
0001
0100
0010
1000
0001
1000
0010
0100
,
0002
0000
0003
0000
,
1000
0001
1000
0010
0100
0001
0100
0010
1000
0001
1000
0010
0100
0001
0100
0010
,
1000
0001
0100
0010
0100
0001
1000
0001
0010
0100
1000
0001
1000
0010
0100
0001
,
0100
0010
1000
0001
1000
0100
0010
0001
1000
0001
0100
0010
4000
0000
3000
0000
,
0001
0100
0001
1000
0010
0100
0010
1000
0001
1000
0100
0010
0001
1000
0001
0100
,
0010
1000
0001
0100
0001
1000
0010
0100
0001
0100
0010
1000
0004
0000
0003
0000
,
1000
0001
1000
0010
0100
0001
0100
0010
1000
0001
1000
0100
0010
0001
1000
0001
,
0100
0010
1000
0010
0100
0001
1000
0001
0010
0100
1000
0001
4000
0000
3000
0000
,
0001
0100
0001
1000
0010
0100
0001
1000
0001
0100
0010
1000
0001
0100
0001
1000
,
0100
0010
0001
1000
0001
0100
0010
1000
0002
0000
0000
0000
0000
0000
0003
0000
,
1000
0100
1000
0001
0100
0010
1000
0010
0100
0001
1000
0010
2000
0000
3000
0000
,
0001
0100
0001
1000
0100
0010
0001
1000
0001
0100
0010
1000
0002
0000
0003
0000
,
1000
0100
1000
0001
0100
0010
1000
0010
0100
0001
1000
0001
0200
0000
0300
0000
,
0001
1000
0001
0010
0100
1000
0001
1000
0010
0100
0001
1000
0002
0000
0003
0000
,
1000
0100
1000
0001
0200
0000
0300
0000
0001
1000
0001
0010
0200
0000
0300
0000
,
1000
0001
1000
0010
0200
0000
0300
0000
0001
1000
0001
0010
0200
0000
0300
0000
,
1000
0000
0100
1000
0000
0001
1000
0000
,
0001
0100
0001
0010
0100
0000
2000
0000
,
3001
0000
0100
0001
0000
0010
0100
0000
,
1000
0000
0100
1000
0000
0001
0100
0000
,
0001
0000
0010
0100
0000
1000
0001
0000
,
1000
0000
0100
1000
0000
0001
0100
0000
,
0101
0000
0001
0010
0000
0100
1000
0000
,
0001
0000
0100
0001
0000
0100
0010
0000
,
1000
0000
0001
0100
0000
0010
0100
0000
,
0001
0000
0010
0100
1000
0001
1000
0010
,
0100
0001
0010
0100
,
1000
0001
0100
0010
,
0100
0001
1000
0100
,
0010
0001
0100
0001
,
1000
0001
1000
0100
0010
0001
0100
0001
,
1000
0100
0010
0001
0100
0001
1000
0010
,
1000
0001
1000
0010
0100
0001
0100
0010
1000
0001
1000
0100
0010
0001
1000
0001
,
0100
0010
0100
0001
1000
0001
0010
0100
1000
0001
1000
0010
0100
0001
1000
0001
,
0200
0300
0000
0000
;
