#TITLE:Dark Black Forest;
#SUBTITLE:- Long Version -;
#ARTIST:Steve Rhyner;
#TITLETRANSLIT:;
#SUBTITLETRANSLIT:;
#ARTISTTRANSLIT:;
#CREDIT:;
#BANNER:Dark Black Forst-bn.bmp;
#BACKGROUND:Dark Black Forest-bg.png;
#LYRICSPATH:;
#CDTITLE:;
#MUSIC:Dark Black Forest - Extended Version.mp3;
#OFFSET:-0.945;
#SAMPLESTART:43.802;
#SAMPLELENGTH:12.000;
#SELECTABLE:YES;
#BPMS:0.000=140.000;
#STOPS:;
#BGCHANGES:;
// cache tags:
#FIRSTBEAT:32.000;
#LASTBEAT:328.000;
#SONGFILENAME:Songs/new/Dark Black Forest (extended)/Dark Black Forest.sm;
#HASMUSIC:1;
#HASBANNER:1;
#MUSICLENGTH:147.389;
// end cache tags

//---------------dance-single - ----------------
#NOTES:
     dance-single:
     :
     Easy:
     3:
     0.194,0.250,0.102,0.109,0.000,169.000,15.000,16.000,0.000,0.000:  // measure 1
0000
0000
0000
0000
,  // measure 2
0000
0000
0000
0000
,  // measure 3
0000
0000
0000
0000
,  // measure 4
0000
0000
0000
0000
,  // measure 5
0000
0000
0000
0000
,  // measure 6
0000
0000
0000
0000
,  // measure 7
0000
0000
0000
0000
,  // measure 8
0000
0000
0000
0000
,  // measure 9
1000
0000
0000
0001
,  // measure 10
0100
0000
0000
0010
,  // measure 11
1000
0000
0000
0100
,  // measure 12
1000
0000
0000
0001
,  // measure 13
0100
0010
1000
0000
,  // measure 14
0100
0000
1001
0000
,  // measure 15
0020
0000
0031
0000
,  // measure 16
2000
0000
0000
0000
,  // measure 17
3010
0100
0000
0001
,  // measure 18
1000
0100
0000
0010
,  // measure 19
0001
0000
1000
0000
,  // measure 20
0010
0100
0001
1000
,  // measure 21
0100
0000
1000
0000
,  // measure 22
0110
0000
1001
0000
,  // measure 23
0002
0000
0000
0003
,  // measure 24
2000
0000
0000
3000
,  // measure 25
0010
0010
0000
0000
,  // measure 26
0100
0100
0000
0000
,  // measure 27
0001
1000
0000
0000
,  // measure 28
1000
0001
0000
0000
,  // measure 29
0110
0000
0010
0000
,  // measure 30
1001
0000
1000
0000
,  // measure 31
0100
0010
0001
0000
,  // measure 32
1000
0001
0100
0000
,  // measure 33
0100
0010
2000
3000
,  // measure 34
0001
1000
0200
0300
,  // measure 35
0010
0000
2002
3003
,  // measure 36
0010
0100
1000
0000
,  // measure 37
0001
0100
0010
0100
,  // measure 38
0002
0000
1000
0000
,  // measure 39
1003
0000
0100
0000
,  // measure 40
0020
0000
0000
0030
,  // measure 41
0001
1000
0000
0100
,  // measure 42
0000
1000
0000
0100
,  // measure 43
0000
0010
0000
0001
,  // measure 44
0000
1000
0000
0010
,  // measure 45
0100
0001
0000
1100
,  // measure 46
0000
1000
0000
0011
,  // measure 47
0000
0001
0000
1010
,  // measure 48
0000
0100
0000
1001
,  // measure 49
0010
0100
0000
1000
,  // measure 50
1000
1000
0000
0010
,  // measure 51
0000
0100
0000
0001
,  // measure 52
1000
0100
0010
0001
,  // measure 53
1000
0000
1010
0000
,  // measure 54
0200
0000
0001
0000
,  // measure 55
0310
0000
2000
0000
,  // measure 56
0100
0000
0000
0000
,  // measure 57
0000
0000
0000
3000
,  // measure 58
0010
0000
0100
0000
,  // measure 59
0001
1000
0100
0000
,  // measure 60
1001
0000
1001
0000
,  // measure 61
0010
0000
0110
0100
,  // measure 62
1000
0000
0001
0000
,  // measure 63
0100
0010
0000
1000
,  // measure 64
0100
0010
0000
1001
,  // measure 65
0000
0100
0000
0010
,  // measure 66
1000
1000
0001
0000
,  // measure 67
0100
0010
0000
1000
,  // measure 68
0100
0000
0010
0000
,  // measure 69
0001
1000
0000
0010
,  // measure 70
0100
0000
0002
0000
,  // measure 71
1003
0000
0020
0000
,  // measure 72
0130
0000
1000
0000
,  // measure 73
0001
0001
0000
1000
,  // measure 74
0100
1000
0100
0000
,  // measure 75
0010
0001
0010
0000
,  // measure 76
0100
0100
0000
0000
,  // measure 77
1000
1000
0000
0000
,  // measure 78
0010
0000
0100
0000
,  // measure 79
0001
1000
0100
0000
,  // measure 80
1000
0001
0010
0000
,  // measure 81
0200
0000
0000
0000
,  // measure 82
2300
0000
0000
0000
,  // measure 83
3000
0000
0000
0000
;

//---------------dance-single - ----------------
#NOTES:
     dance-single:
     :
     Medium:
     6:
     0.317,0.417,0.142,0.115,0.000,289.000,21.000,17.000,0.000,0.000:  // measure 1
0000
0000
0000
0000
,  // measure 2
0000
0000
0000
0000
,  // measure 3
0000
0000
0000
0000
,  // measure 4
0000
0000
0000
0000
,  // measure 5
0000
0000
0000
0000
,  // measure 6
0000
0000
0000
0000
,  // measure 7
0000
0000
0000
0000
,  // measure 8
0000
0000
0000
0000
,  // measure 9
0010
0001
1000
0010
,  // measure 10
0200
0000
0000
0000
,  // measure 11
0301
1000
0100
0010
,  // measure 12
0002
0000
0000
0000
,  // measure 13
1003
0000
0010
0000
0100
0000
0001
1000
,  // measure 14
0200
0000
0000
0000
,  // measure 15
0310
0000
0001
0000
,  // measure 16
1000
0000
0010
0000
0100
0001
1000
0000
,  // measure 17
0100
0010
0001
0010
,  // measure 18
1000
0010
0100
0000
1000
0000
0010
0000
,  // measure 19
0100
0101
0000
0010
,  // measure 20
0100
0000
1001
0000
0000
0000
1000
0010
,  // measure 21
0100
0001
0010
1000
,  // measure 22
0001
0100
1000
0001
,  // measure 23
0200
1000
0001
1000
,  // measure 24
0310
0000
1000
0000
0110
0000
0001
1000
,  // measure 25
0001
1000
0100
1000
,  // measure 26
0001
0100
0001
0000
1000
0000
0100
0000
,  // measure 27
0010
0001
0100
0000
0010
0000
1100
0000
,  // measure 28
1000
0000
0100
0000
0010
0000
0001
0010
,  // measure 29
1000
0010
0100
1000
,  // measure 30
0001
0100
1000
0100
,  // measure 31
0001
1000
0100
0000
1000
0001
0010
0000
,  // measure 32
0220
0330
1001
1001
,  // measure 33
0100
0010
1000
0100
,  // measure 34
0001
0000
0001
0100
1000
0000
0000
0000
,  // measure 35
0001
0100
0000
0010
,  // measure 36
1000
0000
0100
0000
0000
0000
0010
0001
,  // measure 37
1000
0010
0100
0000
1001
0000
0010
0000
,  // measure 38
0100
0000
1000
0001
1000
0000
0110
0000
,  // measure 39
0001
0001
0000
0000
,  // measure 40
2000
0000
0000
0000
,  // measure 41
3001
0100
0000
0100
,  // measure 42
0000
0010
0000
0010
,  // measure 43
0000
1000
0000
1000
,  // measure 44
0000
0001
0000
0001
,  // measure 45
0010
0100
1000
0001
,  // measure 46
0100
1000
0100
0010
,  // measure 47
1000
0001
0010
0001
,  // measure 48
1000
0100
0010
1000
,  // measure 49
0010
0001
0100
0010
,  // measure 50
1000
0000
0100
0000
1000
0001
0100
0000
,  // measure 51
0001
0010
1000
0010
,  // measure 52
0001
0000
0100
0000
0010
0000
1000
0100
,  // measure 53
1000
0001
0011
0010
,  // measure 54
0100
0000
0100
0000
1000
0001
0100
0000
,  // measure 55
0110
1001
1010
0011
,  // measure 56
2200
0000
0000
0000
,  // measure 57
0000
0000
0000
3300
,  // measure 58
0001
0100
0010
0000
0100
0001
1000
0000
,  // measure 59
0100
0010
0001
1000
,  // measure 60
0010
1000
0100
0000
0010
0001
0100
0000
,  // measure 61
0011
0000
0101
0000
1000
0100
1000
0000
,  // measure 62
0020
0001
1000
0130
,  // measure 63
2000
0001
0010
3100
,  // measure 64
0010
0001
0100
0000
0100
0001
1000
0000
,  // measure 65
0010
0100
0001
1001
,  // measure 66
1000
0100
0010
0100
0020
0000
0000
0000
,  // measure 67
0031
0000
1000
0010
1000
0000
0011
0000
,  // measure 68
0100
0100
0001
0001
,  // measure 69
1000
0000
1000
0000
0100
0010
0100
0000
,  // measure 70
0010
0001
1000
0001
,  // measure 71
0100
0000
0001
1000
0100
0000
0001
0000
,  // measure 72
0100
1000
0001
0000
0100
0010
0100
0000
,  // measure 73
0002
0000
1000
0100
,  // measure 74
0013
0000
0001
1000
0010
0000
0100
0000
,  // measure 75
0001
0000
0010
0001
0010
0000
0100
0000
,  // measure 76
1000
0000
0010
0100
0001
0000
1000
0000
,  // measure 77
0100
0000
1000
0000
0010
0100
0001
0000
,  // measure 78
0010
1000
0100
0000
0002
0000
1003
0000
,  // measure 79
0010
0100
1000
0000
0110
0000
1001
0000
,  // measure 80
0002
0000
0100
0000
,  // measure 81
2003
0000
0100
0001
,  // measure 82
0020
0000
0000
0000
,  // measure 83
3030
0000
0000
0000
;

//---------------dance-single - ----------------
#NOTES:
     dance-single:
     :
     Hard:
     8:
     0.474,0.527,0.285,0.197,0.224,418.000,42.000,29.000,0.000,0.000:  // measure 1
0000
0000
0000
0000
,  // measure 2
0000
0000
0000
0000
,  // measure 3
0000
0000
0000
0000
,  // measure 4
0000
0000
0000
0000
,  // measure 5
0000
0000
0000
0000
,  // measure 6
0000
0000
0000
0000
,  // measure 7
0000
0000
0000
0000
,  // measure 8
0000
0000
0000
0000
,  // measure 9
1000
0100
0000
0000
0010
0000
0000
0001
0000
0000
1000
0000
0000
0000
1000
0001
,  // measure 10
0100
0010
0000
0000
1000
0000
0000
0100
0000
0000
0010
0000
0000
0000
0010
0100
,  // measure 11
0001
1000
0000
0000
0100
0000
0000
0010
0000
0000
0001
0000
0000
0000
1000
0100
,  // measure 12
0010
0001
0000
0000
1000
0000
0000
1100
0000
0000
0100
0000
0000
0000
0001
0100
,  // measure 13
0000
0010
1000
0000
0010
0100
0000
0010
1000
0000
0010
0100
0000
0001
1000
0000
,  // measure 14
0100
0010
0001
1000
,  // measure 15
0210
0001
1000
0301
,  // measure 16
0021
0100
1000
0031
,  // measure 17
0100
0001
0000
0000
1000
0000
0000
0010
0000
0000
0100
0000
0000
0000
0001
1000
,  // measure 18
0100
0010
0000
0000
1001
0000
0000
0100
0000
0000
1010
0000
0000
0000
0100
0001
,  // measure 19
1000
0100
0000
0000
0020
0000
0000
0001
0000
0000
0130
0000
0000
0000
0001
1000
,  // measure 20
0020
0100
0000
0000
1000
0000
0000
0001
0000
0000
0130
0000
0000
0000
0010
1000
,  // measure 21
0000
1000
0100
0000
0100
0010
0000
0010
0001
0000
1000
0010
0000
0100
0001
0000
,  // measure 22
2000
3100
0010
0101
,  // measure 23
0010
0001
1000
0000
1010
0000
0101
0000
,  // measure 24
0020
0000
0130
0000
0001
1000
0010
0100
,  // measure 25
0001
0100
0000
0000
0010
0000
0000
1000
0000
0000
0100
0000
0000
0000
0010
0001
,  // measure 26
0010
0001
0000
0000
0100
0000
0000
1000
0000
0000
0100
0000
0000
0000
0010
1000
,  // measure 27
0010
1000
0000
0000
1100
0000
0000
1001
0000
0000
0101
0000
0000
0000
0010
0001
,  // measure 28
1000
0020
0000
0000
0100
0000
0000
0100
0000
0000
0130
0000
0000
0000
0001
1000
,  // measure 29
0000
0010
1000
0000
0100
0010
0000
0001
0010
0000
0100
1000
0000
0001
1000
0000
,  // measure 30
0010
0000
0101
0000
0010
1000
1100
0000
,  // measure 31
0010
0001
0100
0000
0010
1000
0001
0000
,  // measure 32
0012
1003
2100
3001
,  // measure 33
0010
0100
1000
0000
0001
0100
1000
0100
,  // measure 34
0001
0000
0010
0100
2000
0000
0010
0000
,  // measure 35
3001
0100
0010
1000
0001
0000
1100
0000
,  // measure 36
0010
0000
0011
0000
0100
0010
1000
0100
,  // measure 37
1000
0001
0100
0001
0010
0000
0100
0000
,  // measure 38
2000
0000
0001
0001
3001
0000
0000
0000
,  // measure 39
0100
0001
1000
0000
0001
0100
1000
0000
,  // measure 40
0220
0000
0000
0330
,  // measure 41
1000
0101
0000
0110
,  // measure 42
0000
1010
0000
0101
,  // measure 43
0000
1100
0000
0011
,  // measure 44
0000
1000
0000
0010
,  // measure 45
0100
0101
0010
0100
,  // measure 46
1000
1010
0100
0001
,  // measure 47
1000
0110
0001
1000
,  // measure 48
0010
0000
1001
0000
0100
0000
0010
1000
,  // measure 49
0200
0010
0000
0001
0000
1000
0000
0310
,  // measure 50
0001
1000
0000
0100
0001
1000
0000
0010
,  // measure 51
0002
0100
0000
0010
0000
1000
0000
0103
,  // measure 52
0010
1000
0000
0100
0010
0001
0000
1000
,  // measure 53
0002
0100
0000
0010
0000
1000
0000
0103
,  // measure 54
0010
1000
0000
0100
0010
1000
0000
0001
,  // measure 55
0000
1100
0000
1001
0000
1010
0000
0100
,  // measure 56
0002
0000
0000
0000
,  // measure 57
0000
0000
0000
0003
,  // measure 58
0010
0100
1000
0000
0001
0100
1000
0000
,  // measure 59
0010
0100
0001
1000
0100
0001
0100
0000
,  // measure 60
2000
0010
3002
0100
,  // measure 61
1003
0000
0000
0000
0101
0000
0000
0000
0010
0000
0001
0000
1000
0000
0001
0010
,  // measure 62
0000
0010
0001
0000
1000
0100
0000
0100
1000
0000
0010
0100
0000
0100
0010
0000
,  // measure 63
2000
3001
0002
1003
,  // measure 64
0100
0001
1000
0000
0100
1000
0001
0000
,  // measure 65
0100
0010
0000
0000
0100
0000
0000
0001
0000
0000
1000
0000
0000
0000
0100
0010
,  // measure 66
0001
0100
0001
1000
0010
0100
0001
0000
,  // measure 67
1000
0100
0010
0001
0010
1000
0010
0000
,  // measure 68
0001
0100
1000
0000
1000
0010
0001
0000
,  // measure 69
0120
0000
0000
0000
0001
0000
0000
0000
1000
0000
0000
0000
0130
0000
1000
0001
,  // measure 70
0000
0100
0010
0000
1000
0100
0000
0010
0001
0000
0100
1000
0000
0100
0001
0000
,  // measure 71
1000
0100
1000
0000
0001
0100
0010
0100
,  // measure 72
0001
0010
1000
0000
0001
0100
1000
0000
,  // measure 73
2000
0010
3010
0000
0200
0001
0301
0000
,  // measure 74
0010
0001
0100
0010
2000
0100
3100
0000
,  // measure 75
0010
0001
1000
0010
0100
0000
1001
0000
,  // measure 76
0010
0100
1000
0000
0101
0000
0011
0000
,  // measure 77
0010
0100
1000
0001
0100
1000
0100
0001
,  // measure 78
1000
0100
0020
0001
0031
0000
1100
0000
,  // measure 79
1000
0000
0010
0100
0102
0000
1003
0000
,  // measure 80
0100
0010
1000
0100
0010
1000
0010
0001
,  // measure 81
0100
0000
1010
0000
0101
0000
0011
0010
,  // measure 82
0220
0000
0000
0000
0000
0000
0000
0000
0000
0000
0000
0000
0000
0000
0000
0000
0000
0000
0000
0000
0000
0000
0000
0000
0000
0000
0000
0000
0000
0000
0000
0000
0000
0000
0000
0000
0000
0330
0000
0000
0000
0000
0000
0000
0000
0000
0000
0000
;
