#TITLE:Meta - Luna - Dial;
#SUBTITLE:;
#ARTIST:AKHT;
#TITLETRANSLIT:;
#SUBTITLETRANSLIT:;
#ARTISTTRANSLIT:;
#CREDIT:Siveran;
#BANNER:metalunadial-banner.png;
#BACKGROUND:metalunadial-bg.png;
#LYRICSPATH:;
#CDTITLE:title.png;
#MUSIC:s_th_mld.mp3;
#OFFSET:-0.845;
#SAMPLESTART:170.000;
#SAMPLELENGTH:21.220;
#SELECTABLE:YES;
#BPMS:0.000=160.000;
#STOPS:;
#BGCHANGES:;
// cache tags:
#FIRSTBEAT:0.000;
#LASTBEAT:588.000;
#SONGFILENAME:Songs/Astronomic Metal Collection 2/(Roi Siveran vs SulferDragon) Meta - Luna - Dial/s_th_mld.sm;
#HASMUSIC:1;
#HASBANNER:1;
#MUSICLENGTH:239.391;
// end cache tags

//---------------dance-single - ----------------
#NOTES:
     dance-single:
     :
     Challenge:
     13:
     1.000,1.000,1.000,1.000,1.000,1479.000,508.000,294.000,0.000,63.000:
2001
0000
0010
0000
0001
0000
0100
0000
0001
0000
0100
0010
0001
0010
0100
0000
,
3101
0000
0010
0000
0001
0000
0100
0000
0001
0000
1000
0001
0100
0000
1000
0000
,
0201
0000
0010
0000
0001
0000
1000
0000
0001
0000
1000
0010
0001
0010
1000
0000
,
0312
0000
0000
0100
0000
0000
0010
0000
0000
1000
0000
0000
0010
0100
1000
0010
0100
1000
0010
0100
1000
0010
0100
1000
,
0113
0000
0001
0000
0101
0000
0010
0000
1010
0000
0001
0100
1001
0100
0001
0000
,
1100
0000
0001
0000
0110
0000
1000
0000
0011
0000
1000
0100
1001
0000
1001
0000
,
1010
0000
0100
0000
0011
0000
0001
0000
0110
0000
0001
1000
0101
1000
0001
0000
,
0011
0000
0011
0000
0101
0000
1000
0000
1001
1000
0010
1000
0101
0000
1000
1000
,
0101
0010
1100
0010
1000
0100
0011
0100
1000
0100
1001
0010
0001
0010
1001
0100
,
1000
0100
0011
0100
1000
0100
0011
0100
1000
0001
0110
1000
0100
0010
1001
0100
,
1000
0100
0011
0100
0001
0010
1001
0010
0100
0010
1100
0001
0100
0001
1100
0010
,
0100
1000
0101
1000
0001
0010
1100
0010
0100
1000
0101
0010
0100
0001
1010
0001
,
1100
0010
0101
0010
1000
0100
0011
0100
0001
0010
1100
0010
0100
0010
0101
1000
,
0100
1000
0101
0010
1000
0100
0011
0100
1000
0100
1001
0010
0100
0001
0110
0001
,
1000
0100
1010
0100
0001
0010
1001
0010
0100
0010
0101
1000
0100
1000
0101
0010
,
0001
1000
0110
1000
0001
0010
1001
0010
1100
0001
1000
0001
1000
0001
1000
0001
,
1010
0000
0000
0000
0000
0000
0000
0000
0000
0000
0000
0000
0100
0000
0000
0000
0000
0000
0000
0000
0000
0000
0000
0000
1001
0000
0000
0000
0000
0000
0000
0000
0000
0000
0000
0000
0100
0000
0000
0000
0000
0000
0000
0000
0000
0000
0000
0000
1000
0000
0000
0000
0000
0000
0000
0000
0000
0000
0000
0000
0020
0000
0000
0000
0000
0000
0000
0000
0000
0000
0000
0000
1030
0000
0000
0000
0000
0000
0000
0000
0000
0000
0000
0000
0000
0000
0000
0000
0000
0000
0000
0000
0000
0000
0000
0000
0200
0000
0000
0000
0000
0000
0000
0000
0000
0000
0000
0000
0000
0000
0000
0000
0000
0000
0000
0000
0000
0000
0000
0000
1000
0000
0000
0000
0000
0000
0300
0000
0000
0000
0000
0000
0002
0000
0000
0000
0000
0000
0000
0000
0000
0000
0000
0000
0000
0000
0000
0000
0000
0000
0000
0000
0000
0000
0000
0000
0000
0000
0000
0000
0003
0000
0000
0000
0000
0000
0000
0000
0210
0000
0000
0000
0000
0000
0000
0000
0000
0000
0000
0000
0000
0000
0000
0000
0000
0000
0000
0000
0000
0000
0000
0000
,
0000
0000
0000
0010
0000
0000
0000
0000
0000
2310
0000
0000
3200
0000
0000
1320
0000
0000
0032
0000
0000
1023
0000
0030
,
0100
1000
0101
0010
0100
0001
1010
0100
2000
3000
0001
0020
0000
0000
0001
0000
,
0000
0000
0000
0000
0000
0000
0001
0000
0000
0000
0000
0000
0000
0000
0000
0000
0000
0000
0001
0000
0000
0000
0000
0000
0231
0000
0000
0000
0000
0000
0312
0000
0000
0000
0000
0003
0201
0000
0000
0001
0000
0000
2301
0000
0000
0001
0000
3000
,
0210
0000
0000
0000
0000
0000
1000
0000
0000
0302
0000
0000
0000
0000
0000
0000
0000
0003
1200
0000
0000
0000
0300
0000
0010
0000
0000
0001
0000
0000
1010
0000
0000
0100
0000
0000
0001
0000
0000
0010
0000
0000
1001
0000
0000
0100
0000
0000
,
2000
0000
0000
0001
0000
0000
0000
0000
0000
3201
0000
0000
0320
0000
0000
1032
0000
0000
0023
0000
0000
1230
0000
0300
,
1000
0001
0110
0001
1000
0001
1100
0001
0010
0001
1100
0001
0010
0001
1100
0001
,
1000
0000
0000
0001
0000
0000
0110
0000
0000
0001
0000
0000
1000
0000
0000
0001
0000
0000
1010
0000
0000
0000
0000
0000
0101
0000
0000
0000
0000
0000
0011
0000
0000
0000
0000
0000
0110
0000
1000
0000
0001
0000
1100
0000
0000
0010
0000
0000
,
1002
0000
0003
0000
0011
0000
1000
0000
0010
0000
0100
0001
1010
0100
0010
1000
,
0102
0000
0003
0000
0011
0000
1000
0000
0010
0000
0100
0001
1010
0100
0010
1000
,
0012
0000
0003
0000
0011
0000
1000
0000
0010
0000
0100
0001
1010
0100
0010
1000
,
0102
0000
0003
0000
0011
0000
1000
0000
0101
0010
0001
0010
0001
0010
0001
0010
,
2001
0000
3010
0000
1000
0000
0011
0000
0001
0000
0010
1000
0100
0010
1100
0001
,
2010
0000
3100
0000
1100
0000
0001
0000
0000
0000
0010
1000
0101
1010
0101
0001
,
2100
0000
3001
0000
1000
0000
0011
0000
0001
0000
0010
1000
0101
0010
0100
0001
,
2010
0000
0000
0000
3010
0000
0000
0000
1010
0000
0000
0000
0011
0000
0000
0000
0010
0000
0000
0001
0110
0000
1100
0000
0011
0000
1010
0000
0101
0000
0011
0100
,
2001
0001
0000
0001
0000
0001
0000
0001
,
0000
0001
0000
0001
3020
0100
0000
1230
,
0010
0000
0000
1000
0000
0000
0010
0000
0000
1000
0000
0000
0320
0000
0000
0000
0000
0000
0100
0000
0000
0000
0000
0000
0001
0000
0100
0000
1000
0000
0132
0000
0000
0000
0000
0000
0100
0000
0000
0010
0000
0000
0100
0000
0000
0000
0000
0000
,
2013
0001
0000
0001
0000
0001
0000
0001
,
0000
0001
0000
0001
3210
0000
0000
2301
,
0010
0000
0100
0010
0100
0000
0010
0000
3201
0000
0000
0000
0010
0000
0000
0000
0000
0000
0000
0000
0010
0000
0000
0000
0000
0000
0000
0000
0010
0000
0000
0000
,
0000
0010
0000
0010
0000
0010
0302
1000
,
0000
0000
0123
0000
0100
1000
0100
0000
0230
0000
0010
0000
0000
0000
2310
0000
,
0000
0000
3120
0001
0000
0001
0000
0001
,
0000
0000
0001
0000
0000
0000
0001
0000
0001
0000
0001
0001
2130
0000
0000
0000
,
0000
3210
0000
0000
1320
0000
0000
0132
,
0010
1000
0000
0000
0013
0100
0010
0100
0010
0100
0010
0100
1001
0000
0110
0000
,
1000
0000
0110
0000
0001
0000
0110
0001
0010
0001
0110
0000
0101
0000
0011
0000
,
1000
0000
0011
0000
0100
0000
0011
1000
0010
0000
1100
0000
0011
0000
1100
0000
,
0010
0000
1100
0000
0001
0000
1001
0100
1000
0100
1001
0000
0110
0000
1100
0000
,
0001
0000
1100
0000
1000
0000
0011
0100
0010
0000
1001
0000
1010
0000
1100
0000
,
0001
0000
1100
0000
0010
0000
1001
0010
1000
0010
1001
0000
0101
0000
1100
0000
,
0001
0000
1100
0000
0010
0000
0011
1000
0001
0000
0110
0000
0011
0000
1100
0000
,
0001
0000
1100
0000
0100
0000
1001
0010
0001
0010
1001
0000
1010
0000
0110
0000
,
1000
0000
0110
0000
1001
0000
0100
1000
0101
0001
0001
0001
1010
0000
0110
0000
,
1000
0000
0110
0000
0001
0000
0110
0001
0010
0001
0110
0000
0101
0000
0011
0000
,
1000
0000
0011
0000
0100
0000
0011
1000
0010
0000
1100
0000
0011
0000
1100
0000
,
0010
0000
1100
0000
0001
0000
1001
0100
1000
0100
1001
0000
0110
0000
1100
0000
,
0001
0000
1100
0000
1000
0000
0011
0100
0010
0000
1001
0000
1010
0000
1100
0000
,
0001
0000
1100
0000
0010
0000
1001
0010
1000
0010
1001
0000
0101
0000
1100
0000
,
0001
0000
1100
0000
0010
0000
0011
1000
0001
0000
0110
0000
0011
0000
1100
0000
,
0001
0000
1100
0000
0100
0000
1001
0010
0001
0010
1001
0000
0020
0030
0120
0030
,
0020
0030
0120
0030
0022
0033
0000
0220
0330
0000
2200
3300
0101
0000
0011
0000
,
1000
0100
0011
0000
0001
0100
0011
1000
0000
1000
0011
0100
1001
0000
0011
0000
,
1000
0100
0011
0000
0001
1000
0011
0100
0010
0100
0011
0000
1100
0000
0011
0000
,
0100
0010
1001
0000
0100
0010
1001
0100
0000
0100
1001
0010
0101
0000
1001
0000
,
0100
0010
1001
0000
0100
0010
1001
0100
0001
0100
1001
0000
0011
0000
1001
0000
,
0100
0001
1010
0000
0010
0100
1010
0001
0000
0001
1010
0100
1001
0000
1010
0000
,
0100
0001
1010
0000
0001
0100
1010
0001
1000
0001
1010
0000
1100
0000
1010
0000
,
0100
0010
0101
0000
1000
0000
0101
1000
0110
1001
0110
1001
0012
0000
0000
0000
,
0000
0000
0000
0000
1023
0000
0000
1000
0000
0000
1000
0000
2230
0000
0000
0000
,
0000
0000
0000
0000
,
0000
0000
0000
0000
0000
0000
0000
0000
0000
0000
0000
0000
0000
0000
0000
0000
0000
0000
0000
0000
0000
0000
0000
0000
0000
0000
0000
0000
0000
0000
0000
0000
0000
0000
0000
0000
0000
0000
0000
0000
0000
0000
0000
0000
0000
0000
0000
3300
0002
0000
0003
0000
0000
0000
0000
0000
1001
0000
0000
0000
0010
0000
0000
0000
,
0100
0001
1010
0100
1000
0001
1100
0010
1000
0100
1001
0010
1000
0001
1100
0010
,
0200
0300
0001
0000
0110
0000
1000
0000
0011
0000
0100
1000
0011
0000
1000
0000
0110
0000
0010
0000
1010
0000
0110
0000
0002
0003
0000
0000
1100
0000
0010
0000
,
1000
0001
0110
1000
0010
1000
0011
0100
0001
1000
0110
1000
0100
0001
1010
0001
,
1000
0000
0100
0000
0011
0000
0100
0000
1000
0000
0001
0000
0110
0000
1000
0000
0010
0000
0001
0000
1100
0000
0010
0000
0002
0003
0000
0000
1100
0000
0010
0000
,
0001
0000
0100
0000
1001
0000
0010
0000
1000
0000
0001
0000
0110
0000
0001
0000
1000
0000
0100
0000
0011
0000
1000
0000
0011
0000
0100
0001
1000
0000
1000
0000
,
0011
0000
0000
0000
0000
0000
0000
0000
0000
0000
0000
0000
0100
0000
0000
0000
0000
0000
0001
0000
0000
0000
0000
0000
1000
0000
0000
0000
0000
0000
0000
0000
0000
0000
0000
0000
1000
0000
0000
0000
0000
0000
0000
0000
0000
0000
0000
0000
0021
0000
0000
0000
0000
0000
0000
0000
1000
0000
0000
0000
0000
0000
0000
0000
0100
0000
0000
0000
0000
0000
0000
0000
0001
0000
0000
0000
0000
0000
0000
0000
1000
0000
0000
0000
0000
0000
0000
0000
0100
0000
0000
0000
0000
0000
0000
0000
0001
0000
0000
0000
0000
0000
0000
0000
0100
0000
0000
0000
0000
0000
0000
0000
1000
0000
0000
0000
0000
0000
0000
0000
0001
0000
0000
0000
0000
0000
0000
0000
0100
0000
0000
0000
0000
0000
0000
0000
1000
0000
0000
0000
0000
0000
0000
0000
0132
0000
0000
0000
0000
0000
0000
0000
0000
0000
0000
0000
0000
0000
0000
0000
0000
0000
0000
0000
0000
0000
0000
0000
0000
0000
0000
0000
0000
0000
0000
0000
0000
0000
0000
0000
0203
0000
0000
0000
0000
0000
0000
0000
0000
0000
0000
0000
,
0000
0000
0000
0000
0000
0000
0320
0000
0000
0000
0000
0000
0031
0000
2000
0000
0000
0000
0000
0000
0000
3200
0000
0000
0000
0000
0000
0000
0000
0000
0320
0000
0000
0000
0000
0000
0230
0000
0000
0000
0000
0000
0000
0000
0000
0302
0000
0000
,
0000
0000
0023
0000
2030
0000
0000
3020
0000
0000
0230
0000
0302
0000
0000
2003
,
0000
0000
3002
0000
0023
0000
0000
0230
0000
0000
0302
0000
0023
0000
0000
2030
,
0000
0000
3002
0000
0203
0000
0000
2300
0000
0000
3200
0000
2300
0000
0000
0000
,
3000
0000
0000
0000
0001
0000
0010
0000
0002
0000
0000
0000
0000
0000
0203
0000
0000
0000
0000
0000
0320
0000
0000
0030
1000
0000
0100
0000
1000
0000
0020
0000
,
0000
0000
0032
0000
0023
0000
0000
0230
0000
0000
1300
0010
2000
0000
0000
0000
,
0000
3200
0000
0320
,
0000
0000
0000
0000
0032
0000
0000
0000
0000
0000
0013
0100
0001
0010
0100
1000
,
0100
1000
0100
0010
0001
0010
0100
1000
0100
1000
0100
0010
0001
0010
0100
1000
,
0001
0010
0100
1000
0001
0010
0100
1000
0100
1000
0100
0010
0001
0010
0100
1000
,
0100
1000
0100
0010
0001
0010
0100
1000
0001
0010
0100
0010
0002
0000
0000
0000
,
0000
0000
0000
0003
0000
0000
1000
0000
0000
0100
0000
0000
0010
0000
0000
0020
0000
0030
0000
0000
0000
0020
0000
0000
0000
0000
0000
0000
0000
0000
1030
0000
0000
0100
0000
0000
0010
0000
0000
0001
0000
0000
0010
0000
0000
0001
0000
0000
,
0010
0100
0010
0100
0010
1000
0010
1000
0100
1000
0100
1000
0010
1000
0010
1000
,
0100
0010
0100
0010
0100
0001
0100
0010
0001
0010
0100
1000
0001
0010
0100
1000
,
0001
0010
0100
1000
0100
1000
0100
0010
0001
0010
0100
1000
0200
0000
0000
0000
,
0000
0000
0000
0000
0000
0000
0310
0000
0000
0100
0000
0000
0011
0000
0000
0000
0101
0000
0000
0000
1010
0000
0000
0000
0011
0000
0000
0000
0101
0000
0000
0000
1010
0000
0000
0000
0220
0000
0000
0000
0000
0000
0000
0000
0000
0000
0000
0000
,
0000
0000
0000
0000
,
0000
0000
0000
0000
0000
0000
0000
0000
0000
0000
0000
0000
0000
0000
0000
0000
0000
0000
0000
0000
0000
0000
0000
0000
0000
0000
0000
0000
0000
0000
0000
0000
0000
0000
0000
0000
0000
0000
0000
0000
0000
0000
0000
0000
0000
0000
0000
0330
1001
0000
0000
0000
0000
0000
0000
0000
0010
0000
0000
0000
0000
0000
0000
0000
,
0001
0000
0001
0100
0010
1000
0001
0010
,
0001
0000
0000
0000
1000
0010
1000
0010
1000
0010
1000
0010
1001
0000
0110
0000
,
0001
0010
1001
0100
0010
0001
0010
0000
,
0011
0000
0100
0000
0010
0000
0001
0000
1010
1100
0000
0000
1001
0000
0110
0000
,
0001
0010
1001
0100
1010
1000
0110
0110
,
0110
0000
0000
0000
0110
0000
0000
0000
0110
0000
0000
0010
1001
0000
1100
0000
0101
0000
1010
0000
1000
0000
0011
0100
2001
0000
0000
0000
0010
0000
0000
0000
,
0000
0010
0000
0010
0000
0010
0000
0010
,
0000
0000
0010
0000
3002
0000
1000
0000
0000
0000
1023
0000
0100
1000
0100
1000
,
0230
0000
0000
0000
0000
0000
1000
0000
0000
0000
0000
0000
0001
0000
0010
0000
1000
0000
0321
0000
0000
0000
0000
0000
0001
0000
0000
1000
0000
0000
0001
0000
0000
0000
0000
0000
2130
0000
0000
0000
0000
0000
0010
0000
0000
0000
0000
0000
,
0000
0010
0000
0010
0000
0010
0000
0010
,
0000
0000
0000
0000
0010
0000
0000
0000
3201
0000
0000
0000
0000
0000
0000
0000
0000
0000
0000
0000
0321
0000
0000
0000
0100
0000
1000
0100
1000
0000
0100
0000
,
1032
1000
0000
1000
0000
1000
0000
1000
,
0000
1000
0000
1003
0200
0001
0000
0321
,
1000
0001
1000
0000
2030
0000
0100
0000
0000
0000
3102
0000
0000
0000
0000
0000
,
0213
0001
0000
0001
0000
0001
0000
0001
,
0000
0000
0001
0000
1000
0001
1000
0001
2310
0000
0000
0000
0010
0100
3012
0000
,
1000
0010
0100
1000
0010
0000
1000
0000
0213
0000
0000
0000
0000
0000
0000
0000
0000
0000
0000
0000
1320
0000
0100
0000
1000
0000
0100
0000
1000
0000
0100
0000
,
1031
0100
0010
0001
0100
0000
0010
0000
1001
0000
0100
0000
0010
0000
1001
0000
0100
0000
1001
0000
0010
0000
0100
0000
1001
0000
0010
0000
1001
0100
0010
1000
,
0001
0000
0010
0000
0100
0000
1000
0000
0100
0000
0010
0000
0001
0000
0010
0000
0100
0000
1000
0000
0100
0000
0010
0000
0001
0000
0010
0000
0100
0000
1000
0000
0100
0000
0010
0000
0001
0000
0000
0001
0000
0000
0001
0000
0000
0001
0000
0000
,
1100
0000
0001
0000
1010
0000
1001
0000
0100
0000
1001
0010
0100
0010
0001
0000
,
1010
0000
0101
0000
1000
0000
0101
0000
0100
0000
1001
0100
0010
0000
1001
0000
,
0011
0000
0101
0000
0010
0000
0101
0000
0001
0000
1001
0100
0010
0100
1001
0000
,
0110
0000
0101
0000
0010
0000
0101
0000
0001
0000
0110
0001
1000
0000
0110
0000
,
1100
0000
0101
0000
1000
0000
0101
0000
0100
0000
1001
0010
0100
0010
1001
0000
,
1010
0000
0101
0000
1000
0000
0101
0000
0100
0000
1001
0100
0010
0000
1001
0000
,
0011
0000
0101
0000
0010
0000
0101
0000
0001
0000
1001
0100
0010
0100
1001
0000
,
0110
0000
0101
0000
0010
0000
0101
0000
0011
0000
0100
0001
1010
0010
0110
0010
,
2200
3300
0202
0303
2200
3300
0202
0303
0220
0330
1001
0010
0100
0010
1001
0000
,
2020
3030
0202
0303
2020
3030
0202
0303
0220
0330
1001
0100
0010
0000
1001
0000
,
0022
0033
0202
0303
0022
0033
0202
0303
2020
3030
1001
0100
0010
0100
1001
0000
,
0220
0330
0202
0303
0220
0330
0202
0303
2002
3003
0110
0001
1000
0000
0110
0000
,
2200
3300
0202
0303
2200
3300
0202
0303
0220
0330
1001
0010
0100
0010
1001
0000
,
2020
3030
0202
0303
2020
3030
0202
0303
0220
0330
1001
0100
0010
0000
1001
0000
,
0022
0033
0202
0303
0022
0033
0202
0303
2020
3030
1001
0100
0010
0100
1001
0000
,
2000
0000
0001
0000
0000
0000
0001
0000
3100
0010
0100
0010
0100
0010
0100
0010
,
2002
3003
0202
0303
2002
3013
0202
0303
2002
3013
1100
0011
0100
0011
1100
0010
,
2002
3003
0202
0303
2002
3013
0202
0303
2020
3031
1100
0011
1100
0010
0101
0000
,
2002
3003
2200
3300
2002
3013
2200
3300
0202
0313
1001
0110
0001
0110
1001
0100
,
2002
3003
2200
3300
2002
3013
2200
3300
2020
3031
1100
0011
1100
0010
0101
0000
,
2002
3003
2200
3300
2002
3013
2200
3300
2002
3013
0101
1010
0100
1010
0101
0010
,
2002
3003
2200
3300
2002
3013
2200
3300
2020
3031
0110
1001
0110
1000
0101
0000
,
0022
1033
0220
0330
0022
1033
0220
0331
2020
3130
1001
0110
1001
0110
1001
0110
,
1002
0000
0000
0000
0000
0000
0000
0000
0000
0000
0000
0000
0000
0000
0000
0000
0000
0000
2003
0000
0000
0000
3000
0000
2001
0000
0000
0000
0000
0000
3020
0000
0000
0001
0000
0000
0230
0000
0000
0000
0000
0000
0321
0000
0000
0000
0000
0000
,
1032
0000
0010
0000
0000
0000
0013
0000
2000
0000
0010
0000
3200
0000
0010
0300
,
0002
1000
0000
1000
0023
0231
2300
3001
,
0102
0000
1000
0000
0000
0000
1023
0030
0020
0000
0001
0000
0000
0000
0001
0000
,
0000
0000
0001
0000
0000
0000
0001
0000
0001
0000
0001
0000
1000
0001
1000
0001
,
1130
0010
1001
0100
0001
0010
0101
0010
0100
0010
1100
0010
0001
0100
0011
0100
,
0010
0100
1001
0100
1000
0100
1010
0100
1000
0010
1100
0010
0001
0010
1001
0010
,
0100
0001
1100
0001
0010
1000
0110
1000
0011
1100
0011
1100
0011
1100
0011
1100
,
0022
0030
0000
0000
0000
0000
0000
0000
0000
0000
0000
0000
0020
0030
0000
0000
0000
0000
0000
0000
0000
0000
0000
0000
1003
0000
0000
1000
0000
0000
1000
0000
0000
1000
0000
0000
0001
0000
0010
0000
0001
0000
0100
0000
0000
0100
0000
0000
,
0022
0000
0000
0000
,
0000
0000
0000
0000
,
0033
0000
0000
0000
;

//---------------dance-single - ----------------
#NOTES:
     dance-single:
     :
     Hard:
     11:
     1.000,1.000,0.693,0.627,0.875,1366.000,166.000,150.000,0.000,31.000:
1001
0000
0010
0000
0001
0000
0100
0000
0001
0000
0010
0100
1000
0100
0010
0000
,
0101
0000
0010
0000
0001
0000
0100
0000
0001
0000
1000
0001
0100
0000
0010
0000
,
1001
0000
0010
0000
0001
0000
0100
0000
0001
0000
0010
0100
1000
0100
0010
0000
,
0101
0000
0000
0010
0000
0000
0001
0000
0000
0100
0000
0000
0001
0010
0100
1000
0001
0010
0100
1000
0001
0010
0100
1000
,
0110
0000
0001
0000
0100
0000
0010
0000
0100
0000
0001
0100
1000
0100
0001
0000
,
1000
0000
0001
0000
1000
0000
0010
0000
1000
0000
0100
0010
0001
0000
0100
0000
,
1001
0000
1000
0000
0001
0000
0010
0000
0001
0000
1000
0010
0100
0010
1000
0000
,
0100
0000
0001
0000
0101
0000
1000
0000
0001
0010
0001
1000
0010
0000
0100
0010
,
1001
0010
0100
0010
1000
0100
0010
0100
1000
0100
0001
0010
0001
0010
0001
0100
,
1000
0100
0010
0100
1000
0100
0010
0100
1000
0001
0010
1000
0100
0010
0001
0100
,
1000
0100
0010
0100
0001
0010
0001
0010
0100
0010
0100
0001
0100
0001
0100
0010
,
0100
1000
0100
1000
0001
0010
0100
0010
0100
1000
0001
0010
0100
0001
0010
0001
,
1100
0010
0100
0010
1000
0100
0010
0100
0001
0010
0100
0010
0100
0010
0100
1000
,
0100
1000
0100
0010
1000
0100
0010
0100
1000
0100
0001
0010
0100
0001
0010
0001
,
1000
0100
0010
0100
0001
0010
0001
0010
0100
0010
0100
1000
0100
1000
0100
0010
,
0001
1000
0100
1000
0001
0010
0001
0010
0100
1000
0100
1000
0100
0010
0100
0001
,
1010
0000
0000
0000
0000
0000
0000
0000
0000
0000
0000
0000
0100
0000
0000
0000
0000
0000
0000
0000
0000
0000
0000
0000
1000
0000
0000
0000
0000
0000
0000
0000
0000
0000
0000
0000
0100
0000
0000
0000
0000
0000
0000
0000
0000
0000
0000
0000
1000
0000
0000
0000
0000
0000
0000
0000
0000
0000
0000
0000
0020
0000
0000
0000
0000
0000
0000
0000
0000
0000
0000
0000
0030
0000
0000
0000
0000
0000
0000
0000
0000
0000
0000
0000
0000
0000
0000
0000
0000
0000
0000
0000
0000
0000
0000
0000
0200
0000
0000
0000
0000
0000
0000
0000
0000
0000
0000
0000
0000
0000
0000
0000
0000
0000
0000
0000
0000
0000
0000
0000
0000
0000
0000
0000
0000
0000
0300
0000
0000
0000
0000
0000
0002
0000
0000
0000
0000
0000
0000
0000
0000
0000
0000
0000
0000
0000
0000
0000
0000
0000
0000
0000
0000
0000
0000
0000
0000
0000
0000
0000
0003
0000
0000
0000
0000
0000
0000
0000
0200
0000
0000
0000
0000
0000
0000
0000
0000
0000
0000
0000
0000
0000
0000
0000
0000
0000
0000
0000
0000
0000
0000
0000
,
0000
0000
0000
0000
0000
0000
0000
0000
0000
2300
0000
0000
3200
0000
0000
0320
0000
0000
0032
0000
0000
0023
0000
0030
,
0100
1000
0100
0010
0100
0001
0010
0100
2000
3000
0000
0020
0000
0000
0000
0000
,
0000
0000
0000
0000
0000
0000
0000
0000
0000
0000
0000
0000
0000
0000
0000
0000
0000
0000
0000
0000
0000
0000
0000
0000
0230
0000
0000
0000
0000
0000
0302
0000
0000
0000
0000
0003
0200
0000
0000
0000
0000
0000
2300
0000
0000
0000
0000
3000
,
0210
0000
0000
0000
0000
0000
0000
0000
0000
0302
0000
0000
0000
0000
0000
0000
0000
0003
0200
0000
0000
0000
0300
0000
0010
0000
0000
0001
0000
0000
0010
0000
0000
0100
0000
0000
0001
0000
0000
0010
0000
0000
0001
0000
0000
0100
0000
0000
,
2000
0000
0000
0000
0000
0000
0000
0000
0000
3200
0000
0000
0320
0000
0000
0032
0000
0000
0023
0000
0000
0230
0000
0300
,
1000
0001
0010
0001
1000
0001
0100
0001
0010
0001
0100
0001
0010
0001
0100
0001
,
1000
0001
0110
0001
1000
0001
1010
0000
0101
0000
0011
0000
0110
0000
1100
0000
,
1002
0000
0003
0000
0001
0000
1000
0000
0000
0000
0100
0001
0010
0100
0010
1000
,
0002
0000
0003
0000
0001
0000
1000
0000
0000
0000
0100
0001
0010
0100
0010
1000
,
0012
0000
0003
0000
0001
0000
1000
0000
0000
0000
0000
0001
0010
0100
0010
1000
,
0002
0000
0003
0000
0001
0000
1000
0000
0001
0010
0001
0010
0001
0010
0001
0010
,
2001
0000
3000
0000
1000
0000
0001
0000
0000
0000
0010
1000
0100
0010
0100
0001
,
2000
0000
3000
0000
1000
0000
0001
0000
0000
0000
0010
1000
0100
0010
0100
0001
,
2100
0000
3000
0000
1000
0000
0001
0000
0000
0000
0010
1000
0100
0010
0100
0001
,
2010
0000
3010
0000
1010
0000
0011
0000
0010
0000
0100
0010
0001
0010
1000
0100
,
2001
0001
0000
0001
0000
0001
0000
0001
,
0000
0001
0000
0001
3020
0100
0000
1230
,
0010
1000
0010
1000
0320
0000
0100
0000
0000
0000
0032
0000
0000
0000
0000
0000
,
2013
0001
0000
0001
0000
0001
0000
0001
,
0000
0001
0000
0001
3210
0000
0000
2301
,
0000
0000
3201
0010
0000
0010
0000
0010
,
0000
0010
0000
0010
0000
0010
0302
1000
,
0000
0000
0123
0000
0100
1000
0100
0000
0230
0000
0010
0000
0000
0000
2310
0000
,
0000
0000
3120
0001
0000
0001
0000
0001
,
0000
0000
0001
0000
0000
0000
0001
0000
0001
0000
1000
0001
2130
0000
0000
0000
,
0000
3210
0000
0000
1320
0000
0000
0132
,
0000
0000
0000
0000
0013
0100
0010
0100
0010
0100
0010
0100
1001
0000
0001
0000
,
1000
0000
0001
0000
0100
0000
0001
0010
0100
0010
0001
0000
0110
0000
0001
0000
,
1000
0000
0001
0000
0100
0000
1000
0100
0010
0000
1000
0000
0011
0000
0100
0000
,
0010
0000
0100
0000
0001
0000
1000
0100
0010
0100
1000
0000
0110
0000
0100
0000
,
0010
0000
0100
0000
0001
0000
0100
0001
1000
0000
0010
0000
1010
0000
0001
0000
,
1000
0000
0001
0000
0100
0000
0001
0010
0100
0010
0001
0000
0110
0000
0001
0000
,
1000
0000
0001
0000
0100
0000
1000
0100
0010
0000
1000
0000
0011
0000
0100
0000
,
0010
0000
0100
0000
0001
0000
1000
0100
0010
0100
1000
0000
1010
0000
0100
0000
,
0010
0000
0100
0000
0011
0000
0100
0001
1000
0100
1000
0100
1010
0000
0001
0000
,
1000
0000
0001
0000
0100
0000
0001
0010
0100
0010
0001
0000
0110
0000
0001
0000
,
1000
0000
0001
0000
0100
0000
1000
0100
0010
0000
1000
0000
0011
0000
0100
0000
,
0010
0000
0100
0000
0001
0000
1000
0100
0010
0100
1000
0000
0110
0000
0100
0000
,
0010
0000
0100
0000
0001
0000
0100
0001
1000
0000
0010
0000
1010
0000
0001
0000
,
1000
0000
0001
0000
0100
0000
0001
0010
0100
0010
0001
0000
0110
0000
0001
0000
,
1000
0000
0001
0000
0100
0000
1000
0100
0010
0000
1000
0000
0011
0000
0100
0000
,
0010
0000
0100
0000
0001
0000
1000
0100
0010
0100
1000
0000
0020
0030
0020
0030
,
0020
0030
0020
0030
0022
0033
0000
0220
0330
0000
2200
3300
1001
0000
0010
0000
,
1000
0100
0010
0000
0001
0100
0010
1000
0000
0001
0010
0100
1010
0000
0010
0000
,
0100
0001
1000
0000
0100
0010
0001
1000
0001
1000
0001
0000
1100
0000
0001
0000
,
0100
0010
1000
0000
0001
0010
0100
1000
0000
0010
0100
0001
1010
0000
0100
0000
,
0001
0010
0100
0000
0010
0100
1000
0010
1000
0010
1000
0000
0101
0000
0001
0000
,
1000
0100
0010
0000
0001
0100
0010
1000
0000
0001
0010
0100
1001
0000
0010
0000
,
1000
0001
0100
0000
0010
1000
0001
0100
0001
0100
0001
0000
1100
0000
0010
0000
,
0100
0010
1000
0000
0001
0000
0010
0001
0010
1000
0100
0010
1002
0000
0000
0000
,
0000
0000
0000
0000
1023
0000
0000
1000
0000
0000
1000
0000
2230
0000
0000
0000
,
0000
0000
0000
0000
,
0000
0000
0000
0000
0000
0000
0000
0000
0000
0000
0000
0000
0000
0000
0000
0000
0000
0000
0000
0000
0000
0000
0000
0000
0000
0000
0000
0000
0000
0000
0000
0000
0000
0000
0000
0000
0000
0000
0000
0000
0000
0000
0000
0000
0000
0000
0000
3300
0002
0000
0003
0000
0000
0000
0000
0000
1000
0000
0000
0000
0010
0000
0000
0000
,
0100
0001
0010
0100
1000
0001
0100
0010
1000
0100
0001
0010
1000
0001
1000
0010
,
0200
0300
0001
0000
0010
0000
1000
0000
0001
0000
0100
0000
0001
0000
1000
0000
0010
0000
0000
0000
1000
0000
0010
0000
0002
0003
0000
0000
1000
0000
0010
0000
,
1000
0001
0100
1000
0010
1000
0001
0100
0001
1000
0010
1000
0100
0001
0010
0001
,
1000
0000
0100
0000
0001
0000
0100
0000
1000
0000
0001
0000
0100
0000
1000
0000
0010
0000
0001
0000
1000
0000
0010
0000
0002
0003
0000
0000
1000
0000
0010
0000
,
0001
0100
1000
0010
1000
0001
0100
0001
1000
0010
0001
1000
0100
0001
1000
0010
,
0100
0000
0000
0000
0001
0000
0000
0000
1000
0000
0000
0000
0100
0000
0000
0000
2020
0000
0000
0000
0000
0000
0000
0000
0000
0000
0000
0000
0000
0000
0000
0000
0000
0000
0000
0000
0000
0000
0000
0000
0000
0000
0000
0000
0000
0000
0000
3030
0002
0000
0000
0000
0000
0000
0000
0000
0000
0000
0000
0000
0203
0000
0000
0000
,
0000
0000
0000
0000
0000
0000
0320
0000
0000
0000
0000
0000
0031
0000
2000
0000
0000
0000
0000
0000
0000
3200
0000
0000
0000
0000
0000
0000
0000
0000
0320
0000
0000
0000
0000
0000
0230
0000
0000
0000
0000
0000
0000
0000
0000
0302
0000
0000
,
0000
0000
0023
0000
2030
0000
0000
3020
0000
0000
0230
0000
0302
0000
0000
2003
,
0000
0000
3002
0000
0023
0000
0000
0230
0000
0000
0302
0000
0023
0000
0000
2030
,
0000
0000
3002
0000
0203
0000
0000
2300
0000
0000
3200
0000
2300
0000
0000
0000
,
3000
0000
0000
0000
0001
0000
0010
0000
0002
0000
0000
0000
0000
0000
0203
0000
0000
0000
0000
0000
0320
0000
0000
0030
1000
0000
0100
0000
1000
0000
0020
0000
,
0000
0000
0032
0000
0023
0000
0000
0230
0000
0000
1300
0010
2000
0000
0000
0000
,
0000
3200
0000
0320
,
0000
0000
0000
0000
0032
0000
0000
0000
0000
0000
0013
0100
0001
0010
0100
1000
,
0100
1000
0100
0010
0001
0010
0100
1000
0100
1000
0100
0010
0001
0010
0100
1000
,
0001
0010
0100
1000
0001
0010
0100
1000
0100
1000
0100
0010
0001
0010
0100
1000
,
0100
1000
0100
0010
0001
0010
0100
1000
0001
0010
0100
0010
0002
0000
0000
0000
,
0000
0003
1000
0100
0010
0002
0003
0002
0000
0000
1003
0100
0010
0001
0010
0001
,
0010
0100
0010
0100
0010
1000
0010
1000
0100
1000
0100
1000
0010
1000
0010
1000
,
0100
0010
0100
0010
0100
0001
0100
0010
0001
0010
0100
1000
0001
0010
0100
1000
,
0001
0010
0100
1000
0100
1000
0100
0010
0001
0010
0100
1000
0200
0000
0000
0000
,
0000
0000
0000
0000
0000
0000
0310
0000
0000
0100
0000
0000
1000
0000
0000
0000
0001
0000
0000
0000
0010
0000
0000
0000
1000
0000
0000
0000
0001
0000
0000
0000
1000
0000
0000
0000
0220
0000
0000
0000
0000
0000
0000
0000
0000
0000
0000
0000
,
0000
0000
0000
0000
,
0000
0000
0000
0000
0000
0000
0000
0000
0000
0000
0000
0000
0000
0000
0000
0000
0000
0000
0000
0000
0000
0000
0000
0000
0000
0000
0000
0000
0000
0000
0000
0000
0000
0000
0000
0000
0000
0000
0000
0000
0000
0000
0000
0000
0000
0000
0000
0330
1001
0000
0000
0000
0000
0000
0000
0000
0010
0000
0000
0000
0000
0000
0000
0000
,
0001
0000
0001
0100
0010
1000
0001
0010
,
0001
0000
0000
0000
1000
0010
1000
0010
1000
0010
1000
0010
1001
0000
0110
0000
,
0001
0010
1001
0100
0010
0001
0010
0000
,
0011
0000
0100
0000
0010
0000
0001
0000
1010
0100
0000
0000
1001
0000
0110
0000
,
0001
0010
1001
0100
1010
1000
0110
0110
,
0110
0000
0110
0000
0110
0000
1000
0010
1000
0001
0100
0010
2001
0000
0010
0000
,
0000
0010
0000
0010
0000
0010
0000
0010
,
0000
0000
0010
0000
3002
0000
1000
0000
0000
0000
1023
0000
0100
1000
0100
1000
,
0230
1000
0000
0320
0000
0000
2130
0010
,
0000
0010
0000
0010
0000
0010
0000
0010
,
0000
0010
3201
0000
0000
0321
0000
0000
,
1032
1000
0000
1000
0000
1000
0000
1000
,
0000
1000
0000
1003
0200
0001
0000
0321
,
1000
0001
1000
0000
2030
0000
0100
0000
0000
0000
3102
0000
0000
0000
0000
0000
,
0213
0001
0000
0001
0000
0001
0000
0001
,
0000
0000
0001
0000
1000
0001
1000
0001
2310
0000
0000
0000
0000
0000
3012
0000
,
0000
0000
0000
0000
0213
0000
0000
0000
0000
0000
1310
0100
1000
0100
1000
0100
,
1001
0000
0000
0000
1001
0000
0000
1001
0000
1001
0000
0000
1001
0000
1001
0000
,
1000
0000
0100
0000
0010
0000
0001
0000
0010
0000
0100
0000
1000
0000
0100
0000
0010
0000
0001
0000
0010
0000
0100
0000
1000
0000
0100
0000
0010
0000
0001
0000
0010
0000
0100
0000
1000
0000
0000
0001
0000
0000
1000
0000
0000
0001
0000
0000
,
1100
0000
0001
0000
1000
0000
0001
0000
0100
0000
0001
0010
0100
0010
0001
0000
,
1010
0000
0100
0000
1000
0000
0100
0000
0010
0000
0001
0010
0100
0000
0010
0000
,
0011
0000
0100
0000
0001
0000
0100
0000
0010
0000
1000
0001
0100
0001
1000
0000
,
0110
0000
0100
0000
0001
0000
0100
0000
0010
0000
1000
0001
0100
0000
0001
0000
,
1100
0000
0100
0000
1000
0000
0100
0000
0010
0000
0100
0010
0001
0010
0100
0000
,
1010
0000
0100
0000
1000
0000
0100
0000
0010
0000
0001
0010
0100
0000
1000
0000
,
0011
0000
0100
0000
0001
0000
0100
0000
0010
0000
1000
0001
0100
0001
1000
0000
,
0110
0000
0100
0000
0001
0000
0100
0000
0011
0000
1000
0001
0100
0010
0100
0010
,
1100
0000
0100
0000
1000
0000
0100
0000
0010
0000
0100
0010
0001
0010
0100
0000
,
1010
0000
0100
0000
1000
0000
0100
0000
0010
0000
0001
0010
0100
0000
0010
0000
,
0011
0000
0100
0000
0001
0000
0100
0000
0010
0000
1000
0001
0100
0001
1000
0000
,
0110
0000
0100
0000
0001
0000
0100
0000
0010
0000
1000
0001
0100
0000
0001
0000
,
1100
0000
0100
0000
1000
0000
0100
0000
0010
0000
0100
0010
0001
0010
0100
0000
,
1010
0000
0100
0000
1000
0000
0100
0000
0010
0000
0001
0010
0100
0000
1000
0000
,
0011
0000
0100
0000
0001
0000
0100
0000
0010
0000
1000
0001
0100
0001
1000
0000
,
0002
0000
0000
0000
0000
0000
0000
0000
0103
0010
0100
0010
0100
0010
0100
0010
,
1001
0000
0101
0000
1001
0000
0101
0000
1010
0000
0100
0001
1000
0001
0100
0000
,
1001
0000
0101
0000
1001
0000
0101
0000
1010
0000
0100
0010
0100
0000
0011
0000
,
1100
0000
1010
0000
1100
0000
1010
0000
0011
0000
1000
0100
0010
0100
1000
0000
,
1100
0000
1010
0000
1100
0000
1010
0000
0011
0000
0100
0001
0100
0000
1001
0000
,
0110
0000
0101
0000
0110
0000
0101
0000
1001
0000
0100
0001
0010
0001
0100
0000
,
0110
0000
0101
0000
0110
0000
0101
0000
1001
0000
0100
1000
0100
0000
1010
0000
,
1001
0000
0011
0000
1001
0000
0011
0000
1100
0000
0010
0100
0001
0100
0010
0100
,
1002
0000
0000
0000
0000
0000
0000
0000
0000
0000
0000
0000
0000
0000
0000
0000
0000
0000
2003
0000
0000
0000
3000
0000
2001
0000
0000
0000
0000
0000
3020
0000
0000
0001
0000
0000
0230
0000
0000
0000
0000
0000
0321
0000
0000
0000
0000
0000
,
1032
0000
0010
0000
0000
0000
0013
0000
2000
0000
0010
0000
3200
0000
0010
0300
,
0002
1000
0000
1000
0023
0231
2300
3001
,
0102
0000
1000
0000
0000
0000
1023
0030
0020
0000
0001
0000
0000
0000
0001
0000
,
0000
0000
0001
0000
0000
0000
0001
0000
0001
0000
0001
0000
1000
0001
1000
0001
,
1130
0010
1000
0100
0001
0010
0001
0010
0100
0010
0100
0010
0001
0100
0001
0100
,
0010
0100
1000
0100
1000
0100
1000
0100
1000
0010
1000
0010
0001
0010
0001
0010
,
0100
0001
0100
0001
0010
1000
0010
1000
0001
0100
0001
0100
0001
0100
0001
0100
,
0022
0000
0000
0000
0000
0000
0033
0000
0000
0000
0000
0000
0000
0000
0000
0000
0000
0000
0000
0000
0000
0000
0000
0000
0100
0000
0000
0001
0000
0000
1000
0000
0000
0010
0000
0000
1000
0000
0001
0000
1000
0000
0010
0000
0000
0100
0000
0000
,
0022
0000
0000
0000
,
0000
0000
0000
0000
,
0033
0000
0000
0000
;
