#TITLE:Elite Four Battle!;
#SUBTITLE:Pokémon X & Y;
#ARTIST:Jun'ichi Masuda, Shota Kageyama & Game Freak;
#TITLETRANSLIT:;
#SUBTITLETRANSLIT:;
#ARTISTTRANSLIT:;
#CREDIT:owenviau1;
#BANNER:../owenviau1 Simfiles 6 (Science X Owen);
#BACKGROUND:BG.PNG;
#LYRICSPATH:;
#CDTITLE:;
#MUSIC:Pokemon X & Y Super Music Collection Battle! Elite Four.mp3;
#OFFSET:-0.602;
#SAMPLESTART:11.217;
#SAMPLELENGTH:29.999;
#SELECTABLE:YES;
#BPMS:0.000=180.000;
#STOPS:;
#BGCHANGES:;
// cache tags:
#FIRSTBEAT:0.000;
#LASTBEAT:817.000;
#SONGFILENAME:Songs/owenviau1 Simfiles 6/Elite Four Battle! - [owenviau1] v1.0.1/Elite Four Battle!.sm;
#HASMUSIC:1;
#HASBANNER:0;
#MUSICLENGTH:279.725;
// end cache tags

//---------------dance-single - 16 (owenviau1)----------------
#NOTES:
     dance-single:
     16 (owenviau1):
     Challenge:
     16:
     1.000,1.000,0.526,0.393,1.000,3012.000,147.000,110.000,6.000,0.000:
1000
0010
1000
0100
0010
0001
0100
0001
1000
0010
0100
0001
1000
0100
0010
0001
,
0100
0010
1000
0001
1000
0010
0100
0001
0010
0001
1000
0010
1000
0100
0010
0001
,
0100
0010
1000
0001
0010
0001
0100
0010
1000
0100
1000
0001
1000
0010
0100
0001
,
1000
0010
1000
0001
0100
0001
1000
0100
1000
0010
0100
0001
1000
0100
0010
0001
,
0010
0100
1000
0010
0100
0001
1000
0010
1000
0001
0010
0001
1000
0100
0010
0001
,
0100
0010
1000
0100
0010
0001
0100
0010
1000
0100
1000
0001
1000
0010
0100
0001
,
0010
0001
0100
0010
0100
0001
1000
0010
0100
0010
1000
0001
1000
0010
0100
0001
,
0010
0100
1000
0001
0100
0001
1000
0010
1000
0100
0010
0001
0100
0010
0100
0001
,
1000
0000
0010
0000
0110
0000
0001
1000
0001
0000
0100
0000
1010
0000
0001
0100
,
0010
0000
1000
0000
0110
0000
0001
1000
0010
0000
0100
0000
1001
0000
0100
0010
,
0001
0000
0100
0000
1010
0000
0001
0100
0010
0000
1000
0000
0110
0000
0001
1000
,
0001
0000
0010
0000
0101
0000
1000
0010
1000
0000
0001
0000
1100
0000
0010
0000
,
1000
0100
0010
0001
0100
0010
1000
0100
1000
0001
0100
0001
1000
0010
0100
0001
,
1000
0100
0010
0001
1000
0001
0010
0100
1000
0010
0100
0001
1000
0100
1000
0010
,
0100
0001
0010
0100
1000
0010
0100
0001
0010
0001
1000
0010
1000
0001
0100
0010
,
1000
0100
0010
0001
0100
0010
1000
0001
0010
0001
0100
0010
1000
0100
0010
0001
,
1000
0010
0100
0010
1000
0001
4000
3100
0010
0001
0400
0310
0100
0001
4000
3010
,
0400
0301
0040
0031
4000
3100
0040
0031
0010
0100
4000
3010
0100
0001
4000
3010
,
1000
0100
0010
0001
0100
0001
4000
3100
1000
0001
0040
0130
1000
0010
0400
0301
,
0400
0310
4000
3010
0400
0301
4000
3001
0100
0010
4000
3100
0040
0031
0040
0130
,
2000
3001
0100
0001
0010
0100
1000
0010
0100
0001
1000
0100
1000
0010
0100
0001
,
0010
0001
1000
0010
0100
0001
1000
0100
0010
0001
0100
0010
1000
0001
0010
0001
,
2000
3001
0100
0010
1000
0100
0010
0001
0100
0010
1000
0010
0100
0001
0010
0100
,
1000
0001
0100
0010
0100
0001
1000
0001
0100
0010
0100
0001
1000
0100
0010
0001
,
2000
3010
0100
0001
4000
3100
0040
0031
0100
0010
4000
3001
1000
0010
0400
0301
,
0040
0031
4000
3010
4000
3100
0040
0031
0100
0010
4000
3001
0040
0031
0400
0310
,
4000
3100
1000
0001
1000
0010
0400
0301
1000
0010
4000
3001
0100
0001
4000
3100
,
1000
0010
0400
0301
4000
3100
0040
0031
0010
0100
4000
3010
0400
0301
4000
3010
,
2000
3001
0010
0001
1000
0100
0010
0001
0100
0010
1000
0100
0010
0001
0100
0010
,
1000
0100
1000
0001
1000
0010
0100
0001
0010
0001
1000
0010
0100
0001
1000
0010
,
0200
0310
1000
0001
1000
0010
0100
0001
0010
0100
1000
0001
0100
0001
1000
0010
,
1000
0100
0010
0001
0100
0010
0100
0001
1000
0100
0010
0001
0100
0010
1000
0100
,
2000
3001
0100
0001
1000
0010
0100
0001
1000
0100
0010
0001
0100
0001
0010
0100
,
1000
0010
0100
0001
1000
0100
1000
0010
0100
0001
0010
0100
1000
0010
0100
0001
,
0020
0031
1000
0010
1000
0001
0100
0010
1000
0100
0010
0001
0100
0010
1000
0001
,
0010
0001
0100
0010
1000
0100
0010
0001
1000
0010
0100
0010
1000
0100
0010
0001
,
1000
0000
0010
0000
1100
0000
0001
0000
0010
0100
1000
0000
0011
0000
0100
0010
,
1000
0000
0001
1000
0001
0010
0100
1000
0010
0100
0001
1000
0100
0010
0001
0100
,
0010
1000
0001
0010
0001
0100
0010
1000
0100
0010
0001
0010
0100
1000
0010
0100
,
0001
0100
0010
1000
0010
0100
0001
1000
0100
0010
0001
0100
0010
1000
0001
0100
,
1001
0010
1000
0001
0010
0001
1000
0010
1000
0001
0100
0001
1000
0100
1000
0001
,
0100
0001
1000
0010
1000
0001
1000
0100
0010
0001
0010
0100
1000
0001
1000
0100
,
0010
0001
0010
0100
1000
0010
1000
0100
0010
0001
0010
0100
1000
0010
0100
0010
,
1000
0100
0010
0001
0010
0100
1000
0001
0100
0001
1000
0100
0010
0001
1000
0001
,
0200
0310
1000
0001
0100
0010
1000
0100
1000
0001
0100
0001
1000
0010
0100
0001
,
1000
0100
0010
0001
1000
0001
0010
0100
1000
0010
0100
0001
1000
0100
1000
0010
,
0200
0301
0010
0100
1000
0010
0100
0001
0010
0001
1000
0010
1000
0001
0100
0010
,
1000
0100
0010
0001
0100
0010
1000
0001
0010
0001
0100
0010
1000
0100
0010
0001
,
2000
3010
0100
0010
1000
0001
1000
0100
0010
0001
0100
0010
0100
0001
1000
0010
,
0100
0001
0010
0001
1000
0100
0010
0001
0010
0100
1000
0010
0100
0001
1000
0010
,
2000
3100
0010
0001
0100
0001
1000
0100
1000
0001
0010
0100
1000
0010
0100
0001
,
0100
0010
1000
0010
0100
0001
1000
0001
0100
0010
1000
0100
0010
0001
0010
0100
,
2000
3000
0001
0000
0110
0000
1000
0100
0020
0031
1000
0000
0120
0030
0002
0003
,
1010
0000
0100
0000
1001
0000
0100
0010
1000
0001
0100
0000
1010
0000
0001
0010
,
0200
0300
1000
0000
0110
0000
1000
0001
0200
0310
1000
0000
0102
0003
0020
1030
,
0100
0000
0010
0000
1001
0000
0010
0100
0001
1000
0010
0000
0101
0000
1000
0100
,
0020
0030
0001
0000
0110
0000
1000
0001
2000
3010
0100
0000
1002
0003
0020
1030
,
0001
0000
0100
0000
1010
0000
0001
0100
0010
1000
0001
0000
0110
0000
1000
0001
,
2000
3000
0010
0000
0101
0000
1000
0001
2000
3100
0010
0000
0102
0003
0020
1030
,
1001
0000
0100
0000
0011
0000
1000
0010
0100
0000
0001
0000
1100
0000
0010
0100
,
2000
3001
0010
0001
1000
0100
0010
0001
0100
0010
1000
0100
0010
0001
0100
0010
,
1000
0100
1000
0001
1000
0010
0100
0001
0010
0001
1000
0010
0100
0001
1000
0010
,
0200
0310
1000
0001
1000
0010
0100
0001
0020
0130
1000
0001
0200
0301
2000
3010
,
1000
0100
0010
0001
0100
0010
0100
0001
1000
0100
0010
0001
0100
0010
1000
0100
,
2000
3001
0100
0001
1000
0010
0100
0001
2000
3100
0010
0001
0200
0301
0020
0130
,
1000
0010
0100
0001
1000
0100
1000
0010
0100
0001
0010
0100
1000
0010
0100
0001
,
0020
0031
1000
0010
1000
0001
0100
0010
2000
3100
0010
0001
0200
0310
2000
3001
,
0010
0001
0100
0010
1000
0100
0010
0001
1000
0010
0100
0010
1000
0100
0010
0001
,
2000
3100
0010
0001
1000
0100
0020
0031
0100
0010
1000
0100
0010
0001
0100
0010
,
1000
0100
1000
0001
1000
0010
0100
0001
0010
0001
1000
0010
0100
0001
1000
0010
,
0200
0310
1000
0001
1000
0010
0200
0301
0010
0100
1000
0001
0100
0001
1000
0010
,
1000
0100
0010
0001
0100
0010
0100
0001
1000
0100
0010
0001
0100
0010
1000
0100
,
2000
3001
0100
0001
1000
0010
0200
0301
1000
0100
0010
0001
0100
0001
0010
0100
,
1000
0010
0100
0001
1000
0100
1000
0010
0100
0001
0010
0100
1000
0010
0100
0001
,
0020
0031
1000
0010
1000
0001
0200
0310
1000
0100
0010
0001
0100
0010
1000
0001
,
0010
0001
0100
0010
1000
0100
0010
0001
1000
0010
0100
0010
2000
3100
0010
0001
,
2000
3010
0100
0001
1000
0100
0010
0001
0100
0010
1000
0100
0010
0001
0100
0010
,
1000
0100
1000
0001
1000
0010
0100
0001
0010
0001
1000
0010
0100
0001
1000
0010
,
0200
0310
1000
0001
1000
0010
0100
0001
0010
0100
1000
0001
0100
0001
1000
0010
,
1000
0100
0010
0001
0100
0010
0100
0001
1000
0100
0010
0001
0100
0010
1000
0100
,
2000
3001
0100
0001
1000
0010
0100
0001
1000
0100
0010
0001
0100
0001
0010
0100
,
1000
0010
0100
0001
1000
0100
1000
0010
0100
0001
0010
0100
1000
0010
0100
0001
,
0020
0031
1000
0010
1000
0001
0100
0010
1000
0100
0010
0001
0100
0010
1000
0001
,
0010
0001
0100
0010
1000
0100
0010
0001
1000
0010
0100
0010
1000
0100
0010
0001
,
2000
3010
0100
0001
10M0
0100
0010
0001
0100
0010
1000
0100
0010
0001
0100
0010
,
1000
0100
1000
0001
1000
0010
0100
0001
0010
0001
1000
0010
0100
0001
1000
0010
,
0100
0010
1000
0001
1000
0010
0100
0001
0010
0100
1000
0001
0100
0001
1000
0010
,
1000
0100
0010
0001
0100
0010
0100
0001
1000
0100
0010
0001
0100
0010
1000
0100
,
1000
0001
0100
0001
1000
0010
0100
0001
1000
0100
0010
0001
0100
0001
0010
0100
,
1000
0010
0100
0001
1000
0100
1000
0010
0100
0001
0010
0100
1000
0010
0100
0001
,
0010
0001
1000
0010
1000
0001
0100
0010
1000
0100
0010
0001
0100
0010
1000
0001
,
0010
0001
0100
0010
1000
0100
0010
0001
1000
0010
0100
0010
1000
0100
0010
0001
,
1000
0001
0010
0001
1000
0100
0010
0001
0100
0010
1000
0100
0010
0001
0100
0010
,
1000
0100
1000
0001
1000
0010
0100
0001
0010
0001
1000
0010
0100
0001
1000
0010
,
0100
0010
1000
0001
1000
0010
0100
0001
0010
0100
1000
0001
0100
0001
1000
0010
,
1000
0100
0010
0001
0100
0010
0100
0001
1000
0100
0010
0001
0100
0010
1000
0100
,
1000
0001
0100
0001
1000
0010
0100
0001
1000
0100
0010
0001
0100
0001
0010
0100
,
1000
0010
0100
0001
1000
0100
1000
0010
0100
0001
0010
0100
1000
0010
0100
0001
,
0010
0001
1000
0010
1000
0001
0100
0010
1000
0100
0010
0001
0100
0010
1000
0001
,
0010
0001
0100
0010
1000
0100
0010
0001
1000
0010
0100
0010
1M00
0001
1000
0010
,
M100
0001
1000
0010
1000
0001
0010
0001
1000
0100
0010
0001
0100
0010
1000
0100
,
0010
0001
0100
0010
1000
0100
1000
0001
1000
0010
0100
0001
0010
0001
0100
0010
,
0100
0001
1000
0010
0100
0010
1000
0001
1000
0010
0100
0001
0010
0100
1000
0001
,
0100
0001
1000
0010
1000
0100
0010
0001
0100
0010
0100
0001
1000
0010
1000
0001
,
0100
0000
0001
0000
0110
0000
0001
1000
0001
0000
0100
0000
1010
0000
0001
0100
,
0010
0000
1000
0000
0110
0000
0001
1000
0010
0000
0100
0000
1001
0000
0100
0010
,
0001
0000
0100
0000
1010
0000
0001
0100
0010
0000
1000
0000
0110
0000
0001
1000
,
0001
0000
0010
0000
0101
0000
1000
0010
1000
0000
0001
0000
1100
0000
0010
0000
,
1000
0100
0010
0001
0100
0010
1000
0100
1000
0001
0100
0001
1000
0010
0100
0001
,
1000
0100
0010
0001
1000
0001
0010
0100
1000
0010
0100
0001
1000
0100
1000
0010
,
0100
0001
0010
0100
1000
0010
0100
0001
0010
0001
1000
0010
1000
0001
0100
0010
,
1000
0100
0010
0001
0100
0010
1000
0001
0010
0001
0100
0010
1000
0100
0010
0001
,
1000
0010
0100
0010
1000
0001
4000
3100
0010
0001
0400
0310
0100
0001
4000
3010
,
0400
0301
0040
0031
4000
3100
0040
0031
0010
0100
4000
3010
0100
0001
4000
3010
,
1000
0100
0010
0001
0100
0001
4000
3100
1000
0001
0040
0130
1000
0010
0400
0301
,
0400
0310
4000
3010
0400
0301
4000
3001
0100
0010
4000
3100
0040
0031
0040
0130
,
2000
3001
0100
0001
0010
0100
1000
0010
0100
0001
1000
0100
1000
0010
0100
0001
,
0010
0001
1000
0010
0100
0001
1000
0100
0010
0001
0100
0010
1000
0001
0010
0001
,
2000
3001
0100
0010
1000
0100
0010
0001
0100
0010
1000
0010
0100
0001
0010
0100
,
1000
0001
0100
0010
0100
0001
1000
0001
0100
0010
0100
0001
1000
0100
0010
0001
,
2000
3010
0100
0001
4000
3100
0040
0031
0100
0010
4000
3001
1000
0010
0400
0301
,
0040
0031
4000
3010
4000
3100
0040
0031
0100
0010
4000
3001
0040
0031
0400
0310
,
4000
3100
1000
0001
1000
0010
0400
0301
1000
0010
4000
3001
0100
0001
4000
3100
,
1000
0010
0400
0301
4000
3100
0040
0031
0010
0100
4000
3010
0400
0301
4000
3010
,
2000
3001
0010
0001
1000
0100
0010
0001
0100
0010
1000
0100
0010
0001
0100
0010
,
1000
0100
1000
0001
1000
0010
0100
0001
0010
0001
1000
0010
0100
0001
1000
0010
,
0200
0310
1000
0001
1000
0010
0100
0001
0010
0100
1000
0001
0100
0001
1000
0010
,
1000
0100
0010
0001
0100
0010
0100
0001
1000
0100
0010
0001
0100
0010
1000
0100
,
2000
3001
0100
0001
1000
0010
0100
0001
1000
0100
0010
0001
0100
0001
0010
0100
,
1000
0010
0100
0001
1000
0100
1000
0010
0100
0001
0010
0100
1000
0010
0100
0001
,
0020
0031
1000
0010
1000
0001
0100
0010
1000
0100
0010
0001
0100
0010
1000
0001
,
0010
0001
0100
0010
1000
0100
0010
0001
1000
0010
0100
0010
1000
0100
0010
0001
,
1000
0000
0010
0000
1100
0000
0001
0000
0010
0100
1000
0000
0011
0000
0100
0010
,
1000
0000
0001
1000
0001
0010
0100
1000
0010
0100
0001
1000
0100
0010
0001
0100
,
0010
1000
0001
0010
0001
0100
0010
1000
0100
0010
0001
0010
0100
1000
0010
0100
,
0001
0100
0010
1000
0010
0100
0001
1000
0100
0010
0001
0100
0010
1000
0001
0100
,
1001
0010
1000
0001
0010
0001
1000
0010
1000
0001
0100
0001
1000
0100
1000
0001
,
0100
0001
1000
0010
1000
0001
1000
0100
0010
0001
0010
0100
1000
0001
1000
0100
,
0010
0001
0010
0100
1000
0010
1000
0100
0010
0001
0010
0100
1000
0010
0100
0010
,
1000
0100
0010
0001
0010
0100
1000
0001
0100
0001
1000
0100
0010
0001
1000
0001
,
0200
0310
1000
0001
0100
0010
1000
0100
1000
0001
0100
0001
1000
0010
0100
0001
,
1000
0100
0010
0001
1000
0001
0010
0100
1000
0010
0100
0001
1000
0100
1000
0010
,
0200
0301
0010
0100
1000
0010
0100
0001
0010
0001
1000
0010
1000
0001
0100
0010
,
1000
0100
0010
0001
0100
0010
1000
0001
0010
0001
0100
0010
1000
0100
0010
0001
,
2000
3010
0100
0010
1000
0001
1000
0100
0010
0001
0100
0010
0100
0001
1000
0010
,
0100
0001
0010
0001
1000
0100
0010
0001
0010
0100
1000
0010
0100
0001
1000
0010
,
2000
3100
0010
0001
0100
0001
1000
0100
1000
0001
0010
0100
1000
0010
0100
0001
,
0100
0010
1000
0010
0100
0001
1000
0001
0100
0010
1000
0100
0010
0001
0010
0100
,
2000
3000
0001
0000
0110
0000
1000
0100
0020
0031
1000
0000
0120
0030
0002
0003
,
1010
0000
0100
0000
1001
0000
0100
0010
1000
0001
0100
0000
1010
0000
0001
0010
,
0200
0300
1000
0000
0110
0000
1000
0001
0200
0310
1000
0000
0102
0003
0020
1030
,
0100
0000
0010
0000
1001
0000
0010
0100
0001
1000
0010
0000
0101
0000
1000
0100
,
0020
0030
0001
0000
0110
0000
1000
0001
2000
3010
0100
0000
1002
0003
0020
1030
,
0001
0000
0100
0000
1010
0000
0001
0100
0010
1000
0001
0000
0110
0000
1000
0001
,
2000
3000
0010
0000
0101
0000
1000
0001
2000
3100
0010
0000
0102
0003
0020
1030
,
1001
0000
0100
0000
0011
0000
1000
0010
0100
0000
0001
0000
1100
0000
0010
0100
,
2000
3001
0010
0001
1000
0100
0010
0001
0100
0010
1000
0100
0010
0001
0100
0010
,
1000
0100
1000
0001
1000
0010
0100
0001
0010
0001
1000
0010
0100
0001
1000
0010
,
0200
0310
1000
0001
1000
0010
0100
0001
0020
0130
1000
0001
0200
0301
2000
3010
,
1000
0100
0010
0001
0100
0010
0100
0001
1000
0100
0010
0001
0100
0010
1000
0100
,
2000
3001
0100
0001
1000
0010
0100
0001
2000
3100
0010
0001
0200
0301
0020
0130
,
1000
0010
0100
0001
1000
0100
1000
0010
0100
0001
0010
0100
1000
0010
0100
0001
,
0020
0031
1000
0010
1000
0001
0100
0010
2000
3100
0010
0001
0200
0310
2000
3001
,
0010
0001
0100
0010
1000
0100
0010
0001
1000
0010
0100
0010
1000
0100
0010
0001
,
2000
3100
0010
0001
1000
0100
0020
0031
0100
0010
1000
0100
0010
0001
0100
0010
,
1000
0100
1000
0001
1000
0010
0100
0001
0010
0001
1000
0010
0100
0001
1000
0010
,
0200
0310
1000
0001
1000
0010
0200
0301
0010
0100
1000
0001
0100
0001
1000
0010
,
1000
0100
0010
0001
0100
0010
0100
0001
1000
0100
0010
0001
0100
0010
1000
0100
,
2000
3001
0100
0001
1000
0010
0200
0301
1000
0100
0010
0001
0100
0001
0010
0100
,
1000
0010
0100
0001
1000
0100
1000
0010
0100
0001
0010
0100
1000
0010
0100
0001
,
0020
0031
1000
0010
1000
0001
0200
0310
1000
0100
0010
0001
0100
0010
1000
0001
,
0010
0001
0100
0010
1000
0100
0010
0001
1000
0010
0100
0010
2000
3100
0010
0001
,
2000
3010
0100
0001
1000
0100
0010
0001
0100
0010
1000
0100
0010
0001
0100
0010
,
1000
0100
1000
0001
1000
0010
0100
0001
0010
0001
1000
0010
0100
0001
1000
0010
,
0200
0310
1000
0001
1000
0010
0100
0001
0010
0100
1000
0001
0100
0001
1000
0010
,
1000
0100
0010
0001
0100
0010
0100
0001
1000
0100
0010
0001
0100
0010
1000
0100
,
2000
3001
0100
0001
1000
0010
0100
0001
1000
0100
0010
0001
0100
0001
0010
0100
,
1000
0010
0100
0001
1000
0100
1000
0010
0100
0001
0010
0100
1000
0010
0100
0001
,
0020
0031
1000
0010
1000
0001
0100
0010
1000
0100
0010
0001
0100
0010
1000
0001
,
0010
0001
0100
0010
1000
0100
0010
0001
1000
0010
0100
0010
1000
0100
0010
0001
,
2000
3010
0100
0001
10M0
0100
0010
0001
0100
0010
1000
0100
0010
0001
0100
0010
,
1000
0100
1000
0001
1000
0010
0100
0001
0010
0001
1000
0010
0100
0001
1000
0010
,
0100
0010
1000
0001
1000
0010
0100
0001
0010
0100
1000
0001
0100
0001
1000
0010
,
1000
0100
0010
0001
0100
0010
0100
0001
1000
0100
0010
0001
0100
0010
1000
0100
,
1000
0001
0100
0001
1000
0010
0100
0001
1000
0100
0010
0001
0100
0001
0010
0100
,
1000
0010
0100
0001
1000
0100
1000
0010
0100
0001
0010
0100
1000
0010
0100
0001
,
0010
0001
1000
0010
1000
0001
0100
0010
1000
0100
0010
0001
0100
0010
1000
0001
,
0010
0001
0100
0010
1000
0100
0010
0001
1000
0010
0100
0010
1000
0100
0010
0001
,
1000
0001
0010
0001
1000
0100
0010
0001
0100
0010
1000
0100
0010
0001
0100
0010
,
1000
0100
1000
0001
1000
0010
0100
0001
0010
0001
1000
0010
0100
0001
1000
0010
,
0100
0010
1000
0001
1000
0010
0100
0001
0010
0100
1000
0001
0100
0001
1000
0010
,
1000
0100
0010
0001
0100
0010
0100
0001
1000
0100
0010
0001
0100
0010
1000
0100
,
1000
0001
0100
0001
1000
0010
0100
0001
1000
0100
0010
0001
0100
0001
0010
0100
,
1000
0010
0100
0001
1000
0100
1000
0010
0100
0001
0010
0100
1000
0010
0100
0001
,
0010
0001
1000
0010
1000
0001
0100
0010
1000
0100
0010
0001
0100
0010
1000
0001
,
0010
0001
0100
0010
1000
0100
0010
0001
1000
0010
0100
0010
1M00
0001
1000
0010
,
M100
0001
1000
0010
1000
0001
0010
0001
1000
0100
0010
0001
0100
0010
1000
0100
,
0010
0001
0100
0010
1000
0100
1000
0001
1000
0010
0100
0001
0010
0001
0100
0010
,
0100
0001
1000
0010
0100
0010
1000
0001
1000
0010
0100
0001
0010
0100
1000
0001
,
0100
0001
1000
0010
1000
0100
0010
0001
0100
0010
0100
0001
1000
0010
1000
0001
,
0100
0000
1000
0000
0110
0000
0001
1000
0001
0000
0100
0000
1010
0000
0001
0100
,
0010
0000
1000
0000
0110
0000
0001
1000
0010
0000
0100
0000
1001
0000
0100
0010
,
0001
0000
0100
0000
1010
0000
0001
0100
0010
0000
1000
0000
0110
0000
0001
1000
,
0001
0000
0010
0000
0101
0000
1000
0010
1000
0000
0001
0000
1100
0000
0010
0000
,
2002
3003
0000
0000
,
0000
0000
0000
0000
,
0000
0000
0000
0000
,
0000
0000
0000
0000
,
0000
0000
0000
0000
,
0000
0000
0000
0000
;
