#TITLE:DXY!;
#SUBTITLE:;
#ARTIST:TaQ;
#TITLETRANSLIT:;
#SUBTITLETRANSLIT:;
#ARTISTTRANSLIT:;
#CREDIT:;
#BANNER:DXY!.png;
#BACKGROUND:DXY!-bg.png;
#LYRICSPATH:;
#CDTITLE:cdtitle_caboose.PNG;
#MUSIC:DXY!.mp3;
#OFFSET:-0.087;
#SAMPLESTART:77.680;
#SAMPLELENGTH:12.000;
#SELECTABLE:YES;
#BPMS:0.000=147.930;
#STOPS:;
#BGCHANGES:;
// cache tags:
#FIRSTBEAT:8.000;
#LASTBEAT:255.500;
#SONGFILENAME:Songs/toune/DXY!/DXY!.sm;
#HASMUSIC:1;
#HASBANNER:1;
#MUSICLENGTH:104.811;
// end cache tags

//---------------dance-single - ----------------
#NOTES:
     dance-single:
     :
     Hard:
     8:
     0.562,0.631,0.544,0.000,0.057,355.000,57.000,0.000,0.000,0.000:
0000
0000
0000
0000
,
0000
0000
0000
0000
,
1000
0100
0001
0010
,
1000
0100
0001
0010
,
0000
0000
1000
0100
0000
0000
1000
0100
0000
0000
0001
0010
0000
0000
0001
0010
,
0000
0000
1000
0100
0000
0000
1000
0100
0000
0000
0001
0010
0000
0000
0001
0010
,
0000
0000
1000
0100
0000
0000
0010
0001
0000
0000
1000
0010
0000
0000
0100
0001
,
0000
0000
0000
0000
,
1000
0010
1000
0001
0010
0100
1000
0000
,
0001
0100
0001
1000
0010
0100
0001
0000
,
1000
0100
0001
0100
1000
0010
0100
0000
,
0001
0100
1000
0100
0001
0010
0100
0000
,
1000
0001
0100
0010
1000
0100
0010
0000
,
0001
1000
0100
0010
0001
0100
0010
0000
,
1000
0100
0001
0010
1000
0100
0010
0000
,
0000
1001
0000
1001
,
0010
0010
1001
0000
0010
0010
1001
0000
,
0100
0100
1001
0000
0100
0100
1001
0000
,
0010
0010
1100
0000
0010
0010
0101
0000
,
0010
0010
1100
0000
0001
0001
1100
0000
,
0010
0001
1100
0000
0010
0100
1001
0000
,
0100
0010
1100
0000
0010
0001
1100
0000
,
0010
0001
0110
0000
1000
0100
0011
0000
,
1000
0010
0101
0000
1000
0001
0110
0000
,
0001
0001
0000
0000
0000
1100
0000
0000
,
0010
0000
0000
0000
0000
0101
0000
0000
,
1000
0000
0000
0000
0000
0110
0000
0000
,
1000
0000
0000
0000
0000
0011
0000
0000
,
0100
0100
0000
0000
0000
1001
0000
0000
,
0010
0000
0000
0000
0000
0110
0000
0000
,
1000
0000
0000
0000
0000
0101
0000
0000
,
0010
0000
0000
0000
0000
1100
0000
0000
,
0010
0001
1000
0010
0100
0001
1001
0000
,
0100
0010
0001
0100
0001
1000
0110
0000
,
0001
1000
0100
0010
0001
0100
1001
0000
,
0100
0010
0001
0100
0010
1000
1100
0000
,
0010
0001
1000
0010
0100
0001
1001
0000
,
0100
0010
0001
1000
0100
0010
1001
0000
,
0100
0010
1000
0100
0010
0001
1000
0010
,
0100
0001
1000
0100
0010
0001
0101
0000
,
1000
0010
0100
0001
0010
0100
1000
0001
,
0010
0001
0100
0001
1000
0010
0100
0001
,
1000
0100
0010
0001
1000
0010
0100
0001
,
1000
0100
0010
0001
0100
0010
1000
0100
,
0010
0001
0010
1000
0010
0001
0100
0010
,
1000
0100
0010
0001
1000
0010
0100
0001
,
1000
0100
1000
0001
0100
0010
1000
0100
,
0010
0000
0000
0000
,
0100
0010
1001
0100
0010
0100
1001
0010
,
0100
0010
1001
0100
0010
0100
1001
0010
,
0100
0001
1001
0100
0010
0001
1001
0100
,
0010
0001
0101
0010
1000
0100
0110
0001
,
0100
0010
1010
0001
0010
0100
1100
0001
,
0100
0010
1010
0001
0100
0010
1010
0001
,
0010
0100
1100
0010
0100
0001
1001
0100
,
0010
0001
1001
0100
0010
0001
1001
0000
,
0010
0000
0010
0000
0010
1001
0000
0000
,
0010
0000
0010
0000
0010
1001
0000
0000
,
0100
0000
0100
0000
0100
1001
0000
0000
,
0100
0000
0100
0000
0100
1001
0000
0000
,
0010
0000
1000
0000
0100
0110
0000
0000
,
0001
0000
0100
0000
0010
1001
0000
0000
,
0100
0000
0010
0000
0001
1001
0000
0000
,
0110
0000
0000
0000
;

//---------------dance-double - ----------------
#NOTES:
     dance-double:
     :
     Easy:
     4:
     0.350,0.391,0.496,0.000,0.000,205.000,52.000,0.000,0.000,0.000:
00000000
00000000
00000000
00000000
,
00000000
00000000
00000000
00000000
,
10000000
00100000
10000000
00100000
,
01000000
00010000
01000000
00010000
,
00100000
00001000
00010000
01000000
,
00100000
00001000
00010000
01000000
,
00100000
00001000
00010000
01000000
,
00100000
00000000
00000000
00000000
,
00001000
00010000
00000010
00001000
,
00000100
00010000
00001000
00000100
,
00000010
00010000
00000100
00000010
,
00001000
00010000
00000010
00001000
,
00000100
00010000
00001000
00000010
,
00000001
00000100
00000010
00001000
,
00000100
00000010
00000001
00001000
,
00000000
00000100
00000000
00000100
,
00000000
00010000
00000000
01000000
,
00000000
00001000
00000000
00000100
,
00000000
00010000
00000000
01000000
,
00000000
00001000
00000000
00000100
,
00000000
00010000
00000000
00100000
,
00000000
00001000
00000000
00000010
,
00000000
00010000
00000000
00100000
,
00000000
00001000
00000000
00000010
,
00001001
00000000
00000000
00000000
00000000
00000100
00000000
00000000
,
00011000
00000000
00000000
00000000
00000000
00100000
00000000
00000000
,
10010000
00000000
00000000
00000000
00000000
01000000
00000000
00000000
,
10010000
00000000
00000000
00000000
00000000
00100000
00000000
00000000
,
00011000
00000000
00000000
00000000
00000000
00000100
00000000
00000000
,
00001001
00000000
00000000
00000000
00000000
00000010
00000000
00000000
,
00001001
00000000
00000000
00000000
00000000
00000100
00000000
00000000
,
00011000
00000000
00000000
00000000
00000000
00100000
00000000
00000000
,
10010000
01000000
00100000
00010000
,
01100000
00010000
01000000
00001000
,
10010000
01000000
00100000
00010000
,
01100000
00010000
00100000
00001000
,
10010000
01000000
00100000
00010000
,
01100000
00010000
01000000
00001000
,
10010000
01000000
00100000
00010000
,
01000000
00001000
00010000
00000010
,
00001000
00001001
00000010
00001001
,
00000100
00001001
00000010
00001001
,
00010000
00011000
00100000
00011000
,
01000000
00011000
00100000
00011000
,
10000000
10010000
01000000
10010000
,
00100000
10010000
01000000
10010000
,
00001000
00011000
00000010
00011000
,
00000100
00000000
00000000
00000000
,
00000010
00001001
00000100
00000110
,
00010000
00011000
01000000
01100000
,
10000000
10010000
00100000
01100000
,
00001000
00011000
00000010
00000110
,
00000001
00001001
00000100
00000110
,
00010000
00011000
00100000
01100000
,
00010000
10010000
01000000
01100000
,
00001000
00011000
00000010
00000110
,
00000001
00001000
00000100
00000110
,
00001000
00000010
00000100
00001001
,
00000100
00010000
00001000
00011000
,
00100000
01000000
10000000
10010000
,
01000000
00100000
10000000
10010000
,
00100000
00001000
00010000
00011000
,
00000100
00000010
00000001
00001001
,
00000100
00000000
00000000
00000000
;

//---------------dance-double - ----------------
#NOTES:
     dance-double:
     :
     Medium:
     6:
     0.453,0.481,0.525,0.000,0.000,277.000,55.000,0.000,0.000,0.000:
00000000
00000000
00000000
00000000
,
00000000
00000000
00000000
00000000
,
00001000
00001000
00001000
00001000
,
00010000
00010000
00010000
00010000
,
00100000
00010000
00001000
00000010
,
00001000
00010000
00100000
00010000
,
00001000
00000010
00000001
00000100
,
00001000
00000000
00000000
00000000
,
00001001
00000000
00000100
00010000
00001000
00000000
00000010
00000000
,
00001001
00000000
00000100
00010000
00001000
00000000
00000010
00000000
,
00001001
00000000
00000100
00010000
00001000
00000000
00000010
00000000
,
00001001
00000000
00000100
00010000
00001000
00000000
00000010
00000000
,
00001001
00000000
00000010
00000100
00001000
00000000
00010000
00000000
,
00110000
00000000
01000000
10000000
00100000
00000000
01000000
00000000
,
00110000
00000000
01000000
10000000
00100000
00000000
01000000
00000000
,
00000000
10010000
00000000
00011000
,
00000010
00001001
00000010
00001100
,
00010000
00011000
00100000
10010000
,
01000000
00110000
00001000
00011000
,
00000010
00001001
00000100
00001100
,
00010000
00011000
00100000
00011000
,
00000100
00001001
00000010
00001100
,
00010000
00011000
00100000
01010000
,
10000000
01100000
10000000
01010000
,
10000000
10000000
00000000
00000000
00000000
01010000
00000000
00000000
,
00001000
00000000
00000000
00000000
00000000
00010010
00000000
00000000
,
00001000
00000000
00000000
00000000
00000000
00000101
00000000
00000000
,
00001000
00000000
00000000
00000000
00000000
00010100
00000000
00000000
,
00011000
00011000
00000000
00000000
00000000
00110000
00000000
00000000
,
11000000
00000000
00000000
00000000
00000000
01010000
00000000
00000000
,
00010010
00000000
00000000
00000000
00000000
00001001
00000000
00000000
,
00000110
00000000
00000000
00000000
00000000
00001001
00000000
00000000
,
00000010
00000100
00001000
00000000
00000010
00010000
00001000
00000000
,
00000010
00000100
00001000
00000000
00000010
00010000
00001000
00000000
,
00000010
00000100
00001000
00000000
00000010
00010000
00001000
00000000
,
00000010
00000100
00001000
00000000
00000010
00010000
00001000
00000000
,
00100000
01000000
10000000
00000000
00010000
01000000
00001000
00000000
,
00100000
01000000
10000000
00000000
00010000
01000000
00001000
00000000
,
00100000
01000000
10000000
00000000
00010000
01000000
00001000
00000000
,
00100000
01000000
10000000
00010000
01000000
00001000
00010000
00000000
,
00001010
00000000
00000001
00000010
00000001
00000010
00000100
00000000
,
00001001
00000000
00000010
00010000
00000010
00010000
00001000
00000000
,
00110000
00000000
10000000
00100000
10000000
00100000
01000000
00000000
,
10010000
00000000
00100000
00001000
00100000
00001000
00010000
00000000
,
00001010
00000000
00000001
00000010
00000001
00000010
00000100
00000000
,
00001001
00000000
00000010
00010000
00000010
00010000
00001000
00000000
,
00110000
00000000
10000000
00100000
10000000
00100000
01000000
00000000
,
10010000
00000000
00000000
00000000
,
00011000
00000000
00000010
00000100
00001000
00010000
00001000
00000000
,
00011000
00000000
00100000
01000000
00010000
00001000
00100000
00000000
,
10010000
00000000
00100000
01000000
00001000
00010000
00001000
00000000
,
00011000
00000000
00000010
00000001
00000100
00001000
00010000
00000000
,
00011000
00000000
00100000
01000000
00010000
00001000
00010000
00000000
,
00011000
00000000
00000010
00000100
00001000
00010000
00000010
00000000
,
00001001
00000000
00000010
00000100
00010000
00001000
00010000
00000000
,
00011000
00000000
00100000
10000000
01000000
00010000
00001000
00000000
,
00000010
00000001
00000010
00000000
00000000
00000100
00000000
00000000
,
00010000
00000010
00010000
00000000
00000000
00001000
00000000
00000000
,
00100000
00010000
00100000
00000000
00000000
01000000
00000000
00000000
,
10000000
00100000
10000000
00000000
00000000
00010000
00000000
00000000
,
01000000
00001000
00010000
00000000
00000000
00000010
00000000
00000000
,
00001000
00000001
00000010
00000000
00000000
00000100
00000000
00000000
,
00010000
00001000
01000000
00000000
00000000
00100000
00000000
00000000
,
10010000
00000000
00000000
00000000
;

//---------------dance-double - ----------------
#NOTES:
     dance-double:
     :
     Hard:
     8:
     0.542,0.571,0.611,0.000,0.000,334.000,64.000,0.000,0.000,0.000:
00000000
00000000
00000000
00000000
,
00000000
00000000
00000000
00000000
,
10000000
01000000
00100000
00010000
,
00100000
01000000
00010000
00001000
,
00001010
00000000
00000100
00000001
00000010
00000100
00001000
00000000
,
00011000
00000000
00100000
00010000
10000000
00100000
01000000
00000000
,
10010000
00000000
00100000
00001000
00010000
00000100
00010000
00001000
,
00100000
00000000
00000000
00000000
,
10010000
00000000
00100000
00001000
01000000
00010000
00100000
00000000
,
00011000
00000000
00000100
00000010
00000001
00000100
00000010
00000000
,
00001001
00000000
00000010
00010000
00000100
00001000
00000010
00000000
,
00011000
00000000
01000000
00100000
10000000
01000000
00100000
00000000
,
10010000
00000000
01000000
00001000
00010000
00000100
00000010
00000000
,
00001001
00000000
00000100
00010000
00001000
00100000
01000000
00000000
,
10010000
00000000
01000000
00100000
00010000
01000000
00001000
00000000
,
00000000
00010010
00000000
00001001
,
00000010
00000100
00001001
00000000
00000000
00000000
00010100
00000000
,
00010000
00001000
00011000
00000000
00000000
00000000
00110000
00000000
,
10000000
00100000
01100000
00000000
00000000
00000000
00101000
00000000
,
00010000
00000100
00001010
00000000
00000000
00000000
00000101
00000000
,
00001000
00000100
00001001
00000000
00000000
00000000
00011000
00000000
,
00100000
00010000
10010000
00000000
00000000
00000000
01100000
00000000
,
00010000
01000000
01001000
00000000
00000000
00000000
00010010
00000000
,
00000100
00000010
00001001
00000000
00000000
00000000
00000110
00000000
,
00001001
00000110
00000000
00000000
00000000
00011000
00000000
00000000
,
00110000
00000000
00000000
00000000
00000000
11000000
00000000
00000000
,
01010000
00000000
00000000
00000000
00000000
00011000
00000000
00000000
,
00001010
00000000
00000000
00000000
00000000
00000101
00000000
00000000
,
00001100
00000101
00000000
00000000
00000000
00001010
00000000
00000000
,
00011000
00000000
00000000
00000000
00000000
10010000
00000000
00000000
,
00011000
00000000
00000000
00000000
00000000
00001001
00000000
00000000
,
00000110
00000000
00000000
00000000
00000000
00001001
00000000
00000000
,
00000010
00010000
00011000
00000000
00100000
00010000
10000000
01000000
,
00100000
00001000
00011000
00000000
00000100
00000001
00000100
00001000
,
00000010
00010000
00011000
00000000
00000100
00000010
00000001
00001000
,
00000010
00010000
00011000
00000000
00100000
10000000
00100000
00010000
,
01000000
00001000
00011000
00000000
00000010
00000001
00000010
00001000
,
00000100
00000010
00001001
00000000
00000100
00010000
00001000
00100000
,
00010000
01000000
01100000
00000000
10000000
01000000
01100000
00000000
,
00010000
01000000
00100000
00010000
00001000
00000010
00001001
00000000
,
00000010
00000100
00000001
00000100
00001000
00000010
00000100
00001000
,
00010000
01000000
00010000
00001000
00000100
00000001
00000010
00000100
,
00001000
00000010
00000100
00001000
00010000
00001000
00000010
00000001
,
00000100
00001000
00010000
01000000
10000000
00010000
01000000
00100000
,
10000000
01000000
00100000
00010000
01000000
00100000
00010000
00001000
,
00000010
00001000
00010000
00100000
00010000
00001000
00000010
00000001
,
00001000
00000010
00000100
00000001
00001000
00000100
00010000
00001000
,
00010000
00000000
00000000
00000000
,
00100000
00010000
10000000
01000000
00100000
00010000
01000000
01100000
,
10000000
01000000
00010000
00001000
00000100
00000001
00000010
00000110
,
00001000
00000001
00000100
00001000
00000100
00000001
00000010
00000110
,
00000001
00001000
00000100
00000010
00001000
00010000
00100000
01100000
,
10000000
01000000
00100000
00010000
01000000
00001000
00010000
00011000
,
00000100
00000001
00000100
00001000
00000010
00010000
00001000
00011000
,
00100000
01000000
10000000
00010000
01000000
00001000
00010000
00011000
,
00000010
00000001
00000010
00001000
00000100
00000010
00000001
00001001
,
00000100
00000000
00000100
00000000
00000100
00010000
00001000
00000000
,
00100000
00000000
00100000
00000000
00100000
00010000
10000000
00000000
,
01000000
00000000
01000000
00000000
01000000
00100000
00001000
00000000
,
00010000
00000000
00010000
00000000
00010000
00000010
00000001
00000000
,
00001000
00000000
00001000
00000000
00001000
00000100
00010000
00000000
,
00001000
00000000
00001000
00000000
00001000
00100000
10000000
00000000
,
00100000
00000000
00001000
00000000
00010000
00000010
00000001
00000000
,
00001001
00000000
00000000
00000000
;

//---------------dance-single - ----------------
#NOTES:
     dance-single:
     :
     Challenge:
     11:
     0.796,0.914,0.830,0.000,0.983,497.000,87.000,0.000,0.000,0.000:
0000
0000
0000
0000
,
0000
0000
0000
0000
,
1100
0000
0000
1000
0000
0100
0000
1000
0000
0100
0000
1000
0100
0000
0000
0000
,
0011
0000
0000
0001
0000
0010
0000
0001
0000
0010
0000
0001
0010
0000
0000
0000
,
0110
0000
0000
1000
0000
0100
0000
0100
0000
0010
0000
0010
0001
0000
0000
0000
,
1001
0000
0000
0001
0000
0001
0000
0010
0000
0010
0000
0100
1000
0000
0000
0000
,
1010
0000
0000
1000
0000
1000
0000
0100
0000
0100
0000
0010
0001
0000
0000
0000
,
1010
0000
0000
1000
0000
0100
0000
0010
0000
0001
0000
0001
0010
0100
1000
0000
,
1100
0000
0000
1000
0000
0010
0000
0100
0000
0001
0000
0010
0100
0010
0001
0000
,
0011
0000
0000
0100
0000
0010
0000
1000
0000
0100
0000
0010
0001
0010
0100
0000
,
0110
0000
0000
0010
0000
0100
0000
0010
0000
0100
0000
0010
0100
0010
0100
0000
,
1001
0000
0000
1000
0000
0001
0000
1000
0000
0001
0000
1000
0001
1000
0001
0000
,
0011
0000
0000
0001
0000
0010
0000
0001
0000
0010
0000
0001
0010
0001
0010
0000
,
1010
0000
0000
1000
0000
0010
0000
1000
0000
0010
0000
1000
0010
1000
0010
0000
,
1100
0000
0000
1000
0000
1000
0000
0100
0000
0100
0000
0010
0001
0010
0100
1000
,
0000
0000
0010
0100
0010
0000
1001
0000
0000
0000
0010
0100
0010
0000
1001
0000
,
0000
0000
0010
0100
0010
0000
1001
0000
0000
0000
0010
0100
0010
0000
1001
0000
,
0000
0000
0010
0100
0010
0000
1001
0000
0000
0000
1000
0100
1000
0000
1100
0000
,
0000
0000
0100
0010
0100
0000
0101
0000
0000
0000
0010
0100
0010
0000
1100
0000
,
0000
0000
0010
0100
0010
0000
0011
0000
0000
0000
0010
0100
0010
0000
1010
0000
,
0000
0000
0001
0010
0001
0000
1100
0000
0000
0000
0010
0001
0010
0000
1100
0000
,
0000
0000
0010
0100
0010
0000
1001
0000
0000
0000
0100
0010
0100
0000
1100
0000
,
0000
0000
0010
0001
0010
0000
1100
0000
0000
0000
0010
0001
0010
0000
0110
0000
,
0000
0000
1000
0100
1000
0000
0000
0000
0000
0000
1000
0000
0000
0000
0000
1000
,
0100
0000
0110
0000
0000
0000
0000
0000
0000
1001
0000
0000
0000
0000
0000
0000
,
1100
0000
0000
0000
0000
0000
0000
0000
0000
0010
0000
0000
0000
0000
0000
0000
,
0101
0000
0000
0000
0000
0000
0000
0000
0000
1000
0000
0000
0000
0000
0000
0000
,
0110
0000
0000
0000
0000
0000
0000
0000
0000
1000
0000
0000
0000
0000
0000
0000
,
1100
0000
0011
0000
0000
0000
0000
0100
0000
0100
0000
0000
0000
0000
0000
0000
,
0000
1001
0000
0000
0000
0000
0000
0000
0000
0000
0000
0000
0000
0000
0010
0000
0000
0000
0010
0000
0000
0000
0000
0000
0000
0000
0000
0000
0000
0000
0000
0000
,
0000
0110
0000
0000
0000
0000
0000
0000
0000
0000
0000
0000
0000
0000
1000
0000
0000
0000
1000
0000
0000
0000
0000
0000
0000
0000
0000
0000
0000
0000
0000
0000
,
0000
0101
0000
0000
0000
0000
0000
0000
0000
0000
0000
0000
0000
0000
0010
0000
0000
0000
0010
0000
0000
0000
0000
0000
0000
0000
0000
0000
0000
0000
0000
0000
,
1100
0000
1100
0000
0110
0000
0000
0000
0010
0000
0001
0000
1001
0000
0000
0010
,
0100
0000
0001
0000
1001
0000
0000
0000
0100
0000
0010
0000
0011
0000
0000
0100
,
0001
0000
1000
0000
0110
0000
0000
0000
0001
0000
1000
0000
0110
0000
0000
0010
,
0001
0000
0100
0000
1001
0000
0000
0000
0100
0000
0010
0000
0101
0000
0000
0100
,
0010
0000
1000
0000
1100
0000
0000
0000
0010
0000
0001
0000
1100
0000
0000
0010
,
0100
0000
0001
0000
1001
0000
0000
0000
0100
0000
0010
0000
0011
0000
0000
1000
,
0100
0000
0010
0000
1001
0001
0000
0001
0100
0010
0100
0000
1100
1000
0000
0100
,
1000
0010
0100
0001
1000
0010
0100
0001
1000
0010
0100
0001
1000
0010
0100
0001
,
1000
0000
0001
0000
0010
0001
0010
0001
0010
0001
0010
0000
0010
1000
0100
1000
,
0100
0000
1000
0000
0100
1000
0100
1000
0100
1000
0100
0000
0100
0010
0001
0010
,
0001
0000
0010
0000
0001
0010
0001
0010
0001
0010
0001
0000
0010
1000
0100
0010
,
0001
0000
0100
0000
0010
1000
0010
1000
0010
1000
0010
0000
0100
0010
0001
0010
,
0100
0000
1000
0000
0100
0010
0100
0010
0100
0010
0100
0000
0100
1000
0100
0010
,
0100
0000
0001
0000
0010
0001
0010
0001
0010
0001
0010
0000
0010
0100
0010
0100
,
1000
0000
0100
0000
0010
1000
0010
1000
0010
1000
0010
0000
0100
0010
0001
0010
,
1001
0000
0000
0000
,
1001
0000
1000
0000
0100
1000
0100
1000
0100
1000
0100
0000
0100
0001
0010
0001
,
0010
0000
0001
0000
0010
0001
0010
0001
0010
0001
0010
0000
0010
0100
1000
0100
,
1000
0000
0100
0000
1000
0100
1000
0100
1000
0100
1000
0000
0100
0001
0010
0100
,
1000
0000
0010
0000
0100
0001
0100
0001
0100
0001
0100
0000
0010
0100
1000
0100
,
0010
0000
0001
0000
0010
0100
0010
0100
0010
0100
0010
0000
0010
0001
0010
0100
,
0010
0000
1000
0000
0100
1000
0100
1000
0100
1000
0100
0000
0100
0010
0100
0010
,
0001
0000
0010
0000
0100
0001
0100
0001
0100
0001
0100
0000
0010
0100
1000
0100
,
1001
0000
1000
0100
0000
0000
0001
0100
0000
0000
1000
0100
0000
0000
0001
0100
,
0110
0000
0110
0000
0110
1001
0000
0000
,
0110
0000
0110
0000
0110
1001
0000
0000
,
0110
0000
0110
0000
0110
1001
0000
0000
,
0110
0000
0110
0000
0110
1001
0000
0000
,
0110
0000
1100
0000
0101
0110
0000
0000
,
0011
0000
1100
0000
0110
1001
0000
0000
,
0110
0000
1010
0000
0101
1001
0000
0000
,
0110
0000
0000
1000
0000
0100
0000
0010
0000
0001
0000
0001
0010
0100
1000
0000
;
