#TITLE:Demon Beast Appearance;
#SUBTITLE:;
#ARTIST:S.S.H.;
#TITLETRANSLIT:;
#SUBTITLETRANSLIT:;
#ARTISTTRANSLIT:;
#CREDIT:Mad Matt;
#BANNER:;
#BACKGROUND:;
#LYRICSPATH:;
#CDTITLE:;
#MUSIC:Demon Beast Appearance.ogg;
#OFFSET:-0.506;
#SAMPLESTART:42.692;
#SAMPLELENGTH:12.000;
#SELECTABLE:YES;
#DISPLAYBPM:136.000;
#BPMS:0.000=135.950,406.000=136.370;
#STOPS:;
#BGCHANGES:;
// cache tags:
#FIRSTBEAT:16.000;
#LASTBEAT:412.500;
#SONGFILENAME:Songs/SSSC Pack 2/Demon Beast Appearance - [Mad Matt]/Demon Beast Appearance.sm;
#HASMUSIC:1;
#HASBANNER:0;
#MUSICLENGTH:185.234;
// end cache tags

//---------------dance-single - Mad Matt----------------
#NOTES:
     dance-single:
     Mad Matt:
     Challenge:
     13:
     1.000,1.000,0.324,0.621,1.000,1143.000,60.000,115.000,0.000,0.000:

0000
0000
0000
0000
,
0000
0000
0000
0000
,
0000
0000
0000
0000
,
0000
0000
0000
0000
,
2002
0000
0000
0000
,
0000
0000
0000
0000
0000
0000
3003
0000
1000
0100
0010
0100
1000
0001
0100
0010
,
2000
0002
0000
0000
,
0000
0000
0000
0000
0000
0000
0000
0000
0000
0000
0000
0000
0000
0000
0000
0000
0000
0000
3003
0000
0000
0000
0000
0000
1000
0000
0100
0000
0010
0000
0001
0000
0000
1000
0000
0000
0010
0000
0000
0100
0000
0000
0001
0000
0000
1000
0000
0000
,
0010
0100
0001
1000
0000
1000
0100
0000
0110
0000
0010
0001
0000
0001
1000
0000
,
1010
0000
0010
0100
0000
0100
0001
0000
1000
0100
0010
0100
1000
0001
0100
0010
,
2000
0000
3010
0100
0000
0100
0001
0000
1001
0000
1000
0100
0000
0100
1000
0000
,
1001
0000
0000
0000
0000
0000
0001
0000
0000
0100
0000
0000
0000
0000
0000
0100
0000
0000
0010
0000
0000
0000
0000
0000
1000
0000
0100
0000
0010
0000
0001
0000
0000
1000
0000
0000
0010
0000
0000
1000
0000
0000
0001
0000
0000
0010
0000
0000
,
0100
0010
0001
1000
0000
1000
0010
0000
0110
0000
0100
0001
0000
0001
1000
0000
,
1100
0000
0100
0010
0000
0010
0100
0000
1000
0001
0100
0010
0100
0001
1000
0100
,
0020
0000
0031
0100
0000
0100
0001
0000
0011
0000
0010
0100
0000
0100
1000
0000
,
1001
0000
0001
0010
0000
0010
0001
0000
1000
0100
0010
0100
1000
0001
0100
0010
,
2000
0000
0000
0000
3100
0000
0000
0000
0010
0001
0010
0100
1000
0001
0100
0010
,
2000
0000
0000
0000
3100
0000
0000
0000
0010
0001
1000
0001
0100
0010
1000
0001
,
0020
0000
0000
0000
0130
0000
1000
0000
0001
0000
1000
0000
0100
0000
0010
0000
0001
0000
1000
0000
0010
0000
0100
0000
0001
0000
0100
0000
0010
1000
0001
1000
,
0001
0000
0000
0101
0000
0000
0110
0000
0000
1010
0000
0000
1001
0000
0011
0000
,
0220
0000
0000
0000
0000
0000
0330
0000
2200
0000
0000
0000
3300
0000
0001
0100
,
0020
0000
0000
0000
0000
0000
0000
0000
4030
0000
0000
0000
3100
0010
0001
0010
,
0200
0000
0000
0000
0000
0000
0000
0000
0000
2300
0000
0000
0000
0000
0000
0000
0000
0000
3002
0000
0000
0000
0000
0000
0000
0000
0000
0000
0000
0000
0103
0000
0000
0000
0000
0000
0010
0000
1000
0000
0010
0000
0000
0000
0000
0000
0000
0000
,
0200
0000
0000
0000
0000
0000
0000
0000
0301
1000
0100
0010
0000
0010
0100
1000
,
0001
0000
0010
0001
0000
1000
0001
0000
0100
0001
0000
0100
0010
0000
1010
0000
,
0002
0000
0000
0000
0000
0000
0000
0000
0043
0000
0000
0000
0130
1000
0001
0100
,
0020
0000
0000
2030
0000
0000
3200
0000
0000
0000
0000
0000
0320
0000
0230
0000
,
2300
0000
0000
0000
0000
0000
0000
0000
0000
0000
0000
0000
0000
0000
0000
0000
3001
0000
0100
0000
0010
0000
1000
0000
0001
0000
0010
0000
0100
1000
0001
1000
,
0001
0000
0000
0000
1000
0100
1000
0000
0000
0000
0100
0010
0100
0000
0000
0000
0010
0001
0010
0000
0000
0000
0001
1000
0001
0000
0100
0000
0010
0000
1000
0000
,
0100
0010
0001
0010
0100
1000
0100
0010
0001
0100
0010
1000
0010
0100
0001
0100
,
0010
1000
0100
0010
0100
1000
0001
0010
0001
1000
0010
0100
0010
1000
0001
0100
,
0001
1000
0100
0010
0001
1000
0100
0010
0001
1000
0010
0100
0001
1000
0010
0100
,
0001
0010
0100
1000
0010
0100
0001
0010
0100
1000
0100
0010
0100
1000
0001
0010
,
0001
1000
0100
0010
0001
1000
0100
0010
0001
0100
0010
1000
0010
0100
0001
1000
,
0010
1000
0001
0010
0100
1000
0001
0100
0020
0000
0000
0000
0000
0000
0000
0000
,
0000
0000
0000
0000
0200
0030
0002
0300
,
2000
0003
0200
3000
0020
0300
0000
0000
,
0200
0000
0000
0030
2000
0000
0000
3300
,
0000
1010
0000
0000
0110
0000
0101
0000
0011
0000
0000
1001
0000
0000
1010
0000
,
0000
0000
0001
0010
0100
0010
0001
1000
0010
0000
0000
0110
0000
0000
0101
0000
,
0000
0000
2000
0000
0200
0000
0000
3000
,
0020
0000
0000
0000
0000
0000
0300
0000
0002
0030
0000
2000
0003
0000
0020
3000
,
0000
0000
0000
0000
0000
0000
0000
0000
0230
0000
0000
0000
0301
1000
0001
1000
0100
0000
0000
0000
0000
0000
0110
0000
0000
0000
0000
0000
0011
0000
0000
0000
,
0000
0101
0000
0000
0110
0000
1001
0000
2020
0000
0000
0000
0000
0000
0000
0000
,
0000
0000
3000
0000
0200
0000
0000
0030
0301
1000
0100
1000
0001
0100
0001
1000
,
0200
0300
1000
0000
0001
0000
0100
0000
0020
0030
1000
0000
0100
0000
1000
0000
0002
0003
0010
0000
0100
0000
1000
0000
0200
0300
0010
0000
0100
0000
1000
0000
,
0001
0000
0100
0000
0010
0000
1000
0000
0020
0030
0100
0000
0001
0000
1000
0000
0200
0300
1000
0000
0001
0000
0100
0000
0020
0030
1000
0000
0001
0000
0010
0000
,
0100
0000
1000
0000
0100
0000
0010
0000
0002
0003
1000
0000
0010
0000
0100
0000
0002
0003
0100
0000
0010
0000
1000
0000
0200
0300
0010
0000
0001
0000
0010
0000
,
0200
0300
1000
0000
0001
0000
0100
0000
0020
0000
0000
0000
0000
0000
0000
0000
0230
0300
0001
0000
1000
0000
0100
0000
0010
0000
0100
0000
1000
0000
0001
0000
,
0200
0300
0010
0000
1000
0000
0001
0000
0020
0030
0100
0000
0010
0000
0001
0000
2000
3000
0010
0000
0100
0000
0001
0000
0020
0030
0100
0000
0010
0000
0001
0000
,
1000
0000
0010
0000
0100
0000
0001
0000
2000
3000
0100
0000
1000
0000
0010
0000
0200
0300
0001
0000
1000
0000
0010
0000
2000
3000
0001
0000
0010
0000
0100
0000
,
1000
0000
0100
0000
0010
0000
0001
0000
2000
3000
0010
0000
1000
0000
0100
0000
0020
0030
0100
0000
1000
0000
0001
0000
0200
0300
0010
0000
1000
0000
0100
0000
,
0020
0030
0001
0000
1000
0000
0010
0000
0200
0000
0000
0000
0000
0000
0301
0000
1000
0000
0100
0000
1000
0000
0001
0000
0010
0000
0100
0000
1000
0000
0001
0000
,
0100
0001
1000
0100
1000
0001
0100
0010
1000
0001
0100
0001
1000
0010
0100
0001
,
1000
0001
0010
0100
0010
0001
1000
0100
0010
0001
1000
0000
0000
0001
0010
0001
,
1000
0100
1000
0001
0100
0010
1000
0010
0200
0000
0000
0000
0000
0000
0301
1000
,
0100
0010
0100
1000
0100
0020
0000
0130
1000
0001
0100
0001
1000
0100
1000
0001
,
0010
0000
0100
0000
1000
0000
0002
0000
0000
0000
0000
0000
1003
0000
0100
0000
0010
0000
0100
0000
1000
0000
0001
0000
0100
0000
0001
0000
1000
0010
0100
0001
,
0100
0010
1000
0001
0100
0001
1000
0010
1000
0000
0001
0000
1000
0000
0100
0000
0010
0000
0100
0000
2000
0000
0000
0000
0000
0000
3001
0000
0010
0000
0100
0000
,
0010
0001
1000
0010
0100
0001
1000
0100
0020
0000
0030
0100
0000
1000
0001
0000
,
1000
0100
0010
0100
1000
0000
0001
0000
0010
0000
0100
0000
1000
0000
0001
0000
0100
0000
0001
0000
1000
0000
0010
0000
1000
0000
0001
0000
0100
0000
0001
0000
,
1000
0100
1000
0001
0010
0100
1000
0001
0010
0100
1000
0001
1000
0001
1000
0001
1000
0000
0010
0000
1000
0000
0001
0000
0000
0000
1000
0010
0100
0001
0100
0000
,
0001
1000
0100
0010
0001
1000
0100
0010
0001
0010
0100
0010
0001
1000
0001
0100
,
0001
1000
0100
0010
0001
0010
0100
1000
0001
0100
0010
1000
0001
0010
0100
1000
,
0001
0000
0000
0000
0000
0000
0100
0000
0000
0000
0000
0000
0001
0000
0000
0000
0000
0000
0100
0000
0000
0000
0000
0000
0001
0000
0000
0000
0000
0000
0000
0000
0000
0000
0000
0000
1000
0000
0000
0000
0000
0000
0000
0000
0000
0000
0000
0000
0001
0000
0000
0000
0000
0000
0010
0000
0000
0000
0000
0000
0001
0000
0000
0000
0000
0000
0000
0000
0000
0000
0000
0000
1000
0000
0000
0000
0000
0000
0010
0000
0000
0000
0000
0000
1000
0000
0000
0000
0000
0000
0000
0000
0000
0000
0000
0000
0001
0000
0000
0000
0000
0000
0000
0000
0100
0000
0000
0000
0000
0000
0000
0000
0010
0000
0000
0000
0000
0000
0000
0000
1000
0000
0000
0000
0000
0000
0000
0000
0001
0000
0000
0000
0000
0000
0000
0000
1000
0000
0000
0000
0000
0000
0000
0000
0100
0000
0000
0000
0000
0000
0000
0000
0010
0000
0000
0000
0000
0000
0000
0000
0001
0000
0000
0000
0000
0000
0000
0000
1000
0000
0000
0000
0000
0000
0000
0000
0010
0000
0000
0000
0000
0000
0000
0000
0100
0000
0000
0000
0000
0000
0000
0000
,
0001
1000
0100
0010
0001
1000
0001
0010
0100
1000
0001
0100
0001
1000
0010
0100
0001
1000
0100
0010
0100
1000
0001
0010
,
0100
0000
1000
0000
0001
0000
0100
0000
0010
0000
1000
0000
0010
0000
0100
0000
0010
0000
1000
0000
0001
0000
0100
0000
0010
0000
0000
1000
0000
0000
0100
0000
0000
1000
0000
0000
0001
0000
0000
0100
0000
0000
0001
0000
0000
1000
0000
0000
,
0010
0100
0001
0100
0010
1000
0001
1000
0200
0000
0000
0000
0000
0000
0310
0001
,
2000
0000
0000
0000
0000
0000
0000
0000
0000
0000
0000
0000
0000
0000
0000
0000
0000
0000
0000
0000
0000
3000
0000
0000
0001
0000
0010
0000
0100
0000
0010
0000
0001
0000
1000
0000
0100
0000
0010
0000
0001
0000
1000
0000
0100
0000
0010
0000
,
0001
1000
0010
1000
0001
1000
0010
0100
0001
0100
0001
1000
0100
0010
0100
1000
0001
0010
0100
1000
0100
0010
0001
1000
,
0010
0100
0001
0100
0010
1000
0001
0100
0010
1000
0001
1000
0100
0010
0001
1000
0100
1000
0100
0010
0001
0010
0001
1000
,
0010
0100
0001
1000
0010
1000
0001
1000
0010
0100
0001
1000
0100
0010
0001
0010
0100
1000
0001
0010
0001
1000
0100
0010
,
0001
0000
0000
0000
0000
0000
1000
0000
0000
0000
0000
0000
0001
0000
0000
0000
0000
0000
1000
0000
0000
0000
0000
0000
0001
0000
0000
0000
0000
0000
1000
0000
0000
0000
0000
0000
0001
0000
0000
0000
0000
0000
1000
0000
0000
0000
0000
0000
0001
0000
0000
0000
0000
0000
0000
0000
0000
0000
0000
0000
0000
0000
0000
0000
0000
0000
0000
0000
0000
0000
0000
0000
0000
0000
0000
0000
0000
0000
0000
0000
0000
0000
0000
0000
0000
0000
0000
0000
0000
0000
0000
0000
0000
0000
0000
0000
1000
0000
0000
0000
0000
0000
0000
0000
0010
0000
0000
0000
0000
0000
0000
0000
0100
0000
0000
0000
0000
0000
0000
0000
0001
0000
0000
0000
0000
0000
0000
0000
1000
0000
0000
0000
0000
0000
0000
0000
0010
0000
0000
0000
0000
0000
0000
0000
0100
0000
0000
0000
0000
0000
0000
0000
0001
0000
0000
0000
0000
0000
0000
0000
0100
0000
0000
0000
0000
0000
0000
0000
0010
0000
0000
0000
0000
0000
0000
0000
1000
0000
0000
0000
0000
0000
0000
0000
0001
0000
0000
0000
0000
0000
0000
0000
,
0010
0100
0010
0001
1000
0100
1000
0001
0010
0100
1000
0001
0100
0010
0100
0001
1000
0010
1000
0001
0100
0001
1000
0001
,
0010
0100
0010
0001
1000
0100
0010
0001
1000
0100
1000
0001
0100
0010
1000
0010
0100
0010
1000
0001
0100
0010
0100
0010
,
1000
0001
0010
0100
1000
0100
0010
0100
1000
0001
1000
0001
0100
0010
1000
0001
1000
0010
0100
0001
0100
0010
0100
0001
,
2000
0000
0000
0000
0000
0000
3000
0000
0220
0000
0000
0000
0000
0000
0330
0000
2200
0000
0000
0000
0000
0000
3300
0000
0202
0000
0000
0303
1000
0001
1000
0001
,
0010
0000
0000
0011
0000
0000
0110
0000
0000
1100
0000
0000
1001
0000
0101
0000
,
0220
0000
0000
0000
0000
0000
0330
0000
2020
0000
0000
0000
3030
0000
0001
1000
,
0200
0000
0000
0000
0000
0000
0000
0000
0340
0000
0000
0000
0130
1000
0001
0100
,
0020
0000
0000
0000
0000
0000
0000
0000
0000
2030
0000
0000
0000
0000
0000
0000
0000
0000
3200
0000
0000
0000
0000
0000
0000
0000
0000
0000
0000
0000
1300
0000
0000
0000
0000
0000
0001
0000
0100
0000
0001
0000
0000
0000
0000
0000
0000
0000
,
2000
0000
0000
0000
0000
0000
0000
0000
3001
0010
0100
1000
0000
1000
0001
0100
,
0010
0000
0100
0001
0000
1000
0100
0000
0010
0001
0000
1000
0010
0000
0110
0000
,
2000
0000
0000
0000
0000
0000
0000
0000
3004
0000
0000
0000
0013
0100
1000
0001
,
0200
0000
0000
0320
0000
0000
2030
0000
0000
0000
0000
0000
3002
0000
0023
0000
,
0230
0000
0000
0000
0000
0000
0000
0000
0000
0000
0000
0000
0000
0000
0000
0000
1300
0000
0010
0000
0100
0000
0001
0000
1000
0000
0100
0000
0010
0001
1000
0001
,
1000
0000
0000
0000
0001
0010
0001
0000
0000
0000
0010
0100
0010
0000
0000
0000
0100
1000
0100
0000
0000
0000
1000
0001
1000
0000
0010
0000
0100
0000
0001
0000
,
1000
0100
0010
0001
1000
0100
0010
0001
1000
0010
0100
0001
1000
0010
0100
0001
,
1000
0100
0010
0100
1000
0100
0010
0001
1000
0010
0100
0010
1000
0010
0100
0001
,
1000
0100
0010
0100
1000
0001
0010
0001
1000
0010
0100
0010
1000
0001
0100
0001
,
1000
0100
0010
0001
0100
0010
1000
0100
0010
0001
0010
0100
0010
0001
1000
0100
,
1000
0001
0010
0100
1000
0001
0010
0100
1000
0010
0100
0001
0100
0010
1000
0001
,
0100
0001
1000
0100
0010
0001
1000
0010
0200
0000
0000
0000
0000
0000
0000
0000
,
0000
0000
0000
0000
0002
0300
2000
0003
,
0200
3000
0020
0300
0002
0030
0000
0000
,
2000
0000
0000
0003
0020
0000
0000
3030
,
0000
0101
0000
0000
0011
0000
0110
0000
1100
0000
0000
1010
0000
0000
0101
0000
,
0000
0000
1000
0100
0010
0100
1000
0001
0100
0000
0000
0110
0000
0000
1010
0000
,
0000
0000
0002
0000
0020
0000
0000
0003
,
0200
0000
0000
0000
0000
0000
0030
0000
2000
0300
0000
0002
3000
0000
0200
0003
,
0000
0000
0000
0000
0000
0000
0000
0000
0320
0000
0000
0000
1030
0001
1000
0001
0010
0000
0000
0000
0000
0000
0110
0000
0000
0000
0000
0000
1100
0000
0000
0000
,
0000
1010
0000
0000
0110
0000
1001
0000
2200
0000
0000
0000
0000
0000
0000
0000
,
0000
0000
0000
0000
0000
0000
0000
3300
,
0001
0100
0001
0100
0001
0000
0000
0000
0000
0000
0000
0000
0000
0000
0000
0000
0000
0000
0000
0000
0000
0000
0000
0000
0000
0000
0000
0000
0000
0000
0000
0000
;
