#TITLE:Vivalavocode;
#SUBTITLE:;
#ARTIST:Leven Sto;
#TITLETRANSLIT:;
#SUBTITLETRANSLIT:;
#ARTISTTRANSLIT:;
#CREDIT:;
#BANNER:../fallback - bn.png;
#BACKGROUND:../fallback - bg.png;
#LYRICSPATH:;
#CDTITLE:;
#MUSIC:viva.ogg;
#OFFSET:-0.163;
#SAMPLESTART:98.901;
#SAMPLELENGTH:11.980;
#SELECTABLE:YES;
#DISPLAYBPM:200.000;
#BPMS:0.000=200.000,248.000=146.000,306.500=155.000,307.500=200.000;
#STOPS:;
#BGCHANGES:;
// cache tags:
#FIRSTBEAT:2.625;
#LASTBEAT:425.667;
#SONGFILENAME:Songs/Beast Aoreo BEAST!/Vivalavocode - [Aoreo]/Viva.sm;
#HASMUSIC:1;
#HASBANNER:1;
#MUSICLENGTH:134.974;
// end cache tags

//---------------dance-single - B. Abear ft. Aoreo L----------------
#NOTES:
     dance-single:
     B. Abear ft. Aoreo L:
     Challenge:
     13:
     0.759,1.000,0.370,0.185,1.000,625.000,50.000,25.000,3.000,5.000:
0000
0000
0000
0000
0000
0000
0000
0000
0000
0000
0000
0000
0000
0000
0000
0000
0000
0000
0000
0000
0000
2000
0000
0000
0000
0000
0000
0000
0000
0000
0000
0020
,
3000
0000
0000
0000
0000
0000
0000
0000
0000
0030
0000
0000
0000
0000
0000
0000
0000
0000
0000
0000
0000
0000
0000
1010
0000
0000
0000
0000
0000
0000
0000
0000
,
0000
0000
0000
0000
0000
0000
0000
0000
0000
0000
0000
0000
0110
0000
0000
0000
0000
0000
0000
0000
0000
0000
0000
0000
0000
0000
0000
0000
0000
0000
0000
0000
0000
0000
0000
0000
0000
0000
0000
0000
0000
0000
0000
0000
0000
0000
0000
0000
0000
0000
0000
0000
0000
0000
0000
0000
0000
0000
0000
0000
0000
0000
0000
0000
0000
0000
0101
0000
0000
0000
0000
0000
0000
0000
0000
0000
0000
0000
0000
0000
0000
0000
0000
0000
0000
0000
0000
0000
0000
0000
0000
0000
0000
0000
0000
0000
0000
0000
0000
0000
0000
0000
0000
0000
0000
0000
0000
0000
0000
0000
0000
0000
0000
0000
0000
0000
0000
0000
0000
0000
0001
0000
0000
0000
0000
0000
0000
0000
0000
0000
0000
0000
0000
0000
0000
0000
0000
0000
0000
0000
0000
0000
0000
0000
0000
0000
0000
0000
0000
0000
0000
0000
1000
0000
0000
0000
0000
0000
0000
0000
0000
0000
0000
0000
0000
0000
0000
0000
0000
0000
0000
0000
0000
0000
0000
0000
0000
0000
0000
0000
0100
0000
0000
0000
0000
0000
0000
0000
0000
0000
0000
0000
,
0000
0000
0000
0000
0000
0000
0000
1000
0000
0000
0000
0000
0000
0000
0000
0000
0040
0000
0000
0000
0000
0000
0000
0000
0030
0000
0000
0000
0000
0000
0000
0000
,
0000
0000
0000
0000
0000
0000
0000
0000
0000
0000
0000
0000
0000
0000
0000
0000
0000
0000
0000
0000
0000
0000
0000
0000
0000
0000
1000
0000
0000
0000
0000
0100
,
0000
0000
0010
0000
0000
0000
0000
0001
0000
0000
0010
0000
0000
0000
0000
0000
,
0000
0000
0000
0000
0000
0000
0000
0000
0000
0000
0100
0000
0000
0000
0000
0000
0000
0000
0000
0000
1000
0000
0000
0000
0000
0000
0000
0010
0000
0000
0000
0000
,
0000
0000
0000
0200
0000
0000
0000
0000
0000
0300
0100
0000
0000
0000
0000
0000
,
0000
0000
0000
0000
0000
0000
0000
0000
0000
0000
0000
0000
0000
0000
0000
0000
0000
0000
0000
0000
0000
0000
0000
0000
0000
0000
0000
0001
0000
0000
0000
0000
,
0010
0000
0000
0100
0000
0000
0000
0000
0000
0100
0000
0000
1000
0000
0000
0000
0000
0000
0010
0000
0000
0100
0000
0000
0000
0000
0000
0000
0000
0000
0001
0000
,
0000
0000
0101
0000
0000
0000
0000
0000
0000
0000
0000
0110
0000
0000
0000
0000
0000
0000
0000
1010
0000
0000
0000
0000
0000
0000
0000
0000
0000
0000
0000
0000
,
0000
0000
0000
0000
0000
1000
0000
0000
0100
0000
0000
0000
0000
0000
0000
0000
1000
0000
0000
0000
0010
0000
0000
0000
0100
0000
0000
0000
0000
0000
0000
0000
,
0000
0001
0000
0000
0000
0010
0000
0000
0000
0000
0000
0000
0000
0100
0000
0000
0000
0000
0000
0000
0000
0000
1000
0000
0000
0000
0000
0000
0000
0000
0000
0010
,
0000
0000
0000
0000
0000
0000
0000
0000
0000
0000
1000
0000
0000
0100
0000
0000
0000
0000
0100
0000
0000
0010
0000
0000
0000
0000
0010
0000
0000
0001
0000
0000
,
0000
0000
0000
0000
0000
0010
0000
0000
0000
0100
0000
0000
0000
0000
0000
0000
0000
0000
1000
0000
0000
0000
0010
0000
0000
0000
0000
0100
0000
0000
0000
0000
,
0000
0000
0000
0000
0000
0000
0000
0001
0000
0000
0000
0000
0020
0000
0000
0000
0000
0000
0000
0000
0030
0000
0000
0001
0000
0000
0000
0000
0200
0000
0000
0000
,
0000
0000
0300
0000
0000
0110
0000
0000
0000
0000
0000
0000
0000
0000
0000
0000
0010
0000
0000
0000
0000
0000
0000
0000
1000
0000
0000
0000
0100
0000
0000
0000
,
0000
0000
1000
0000
0000
0010
0000
0000
0000
0000
0000
0100
0000
0000
0002
0000
0000
0000
0000
0000
0000
0000
0000
0000
0000
0000
0000
0000
0000
0000
0000
0000
,
0000
0000
0000
0000
0000
0000
0000
0000
0000
0000
0010
0000
0003
0000
0000
0100
0000
0000
0000
0000
1000
0000
0000
0000
0100
0000
0000
0000
0000
0000
0000
0000
0000
0000
0010
0000
0000
0000
0000
0000
0000
0000
0000
0000
0000
0000
0000
0000
0000
0000
0000
0000
0000
0000
0000
0000
0000
0000
0000
0000
0000
0000
0000
0000
,
0000
0000
0000
0000
0000
0000
0000
0000
0000
0000
0000
0000
0001
0000
0000
0000
0000
0000
1000
0000
0000
0000
0000
0200
0000
0000
0000
0000
0000
0000
0000
0000
,
0000
0000
0000
0000
0000
0000
0000
0000
0000
0000
0000
0000
0000
0000
0000
0000
0000
0000
0000
0000
0000
0000
0000
0000
0000
0000
0000
0000
0000
0000
0000
0000
0000
0000
0000
0000
0000
0000
0000
0000
0000
0000
0000
0000
0000
0000
0000
0000
0000
0000
0000
0000
0000
0000
0000
0000
0000
0000
0000
0000
0000
0000
0000
0000
0000
0000
0000
0000
0000
0000
0000
0000
1300
0000
0000
0000
0000
0000
0000
0000
0000
0000
0000
0000
0000
0000
0000
0000
0100
0000
0000
0000
0000
0000
0000
0000
0000
0000
0000
0000
0000
0000
0000
0000
0010
0000
0000
0000
0000
0000
0000
0000
0000
0000
0000
0000
0000
0000
0000
0000
0100
0000
0000
0000
0000
0000
0000
0000
0000
0000
0000
0000
0000
0000
0000
0000
0000
0000
1000
0000
0000
0000
0000
0000
0000
0000
0000
0000
0000
0000
0000
0000
0000
0000
0000
0000
0000
0000
0000
0000
0000
0000
0000
0000
0000
0000
0000
0000
0000
0000
0000
0000
0000
0000
0000
0000
0000
0000
0000
0000
0000
0000
0000
0000
0000
0000
0000
0000
0000
0000
0000
0000
,
0000
0000
0000
0000
0000
0000
0000
0000
0000
0000
0000
0000
0000
0000
0000
0000
0000
0000
0000
0000
0000
0000
0010
0000
0000
0000
0000
0100
0000
0000
0000
0000
,
0000
0000
0001
0000
0000
0000
1000
0000
0000
0000
0000
0100
0000
0000
0000
0000
0000
0000
0000
0000
0000
1000
0000
0000
0000
0010
0000
0000
0000
0000
0000
0000
,
0000
0100
0000
0000
0000
0000
0001
0000
0000
0000
1000
0000
0000
0000
0000
0000
0000
0000
0100
0000
0000
0000
0000
1000
0000
0000
0100
0000
0000
0000
0000
1000
,
0000
0000
0000
0000
0000
0001
0000
0000
0000
0000
0000
0000
0110
0000
0000
0000
0000
0000
0000
0000
0000
0000
1000
0000
0000
0000
0000
0000
0000
0000
0100
0000
,
0000
0000
0000
0000
0000
0000
0000
1000
0000
0000
0100
0000
0000
0000
0000
0000
1000
0000
0000
0001
0000
0000
0000
0000
0000
0000
0000
1000
0000
0000
0000
0000
,
0000
0000
0000
0002
0000
0000
0000
0000
0000
0000
0000
0000
0000
0000
0000
0000
0000
0000
0000
0000
0000
0000
0000
0000
0000
0000
0000
0000
0000
0000
0000
4003
,
0000
0000
0000
3000
0000
0000
0000
0000
0000
0000
0000
0000
0000
0000
0000
0001
,
0000
1000
0100
0020
0000
0000
0000
0000
0000
0000
0000
0000
0000
0000
0000
0030
,
0000
0004
0000
0000
0000
0103
0000
0000
0000
0000
0000
0000
0000
0000
0000
0000
,
0000
0000
0000
0000
0000
0000
0000
0001
0000
0000
0000
0000
0000
0000
0000
0000
1000
0000
0000
0000
0000
0000
0000
0000
0100
0000
0000
0000
0000
0000
0000
0000
,
0000
1000
0000
0000
0000
0000
0000
0000
0000
0000
0000
0100
0000
0000
0000
0000
0000
0000
0000
0000
0000
1000
0000
0000
0000
0000
0000
0000
0000
0000
0010
0000
,
0000
0000
0000
0000
0000
0000
0000
0000
0100
0000
0000
0000
0000
0000
0000
0000
0000
0001
0000
0000
0000
0000
0000
0000
0000
0010
0000
0000
0000
0000
0000
0000
,
0000
0400
0000
0000
0000
0000
0000
0000
0000
0000
0000
0300
0000
0000
1000
0000
0000
0000
0000
0000
0000
0000
0000
0010
0000
0000
0000
0000
0000
0000
0100
0000
,
0000
0000
0000
0000
0000
0000
0001
0000
0000
0000
0000
0000
0000
0000
0000
0000
0000
0000
0000
0000
0000
0000
0000
0000
0000
0000
0000
1000
0000
0000
0000
0000
,
0100
0000
0000
0000
0000
0000
0000
0000
0004
0000
0000
0000
0003
0000
0000
0000
0100
0000
0000
0000
0000
0000
0000
1000
0000
0000
0000
0010
0000
0000
0000
0000
,
0100
0000
0000
0000
0001
0000
0000
0000
0000
1000
0000
0000
0000
0000
0000
0100
0000
0000
0000
0000
0000
0000
0000
0000
,
0000
0000
0000
0000
1000
0000
0000
0000
0001
0000
0000
0000
0010
0000
0000
0000
0100
0000
0000
0000
1000
0000
0000
0000
0000
0000
0000
0010
0000
0000
0000
0000
,
0000
0000
0000
1000
0000
0000
0000
0000
0000
0100
0000
0000
0000
0000
0000
0000
0000
1000
0000
0000
0000
0000
0000
0000
0000
0000
0001
0000
0000
0000
0000
0000
,
0000
0100
0000
0000
0000
0010
0000
0000
0000
1000
0000
0000
0000
0000
0001
0000
0000
0000
0000
0000
0200
0000
0000
0000
0000
0000
0000
0000
0000
0000
0000
0000
,
0000
0000
0000
0000
0000
0310
0000
0000
0000
0000
0000
0000
0000
0000
0000
0000
0000
0000
0000
0000
0000
0000
0000
0000
0000
0000
0000
0000
0000
0000
0000
0000
,
0000
0000
0000
0000
0000
0000
0000
0000
0000
0000
0000
0000
0000
1111
0000
0000
0000
0000
0000
0000
0000
0000
0000
0000
0000
0000
0000
0000
0000
0000
4444
0000
,
0000
0000
0000
0000
,
3333
0000
0000
0000
0000
0000
0000
0000
0000
0000
0000
0000
1000
0001
1000
0001
,
1000
0001
1000
0001
0100
0010
0100
0010
0100
0010
0100
0010
1000
0000
0200
0000
,
0000
0000
0310
0000
0001
0000
1000
0000
0001
0100
0010
1000
0100
1000
0100
1000
,
0100
1000
0100
1000
0001
0100
0001
0100
0001
0100
0001
0100
0010
0000
1000
0000
,
0100
0010
0002
0000
1003
0000
0001
0000
0100
0010
2000
0000
3001
0000
0100
0000
,
0010
1000
0010
0000
1000
0000
0001
0000
0010
0001
0010
0000
0100
0000
1000
0000
,
0001
1000
0001
0000
0100
0000
0010
0000
1000
0010
1000
0000
0001
0000
0100
0000
,
0010
0100
0010
0000
0100
0000
0001
0000
1000
0100
1000
0000
0100
1000
0100
1000
,
0001
0100
0001
0100
0010
1000
0010
1000
0001
0010
0001
0010
0001
1000
0001
1000
,
0001
1000
0001
1000
0010
0100
0010
0100
0010
0100
0010
0100
0001
0000
0020
0000
,
0000
0000
0130
0000
1000
0000
0001
0000
1000
0010
0100
0001
0010
0001
0010
0001
,
0010
0001
0010
0001
1000
0010
1000
0010
1000
0010
1000
0010
0100
0000
0001
0000
,
0010
0100
2000
0000
3001
0000
1000
0000
0010
0100
0002
0000
1003
0000
0010
0000
,
0100
0000
0001
0000
0100
0000
0000
0000
0001
0000
0000
0000
1000
0000
0000
0000
0100
0000
0000
0000
0000
0000
0000
1000
0000
0000
0000
0000
0000
0000
0000
0000
,
0100
0000
0000
0000
0000
0000
1000
0000
0000
0010
0000
0000
0100
0000
0000
0000
0000
0000
0000
0000
0000
0101
0000
0000
0000
0000
0000
0000
0000
1001
0000
0000
,
0000
0000
0000
0000
0000
0000
0000
0000
0000
1000
0000
0000
0000
0000
0000
0000
0000
0000
0010
0000
0000
0000
0000
0000
0000
0000
0100
0000
0000
0000
0000
0000
,
0000
0000
0001
0000
0000
0000
1000
0000
0000
0000
0000
0000
0000
0000
0000
0040
0000
0000
0000
0000
0000
0000
0000
1030
0000
0000
0000
0010
0000
0000
0000
0000
,
0000
0100
0000
0000
0000
0000
0000
0000
0001
0000
0000
0000
0000
0000
0000
0000
0000
0000
0000
0000
0000
0000
0000
1111
0000
0000
0000
0000
0000
0000
0000
0000
,
0000
0000
0000
0000
0000
1111
0000
0000
0000
0000
0000
0000
0000
0000
0000
0000
0000
0000
0000
0000
0000
0000
0000
0000
0000
0000
0000
0000
0000
0000
0000
0000
,
1000
0100
1000
0100
1000
0000
0000
0000
0010
0100
0010
0100
0010
0000
0000
0000
,
1000
0010
1000
0010
1000
0000
0000
0000
0001
1000
0001
1000
0001
0000
0000
0000
,
1000
0010
1000
0010
1000
0000
0000
0000
0001
0010
0001
0010
0001
0000
0000
0000
,
2002
0000
0000
0000
0000
0000
0000
0000
3003
0000
0000
M00M
0000
0000
0000
0000
,
1000
0000
0000
1000
0010
0000
0000
0010
0100
0000
0000
0100
0001
0010
0001
0000
,
1000
0000
0000
1000
0010
0000
0000
0010
0100
0000
0000
0100
0001
0010
0001
0000
,
1000
0000
0000
1000
0010
0000
0000
0010
0100
0000
0000
0100
0010
1000
0100
0000
,
1000
0100
0110
0010
02M0
0000
1300
1000
,
0001
0000
0000
1000
0010
0000
0000
0010
0100
0000
0000
0100
0001
1000
0001
0000
,
1000
0000
0000
0001
0010
0000
0000
0001
0100
0000
0000
0010
1000
0100
1000
0000
,
0010
0000
0000
1000
0010
0000
0000
0100
0001
0000
0000
0100
0010
0100
0010
0000
,
1000
0100
1010
0100
0010
1100
0010
0100
,
0001
0010
0001
0000
0100
0000
0010
1000
0100
0000
1000
0000
1000
0000
0010
0000
,
1001
0000
1000
0000
0110
0000
0010
0000
0011
0000
0010
0000
1010
0000
0010
0100
,
0001
0001
0101
1000
1100
0100
0000
1001
,
0000
0000
0000
0000
0001
0000
0000
0000
1000
0000
0000
0000
0000
0001
0000
0000
0000
0000
0000
0000
0000
1100
0000
0000
0000
0000
0000
0000
0000
0100
0000
0000
,
0000
0010
0000
0000
0000
0100
0000
0000
0000
0000
0000
0000
0000
0000
0000
0011
0000
0000
0000
0000
0000
0000
0000
0100
0000
0000
0000
0010
0000
0000
0000
0000
,
0100
0000
0000
0000
0000
0000
0000
0000
0000
0000
0000
0000
0000
0000
0000
0000
0000
0000
0000
0000
0000
0000
0000
0000
0000
0000
0000
0000
0000
0000
0000
0000
0000
0000
0000
0000
0000
0000
0000
0000
0000
0000
0000
0000
0000
0000
0000
0000
1100
0000
0000
0000
0000
0000
0000
0000
0000
0000
0000
0000
0000
0000
0000
0000
0000
0000
0000
0000
0000
0000
0000
0000
0000
0000
0000
0000
0000
0000
0000
0000
0000
0000
0000
0000
0000
0000
0000
0000
0000
0000
0000
0000
0000
0000
0000
0000
0000
0000
0000
0000
0000
0000
0001
0000
0000
0000
0000
0000
0000
0000
0000
0000
0000
0000
0000
0000
0000
0000
0000
0000
0000
0000
0000
0000
0000
0000
0000
0000
0010
0000
0000
0000
0000
0000
0000
0000
0000
0000
0000
0000
0000
0000
0000
0000
0000
0000
0000
0000
0000
0000
0000
0000
0000
0100
0000
0000
0000
0000
0000
0000
0000
0000
0000
0000
0000
0000
0000
0000
0000
0000
0000
0000
0000
0000
0000
0000
0000
0000
0000
0000
0000
0000
0000
0000
0000
0000
0000
0000
0000
0000
0000
0000
,
0000
0000
1010
0000
0000
0000
0000
0000
0000
0000
0000
0000
0000
0000
0000
0000
0000
0000
0000
0000
0000
0001
0000
0000
0000
0000
0000
0000
0000
1000
0000
0000
,
0000
0000
0000
0000
0000
0000
0020
0000
0000
0000
0000
0000
0000
0000
0000
0000
0000
0000
0000
0000
0000
0000
0000
0000
0000
0000
0030
0100
0000
0000
0000
0000
,
0001
0000
1000
0100
0000
1000
0010
0100
,
0010
0000
0000
0000
0000
0000
0000
0000
0000
0000
0000
0000
0000
0000
0000
0000
0000
0000
0000
0000
0000
0000
0000
0000
0000
0000
0000
0000
0000
0100
0000
0000
,
0000
0000
0001
0000
0000
1000
0000
0000
0000
0100
0000
0000
0000
0000
0000
0000
0000
1000
0000
0000
0000
0100
0000
0000
0000
1000
0000
0000
0000
0000
0010
0000
,
0000
0100
0000
0000
0000
0000
0010
0000
0000
0000
0000
0000
0000
0100
0000
0000
0000
0000
0000
0000
0000
0001
0000
0000
0000
0000
0000
0000
0000
0000
4000
0000
,
0000
0000
0000
0000
0000
0000
0000
0000
0000
0000
0000
0000
0000
0000
0000
0000
0000
0000
0000
0000
0000
3000
1100
0000
0000
0000
0000
0000
0000
0000
0000
0000
,
0000
0000
0000
0000
0000
0000
0000
0000
0000
0111
0000
0000
0000
0000
0000
0000
0000
0000
0000
0000
0000
0000
0000
0000
0000
0000
0000
0000
0000
0000
0000
0000
,
0000
0000
0000
0004
0000
0000
0000
0000
0000
0000
0000
0000
0000
0000
0000
0000
0000
0000
0000
0000
0000
0000
0000
0000
0003
0000
0000
0000
0000
0000
0000
0000
,
0000
0000
1000
0000
0000
0010
0000
0000
0000
1000
0000
0000
0000
0000
0000
1100
0000
0000
0000
0000
0000
0000
0000
0110
0000
0000
0000
0000
0000
0000
0000
0011
,
0000
0000
0000
0000
0000
0000
0000
0000
0001
0000
0000
0000
0000
0100
0000
0000
0000
0010
0000
0000
0000
0000
0000
0000
0000
0000
0110
0000
0000
0000
0000
0000
,
0000
0000
0000
0000
0000
1101
0000
0000
0000
0000
0000
0000
0000
0000
0000
0000
0000
0000
0000
0000
0000
0000
0000
0000
0000
0000
0000
0000
0000
0000
0000
0000
,
0000
0000
0000
0000
,
2000
3001
0001
0001
0010
0001
1000
0001
,
0100
0001
0001
1000
0001
0001
1000
0100
,
0010
0100
0100
0100
1000
0100
0010
0100
,
0001
0100
0010
0100
0100
1000
0010
0100
,
0001
1000
0100
1100
0000
1001
0000
0101
,
0000
1001
0000
0001
0100
0010
1010
0000
,
1000
0100
1000
0001
0100
0001
1000
0010
1000
0001
0010
0001
1000
0100
1000
0001
,
0010
0001
1000
0010
1000
0001
0100
0001
1000
0100
1000
0001
0100
0001
1000
0010
,
1000
0001
0010
0001
1000
0100
1000
0001
0100
0001
1000
0010
1000
0001
0100
0001
,
1000
0100
1000
0001
0010
0001
1000
0010
1000
0001
0100
0001
1000
0100
1000
0000
,
1100
0100
0010
0001
1001
1000
0010
0100
,
0120
0000
0000
0000
0000
0000
0000
0000
0200
0000
0000
0000
0000
0000
0000
0330
,
0001
0000
0000
0100
0000
0000
0010
0000
0000
1000
0000
0000
0100
0000
0000
0010
0000
0000
0001
0000
0000
1000
0000
0000
1001
0000
0000
0000
0000
0000
0000
0000
1100
0000
0000
0000
0000
0000
0000
0000
0110
0000
0000
0000
0000
0000
0000
0000
,
0022
0000
0000
0000
0000
0033
0000
0000
0000
0000
0000
0000
;
