#TITLE:Holy Macaroni;
#SUBTITLE:;
#ARTIST:The Quick Brown Fox;
#TITLETRANSLIT:;
#SUBTITLETRANSLIT:;
#ARTISTTRANSLIT:;
#CREDIT:;
#BANNER:HM-BN.png;
#BACKGROUND:HM-BG.png;
#LYRICSPATH:;
#CDTITLE:;
#MUSIC:Holy Macaroni.ogg;
#OFFSET:-0.052;
#SAMPLESTART:32.620;
#SAMPLELENGTH:12.000;
#SELECTABLE:YES;
#BPMS:0.000=250.568;
#STOPS:;
#BGCHANGES:;
// cache tags:
#FIRSTBEAT:32.000;
#LASTBEAT:489.000;
#SONGFILENAME:Songs/SSSC Pack 2/Holy Macaroni [Zarkonis]/Holy Macaroni.sm;
#HASMUSIC:1;
#HASBANNER:1;
#MUSICLENGTH:120.790;
// end cache tags

//---------------dance-single - Zarkonis----------------
#NOTES:
     dance-single:
     Zarkonis:
     Challenge:
     17:
     1.000,1.000,0.348,0.083,1.000,1140.000,42.000,10.000,23.000,0.000:

0000
0000
0000
0000
,
0000
0000
0000
0000
,
0000
0000
0000
0000
,
0000
0000
0000
0000
,
0000
0000
0000
0000
,
0000
0000
0000
0000
,
0000
0000
0000
0000
,
0000
0000
0000
0000
,
1001
0000
0001
0010
0000
0010
0001
0000
,
1000
0010
0110
0000
0100
0000
0001
0000
,
1001
0000
1000
0001
0000
0001
1000
0000
,
0001
0010
0011
0000
0001
0000
0100
0000
,
0110
0000
0010
0100
0000
0100
0010
0000
,
1000
0010
0110
0000
0100
0000
0001
0000
,
1001
0000
1000
0001
0000
0001
1000
0000
,
0100
0010
0011
0000
0001
0000
0100
0000
,
0010
0000
0100
0000
0001
1000
0001
0000
0010
0000
0001
1000
0001
0000
0010
0000
,
0100
0010
0100
0000
1000
0000
0010
0100
0001
0000
0100
0000
0010
0000
0100
0000
,
0101
0000
0001
0000
1000
0100
1000
0000
0001
0000
1000
0100
1000
0000
0010
0000
,
0110
0000
0100
0000
0001
0000
1000
0100
0010
0000
0001
0000
0100
0000
0010
0000
,
1010
0000
1000
0000
0001
0010
0001
0000
1000
0000
0001
0010
0001
0000
1000
0000
,
0010
0100
0010
0000
1000
0000
0100
0010
0001
0000
0100
0000
0010
0000
0100
0000
,
0110
0000
0010
0000
1000
0010
1000
0000
0001
0000
1000
0010
1000
0000
0001
0000
,
0011
0000
0010
0000
0100
0000
1000
0001
0100
0000
0010
0000
0100
0000
0001
0000
,
1001
0000
1000
0000
0100
1000
0100
0000
0010
0000
0001
0010
0001
0000
1000
0000
,
0010
1000
0010
0000
0100
0000
0001
0100
0010
0000
1000
0000
0100
0000
0010
0000
,
0011
0000
0001
0000
1000
0100
1000
0000
0001
0000
0100
0001
0100
0000
0010
0000
,
1010
0000
1000
0000
0001
0000
0010
0100
1000
0000
0001
0000
0010
0000
0100
0000
,
1100
0000
1000
0000
0010
0100
0010
0000
1000
0000
0001
1000
0001
0000
0010
0000
,
0001
0010
0001
0000
1000
0000
0100
0010
0001
0000
1000
0000
0010
0000
0100
0000
,
M11M
0000
0000
0000
0000
0000
0002
0003
,
MM11
0000
0000
0000
0000
0000
4000
3000
,
1MM1
0000
0000
0000
,
0000
0000
0000
0000
,
0001
0010
0001
1000
0010
1000
0001
0010
0100
1000
0001
1000
0001
0000
1000
0000
,
0001
0100
0001
1000
0100
1000
0001
0100
0010
1000
0001
1000
0001
0000
1000
0000
,
0001
0010
0100
1000
0001
0100
0001
1000
0001
0010
0100
1000
0001
0000
1000
0000
,
0001
0100
0010
1000
0001
0010
0001
1000
0001
0100
0010
1000
0001
0000
1000
0000
,
1001
0000
0000
0000
0001
0010
0001
1000
0010
1000
0001
0010
0100
1000
0100
1000
,
0001
0100
0010
1000
0001
1000
0001
0010
0100
1000
0001
1000
0001
0000
1000
0000
,
1001
0000
0001
1001
0000
1000
1001
0000
,
0001
0100
0001
1000
0100
1000
0001
0010
0100
1000
0001
1000
0001
0000
1000
0000
,
0001
1000
0010
1000
0001
0010
0001
1000
0001
1000
0100
0010
0001
0000
1000
0000
,
0001
1000
0100
1000
0001
0100
0001
1000
0001
1000
0010
0100
0001
0000
1000
0000
,
0001
0100
0010
1000
0001
0100
0001
0100
0010
1000
0001
0100
0010
0000
1000
0000
,
0001
0010
0100
1000
0001
0010
0001
0010
0100
1000
0001
0010
0100
0000
1000
0000
,
1001
0000
0000
0000
0001
0010
0100
1000
0001
0100
0001
0100
0010
1000
0010
1000
,
0001
0010
0001
1000
0100
1000
0001
1000
0001
0010
0100
1000
0001
0000
1000
0000
,
1001
0000
0001
1001
0000
1000
1001
0000
,
0001
0100
0001
1000
0100
1000
0001
0010
0100
1000
0001
1000
0001
0000
1000
0000
,
0010
0100
0100
0001
0010
0010
0100
1000
,
0001
0000
0010
0000
0010
0000
0100
0000
1000
0000
1000
0000
0001
1000
0001
1000
,
0001
0100
0100
0010
1000
1000
0001
0010
,
0100
0000
0010
0000
0010
0000
0001
0000
1000
0001
1000
0001
1000
0001
1000
0001
,
1000
0100
0100
0010
0001
0001
1000
0010
,
0100
0000
0010
0000
0010
0000
1000
0000
0100
0000
0100
0000
1000
0001
1000
0001
,
1000
0010
0010
1000
0001
0001
0010
0100
,
1000
0000
0001
0000
0001
0000
0100
0000
0001
1000
0001
1000
0010
0100
0010
0100
,
0001
1000
1000
0100
0010
0010
0001
0100
,
0010
1000
0010
0000
1000
0010
1000
0000
0001
0000
0010
0000
0100
1000
0100
1000
,
0100
0010
0010
0001
1000
1000
0010
0100
,
0001
1000
0001
1000
0001
0000
0010
0100
0010
0100
0010
0100
1000
0001
1000
0001
,
1000
0010
0010
0100
0001
0001
0010
0100
,
1000
0100
1000
0000
0100
1000
0100
0000
0010
0000
0100
0000
0010
0001
0010
0001
,
1000
0010
1000
0001
0010
0100
1000
0001
1000
0001
0100
0010
1000
0001
0010
0001
,
1000
0000
0000
2MM2
3003
0000
0000
0000
,
0001
0000
0010
0000
0100
0000
1000
0000
0010
0000
0100
0010
0100
0000
0001
0000
,
MMM0
0000
0001
0000
0010
0000
0100
0000
1000
0000
0010
0000
0100
0001
0100
0001
,
0100
0000
0010
0000
0010
0000
1000
0000
0100
0000
0010
0100
1000
0000
0100
0000
,
M0MM
0000
0100
0000
1000
0000
0100
0000
0010
0001
0010
0000
0001
1000
0001
1000
,
0001
0000
0100
0000
0100
0000
0010
0000
1000
0000
0100
0010
0001
0000
1000
0000
,
0MMM
0000
1000
0000
0010
0000
1000
0000
0001
0010
0001
0010
0100
1000
0100
1000
,
0001
0100
0010
1000
0010
0100
0001
1000
0100
1000
0010
1000
,
0001
0000
0000
0000
0010
0000
0000
0000
0100
0000
0000
0000
1000
0000
0000
0000
0010
0000
0000
0000
0100
0000
0000
0000
0001
0000
0000
0000
0010
0000
0000
0000
0001
0000
0000
0000
1000
0000
0000
0001
0000
0000
1000
0000
0000
0001
0000
0000
,
1000
0100
1000
0001
0100
0001
1000
0100
0010
0001
1000
0001
0100
0010
0100
0010
,
1000
0001
0100
0001
1000
0100
1000
0001
0010
0100
0010
0001
1000
0010
1000
0010
,
0100
0001
1000
0001
1000
0100
0010
0001
1000
0010
1000
0001
0010
0100
0010
0100
,
1000
0001
1000
0010
0100
0001
1000
0010
1000
0001
0010
0001
1000
0000
0001
0000
,
1001
0000
0000
0000
1000
0100
1000
0100
0010
0001
0010
0001
1000
0010
1000
0001
,
0100
0001
1000
0010
0100
0001
1000
0001
1000
0100
0010
0001
1000
0000
0001
0000
,
1001
0000
0000
0000
1000
0000
1001
0000
0000
0000
0001
0000
0010
0001
1000
0001
,
1000
0100
1000
0001
0100
0001
1000
0100
0010
0001
1000
0001
1000
0000
0001
0000
,
0100
0000
0010
0000
1000
0001
1000
0000
0100
0000
1000
0001
1000
0000
0100
0000
,
0010
0100
0010
0000
0001
0000
0100
0010
1000
0000
0010
0000
0100
0000
0010
0000
,
1010
0000
1000
0000
0001
0010
0001
0000
1000
0000
0001
0010
0001
0000
0100
0000
,
0010
0100
0010
0000
1000
0000
0001
0010
0100
0000
1000
0000
0010
0000
0100
0000
,
0101
0000
0001
0000
1000
0100
1000
0000
0001
0000
1000
0100
1000
0000
0001
0000
,
0100
0010
0100
0000
0001
0000
0010
0100
1000
0000
0010
0000
0100
0000
0010
0000
,
0110
0000
0100
0000
0001
0100
0001
0000
1000
0000
0001
0100
0001
0000
1000
0000
,
0100
1000
0100
0000
0010
0000
0001
1000
0010
0000
0100
0000
0010
0000
1000
0000
,
1001
0000
0001
0000
0010
0001
0010
0000
0100
0000
1000
0100
1000
0000
0001
0000
,
0100
0001
0100
0000
0010
0000
1000
0010
0100
0000
0001
0000
0010
0000
0100
0000
,
1100
0000
1000
0000
0001
0010
0001
0000
1000
0000
0010
1000
0010
0000
0100
0000
,
0001
0100
0001
0000
1000
0000
0100
0010
0001
0000
1000
0000
0100
0000
0010
0000
,
0011
0000
0001
0000
0100
0010
0100
0000
0001
0000
1000
0001
1000
0000
0100
0000
,
1000
0100
1000
0000
0001
0000
0010
0100
1000
0000
0001
0000
0100
0000
0010
0000
,
M11M
0000
0100
0000
0010
0100
0010
0000
1000
0000
0100
0010
0100
0000
1000
0000
,
0002
0003
2MM2
3003
,
1000
0100
0100
1000
0010
0010
0100
0001
,
1000
0000
0010
0000
0010
0000
0100
0000
0001
0000
0001
0000
1000
0001
1000
0001
,
1000
0100
0100
0010
0001
0001
1000
0010
,
0100
0000
0010
0000
0010
0000
1000
0000
0001
1000
0001
1000
0001
1000
0001
1000
,
0001
0100
0100
0010
1000
1000
0001
0010
,
0100
0000
0010
0000
0010
0000
0001
0000
0100
0000
0100
0000
0001
1000
0001
1000
,
0001
0010
0010
0001
1000
1000
0010
0100
,
0001
0000
1000
0000
1000
0000
0100
0000
1000
0001
1000
0001
0010
0100
0010
0100
,
1000
0001
0001
0100
0010
0010
1000
0100
,
0010
0001
0010
0000
0001
0010
0001
0000
1000
0000
0010
0000
0100
0001
0100
0001
,
0100
0010
0010
1000
0001
0001
0010
0100
,
1000
0001
1000
0001
1000
0000
0010
0100
0010
0100
0010
0100
0001
1000
0001
1000
,
0001
0010
0010
0100
1000
1000
0010
0100
,
0001
0100
0001
0000
0100
0001
0100
0000
0010
0000
0100
0000
0010
1000
0010
1000
,
0001
0100
0001
1000
0100
0010
0001
1000
0001
1000
0010
0100
0001
1000
0100
1000
,
0001
0000
0000
2MM2
3003
0000
0000
0000
,
1000
0010
0100
0001
0010
0001
0100
0010
1000
0100
1000
0100
,
0010
0001
0100
0010
1000
0100
0010
0001
0010
0100
1000
0010
,
0100
0001
0100
0010
0100
0001
1000
0100
0010
0001
0010
0100
,
1000
0010
0100
0010
1000
0100
0010
0100
1000
0001
0010
0100
,
1000
0010
0100
0010
1000
0001
0010
0100
1000
0100
0010
0001
,
0010
0100
0010
0001
0100
0010
1000
0010
0100
0001
0010
0100
,
1000
0100
0010
0001
0100
0010
1000
0010
0100
0001
0010
0100
,
1000
0100
0010
0001
0100
0010
1000
0100
0010
0001
1000
0000
,
2002
3003
0000
0000
;

//---------------dance-single - Zarkonis----------------
#NOTES:
     dance-single:
     Zarkonis:
     Hard:
     15:
     1.000,1.000,0.232,0.083,1.000,1050.000,28.000,10.000,23.000,0.000:







0000
0000
0000
0000
,
0000
0000
0000
0000
,
0000
0000
0000
0000
,
0000
0000
0000
0000
,
0000
0000
0000
0000
,
0000
0000
0000
0000
,
0000
0000
0000
0000
,
0000
0000
0000
0000
,
1001
0000
1000
0100
0000
0100
1000
0000
,
0001
0100
0110
0000
0010
0000
1000
0000
,
1001
0000
0001
0010
0000
0010
0001
0000
,
0100
0010
1010
0000
1000
0000
0100
0000
,
0110
0000
0010
0100
0000
0100
0010
0000
,
0001
0100
0110
0000
0010
0000
1000
0000
,
1001
0000
0001
1000
0000
1000
0001
0000
,
0010
0100
1100
0000
1000
0000
0010
0000
,
0100
0000
0010
0000
1000
0001
1000
0000
0100
0000
1000
0001
1000
0000
0100
0000
,
0010
0100
0010
0000
0001
0000
0100
0010
1000
0000
0010
0000
0100
0000
0010
0000
,
0010
0000
1000
0000
0001
0010
0001
0000
1000
0000
0001
0010
0001
0000
0100
0000
,
0100
0000
0010
0000
1000
0000
0001
0010
0100
0000
1000
0000
0010
0000
0100
0000
,
0100
0000
0001
0000
1000
0100
1000
0000
0001
0000
1000
0100
1000
0000
0001
0000
,
0100
0010
0100
0000
0001
0000
0010
0100
1000
0000
0010
0000
0100
0000
0010
0000
,
0010
0000
0100
0000
0001
0100
0001
0000
1000
0000
0001
0100
0001
0000
1000
0000
,
0100
0000
0100
0000
0010
0000
0001
1000
0010
0000
0100
0000
0010
0000
1000
0000
,
0001
0000
0001
0000
0010
0001
0010
0000
0100
0000
1000
0100
1000
0000
0001
0000
,
0100
0001
0100
0000
0010
0000
1000
0010
0100
0000
0001
0000
0010
0000
0100
0000
,
0100
0000
1000
0000
0001
0010
0001
0000
1000
0000
0010
1000
0010
0000
0100
0000
,
0100
0000
0001
0000
1000
0000
0100
0010
0001
0000
1000
0000
0100
0000
0010
0000
,
0010
0000
0001
0000
0100
0010
0100
0000
0001
0000
1000
0001
1000
0000
0100
0000
,
1000
0100
1000
0000
0001
0000
0010
0100
1000
0000
0001
0000
0100
0000
0010
0000
,
M11M
0000
0000
0000
0000
0000
2000
3000
,
11MM
0000
0000
0000
0000
0000
0004
0003
,
1MM1
0000
0000
0000
,
0000
0000
0000
0000
,
1000
0100
1000
0000
0100
0010
0100
0000
0010
0001
0010
0000
0001
0000
1000
0000
,
0010
1000
0010
0000
0100
0010
0100
0000
0001
0100
0001
0000
1000
0000
0001
0000
,
1000
0100
1000
0000
0001
1000
0001
1000
0001
0000
0100
0000
0010
0000
1000
0000
,
0001
0010
0001
0000
1000
0100
1000
0100
1000
0000
0010
0000
0100
0000
0001
0000
,
1001
0000
0000
0000
1000
0001
1000
0000
0001
0010
0001
0000
0010
0100
0010
0000
,
0100
1000
0100
1000
0100
0000
1000
0000
0001
0100
0001
0000
1000
0000
0001
0000
,
1001
0000
1000
1001
0000
0001
1001
0000
,
1000
0100
1000
0000
0001
0100
0010
1000
0001
0000
0100
0000
0010
0000
1000
0000
,
0010
1000
0010
0000
0100
0010
0100
0000
0001
0100
0001
0000
1000
0000
0001
0000
,
1000
0100
1000
0000
0100
0010
0100
0000
0010
0001
0010
0000
0001
0000
1000
0000
,
0001
0010
0001
0000
1000
0001
1000
0001
1000
0000
0010
0000
0100
0000
0001
0000
,
1000
0100
1000
0000
0001
0010
0001
0010
0001
0000
0100
0000
0010
0000
1000
0000
,
1001
0000
0000
0000
0001
1000
0001
0000
1000
0100
1000
0000
0100
0010
0100
0000
,
0010
0001
0010
0100
1000
0000
0010
0000
1000
0010
1000
0000
0001
0000
1000
0000
,
1001
0000
0001
1001
0000
1000
1001
0000
,
0001
0010
0001
0000
1000
0010
0100
0001
0100
0000
0010
0000
1000
0000
0100
0000
,
1000
0010
0010
1000
0100
0100
0010
0001
,
1000
0000
0100
0000
0100
0000
0010
0000
0001
0000
0001
0000
1000
0001
1000
0001
,
1000
0010
0010
0100
0001
0001
1000
0100
,
0010
0000
0100
0000
0100
0000
1000
0000
0001
1000
0001
0000
1000
0001
1000
0000
,
0001
0010
0010
0100
1000
1000
0001
0100
,
0010
0000
0100
0000
0100
0000
0001
0000
0010
0000
0010
0000
0001
1000
0001
1000
,
0001
0100
0100
0001
1000
1000
0100
0010
,
0001
0000
1000
0000
1000
0000
0010
0000
1000
0001
1000
0000
0100
0010
0100
0000
,
0010
0001
0001
0010
0100
0100
1000
0010
,
0100
0001
0100
0000
0001
0100
0001
0000
1000
0000
0100
0000
0010
0001
0010
0001
,
0010
0100
0100
1000
0001
0001
0100
0010
,
1000
0001
1000
0000
0001
0000
0100
0010
0100
0010
0100
0000
0001
1000
0001
1000
,
0001
0100
0100
0010
1000
1000
0100
0010
,
0001
0010
0001
0000
0010
0001
0010
0000
0100
0000
0010
0000
0100
1000
0100
1000
,
0100
0000
0010
0000
0001
0000
1000
0000
0010
0100
0010
0000
1000
0001
1000
0001
,
1000
0000
0000
2MM2
3003
0000
0000
0000
,
1000
0000
0100
0000
0010
0000
0001
0000
0100
0000
0010
0100
0010
0000
1000
0000
,
0MMM
0000
1000
0000
0100
0000
0010
0000
0001
0000
0100
0000
0010
1000
0010
1000
,
0010
0000
0100
0000
0100
0000
0001
0000
0010
0000
0100
0010
0001
0000
0010
0000
,
MM0M
0000
0010
0000
0001
0000
0010
0000
0100
1000
0100
0000
1000
0001
1000
0001
,
1000
0000
0010
0000
0010
0000
0100
0000
0001
0000
0010
0100
1000
0000
0001
0000
,
MMM0
0000
0001
0000
0100
0000
0001
0000
1000
0100
1000
0000
0001
0100
0001
0000
,
1000
0010
1000
0010
0100
0010
0100
0001
0100
0001
0010
0001
,
0010
0000
0000
0000
0100
0000
0000
0000
0010
0000
0000
0000
0100
0000
0000
0000
1000
0000
0000
0000
0100
0000
0000
0000
1000
0000
0000
0000
0001
0000
0000
0000
1000
0000
0000
0000
0001
0000
0000
1000
0000
0000
0001
0000
0000
0000
0000
0000
,
1000
0100
1000
0100
1000
0100
1000
0100
1000
0000
0001
0000
0100
0000
0010
0000
,
1000
0001
1000
0001
1000
0001
1000
0001
1000
0000
0001
0000
0010
0000
0001
0000
,
0010
0001
0010
0001
0010
0001
0010
0001
0010
0000
0100
0000
1000
0000
0001
0000
,
0100
0001
0100
0001
0100
0001
0100
0001
0100
0000
0010
0000
1000
0000
0001
0000
,
1001
0000
0000
0000
0001
0010
0001
0000
0010
0100
0010
0000
0100
1000
0100
0000
,
1000
0010
1000
0010
1000
0000
0010
0000
0100
0000
0001
0000
1000
0000
0001
0000
,
1001
0000
0000
0000
1000
0000
1001
0000
0000
0000
1000
0000
0100
1000
0100
0000
,
0010
0001
0010
0100
1000
0000
0001
0000
1000
0010
0100
0001
1000
0000
0001
0000
,
1001
0000
1000
0000
0001
1000
0001
0000
0010
0000
0001
1000
0001
0000
0010
0000
,
0100
0010
0100
0000
1000
0000
0010
0100
0001
0000
0100
0000
0010
0000
0100
0000
,
0100
0000
0001
0000
1000
0100
1000
0000
0001
0000
1000
0100
1000
0000
0010
0000
,
0100
0010
0100
0000
0001
0000
1000
0100
0010
0000
0001
0000
0100
0000
0010
0000
,
0010
0000
1000
0000
0001
0010
0001
0000
1000
0000
0001
0010
0001
0000
1000
0000
,
0010
0100
0010
0000
1000
0000
0100
0010
0001
0000
0100
0000
0010
0000
0100
0000
,
0100
0000
0010
0000
1000
0010
1000
0000
0001
0000
1000
0010
1000
0000
0001
0000
,
0010
0001
0010
0000
0100
0000
1000
0001
0100
0000
0010
0000
0100
0000
0001
0000
,
0001
0000
1000
0000
0100
1000
0100
0000
0010
0000
0001
0010
0001
0000
1000
0000
,
0010
1000
0010
0000
0100
0000
0001
0100
0010
0000
1000
0000
0100
0000
0010
0000
,
0010
0000
0001
0000
1000
0100
1000
0000
0001
0000
0100
0001
0100
0000
0010
0000
,
1000
0010
1000
0000
0001
0000
0010
0100
1000
0000
0001
0000
0010
0000
0100
0000
,
0100
0000
1000
0000
0010
0100
0010
0000
1000
0000
0001
1000
0001
0000
0010
0000
,
0001
0010
0001
0000
1000
0000
0100
0010
0001
0000
1000
0000
0010
0000
0100
0000
,
M10M
0000
0010
0000
0100
0010
0100
0000
0001
0000
0010
0100
0010
0000
0001
0000
,
2000
3000
2MM2
3003
,
0001
0010
0010
0001
0100
0100
0010
1000
,
0001
0000
0100
0000
0100
0000
0010
0000
1000
0000
1000
0000
0001
1000
0001
1000
,
0001
0010
0010
0100
1000
1000
0001
0100
,
0010
0000
0100
0000
0100
0000
0001
0000
1000
0001
1000
0000
0001
1000
0001
0000
,
0100
0010
0010
0100
0001
0001
1000
0100
,
0010
0000
0100
0000
0100
0000
1000
0000
0010
0000
0010
0000
1000
0001
1000
0001
,
1000
0100
0100
1000
0001
0001
0100
0010
,
1000
0000
0001
0000
0001
0000
0010
0000
0001
1000
0001
0000
0100
0010
0100
0000
,
0001
1000
1000
0010
0100
0100
0001
0010
,
0100
1000
0100
0000
1000
0100
1000
0000
0001
0000
0100
0000
0010
1000
0010
1000
,
0010
0100
0100
0001
1000
1000
0100
0010
,
0001
1000
0001
1000
0001
0000
0100
0010
0100
0000
0010
0000
1000
0001
1000
0001
,
1000
0100
0100
0010
0001
0001
0100
0010
,
1000
0010
1000
0000
0010
1000
0010
0000
0100
0000
0010
0000
0100
0001
0100
0001
,
0100
0000
0001
0000
1000
0001
1000
0000
0001
0010
0100
1000
0100
0010
0001
0000
,
1001
0000
0000
2MM2
3003
0000
0000
0000
,
0001
0100
0001
0100
0010
0100
0010
1000
0010
1000
0001
1000
,
0001
0010
0001
0010
0100
0010
0100
1000
0100
1000
0001
1000
,
0001
0100
0010
1000
0001
0100
0010
1000
0001
1000
0100
0010
,
0001
0100
0010
0100
0001
0010
0100
0010
0001
0010
0100
1000
,
0100
0010
0100
0010
0001
0010
0001
1000
0001
1000
0010
1000
,
0010
0100
0010
0100
0001
0100
0001
1000
0001
1000
0100
1000
,
0100
0010
0100
1000
0001
0100
0010
1000
0001
1000
0100
0010
,
0001
0010
0100
1000
0010
0100
0001
0010
0100
1000
0001
0000
,
2002
3003
0000
0000
;

//---------------dance-single - Zarkonis----------------
#NOTES:
     dance-single:
     Zarkonis:
     Medium:
     11:
     0.960,1.000,0.190,0.091,0.522,778.000,23.000,11.000,160.000,0.000:






0000
0000
0000
0000
,
0000
0000
0000
0000
,
0000
0000
0000
0000
,
0000
0000
0000
0000
,
0000
0000
0000
0000
,
0000
0000
0000
0000
,
0000
0000
0000
0000
,
0000
0000
0000
0000
,
1001
0000
0000
0001
0000
0000
0010
0000
,
0100
1000
1100
0000
0001
0000
0100
0000
,
0110
0000
0000
0010
0000
0000
1000
0000
,
0001
0100
0101
0000
0010
0000
1000
0000
,
1001
0000
0001
0000
0000
0100
0000
0000
,
0010
1000
1010
0000
0001
0000
0010
0000
,
0110
0000
0000
0100
0000
0000
1000
0000
,
0010
0100
0110
0000
0001
0000
1000
0000
,
0001
0010
0001
0001
0010
0001
0001
0010
,
0100
0000
0100
0000
1000
0000
0001
0100
0001
0000
0100
0000
0010
0000
0100
0000
,
0001
0001
1000
1000
0001
1000
1000
0010
,
0010
0000
0100
0000
0001
0000
1000
0100
1000
0000
0001
0000
0100
0000
0000
0000
,
0010
1000
1001
0001
1000
0001
0001
1000
,
0010
0000
0010
0000
1000
0000
0100
0010
0100
0000
0010
0000
0001
0000
0010
0000
,
0001
0001
1000
1000
0001
0100
0100
0001
,
0010
0000
0010
0000
0100
0000
1000
0001
1000
0000
0010
0000
0100
0000
0001
0000
,
1000
1000
0100
0100
0010
0001
0001
1000
,
0010
0000
0010
0000
0100
0000
0010
0100
0010
0000
1000
0000
0100
0000
0010
0000
,
0001
0001
1000
1000
0001
0100
0100
0010
,
0010
0000
1000
0000
0001
0000
0010
0100
0010
0000
0001
0000
0010
0000
0100
0000
,
1000
1000
0010
0010
1000
0001
0001
0010
,
0001
0000
0001
0000
1000
0000
0010
0100
0010
0000
1000
0000
0010
0000
0100
0000
,
M02M
0030
0000
0000
0000
0000
0000
0000
0000
0000
0000
0000
2000
0000
0000
0000
,
31MM
0000
0000
0040
,
MM31
0000
0000
0000
,
0000
0000
0000
0000
,
0001
0001
0010
0100
1000
0010
0100
0001
,
0100
0100
0010
1000
0001
0010
0100
0010
,
0001
0001
1000
0001
1000
0010
0100
0001
,
1000
0001
1000
0000
0001
1000
0001
0000
0010
0000
0100
0000
1000
0000
0001
0000
,
1000
0000
0001
0001
0010
0100
1000
0010
,
0100
0100
0010
1000
0001
0010
0100
1000
,
1001
0000
0001
1000
0000
1000
0001
0000
,
1000
0001
1000
0000
0001
1000
0001
0000
1000
0000
0010
0000
1000
0000
0100
0000
,
0010
0010
0001
0100
0010
1000
0100
0010
,
0100
0100
1000
0010
0100
0001
0010
0100
,
1000
1000
0001
0100
0010
0100
0001
1000
,
0001
0001
1000
0100
0010
0100
1000
0001
,
1001
0000
1000
1000
0010
0100
0001
0010
,
0001
0001
0100
0010
1000
0100
1000
0001
,
1001
0000
1000
0001
0000
0001
1000
0000
,
0001
1000
0001
0000
1000
0001
1000
0000
0100
0000
0010
0000
0001
0000
0100
0000
,
0001
0010
0001
0010
0100
1000
0100
1000
,
0001
0000
0010
0000
0100
0000
1000
0000
0010
0000
0100
0000
0001
1000
0001
0000
,
1000
0010
1000
0010
0100
0001
0100
0001
,
1000
0000
0100
0000
0010
0000
0001
0000
1000
0001
1000
0000
0001
1000
0001
0000
,
0010
0100
0010
0100
1000
0001
1000
0001
,
0100
0000
0010
0000
0100
0000
0010
0000
1000
0000
0001
0000
1000
0001
1000
0000
,
0100
0010
0100
0010
0001
1000
0001
1000
,
0010
0000
0100
0000
0010
0000
0100
0000
0001
1000
0001
0000
1000
0001
1000
0000
,
0001
0100
0001
0100
0010
1000
0010
1000
,
0010
0000
0400
0000
0001
0000
0000
0000
0310
0000
1000
0000
0001
1000
0001
0000
,
1000
0100
1000
0100
0010
0001
0010
0001
,
1000
0001
1000
0000
0010
0000
1000
0001
1000
0000
0100
0000
1000
0001
1000
0001
,
1000
0100
1000
0100
0010
0001
0010
0001
,
1000
0040
0100
0000
1030
0100
0010
0010
,
0001
0001
1000
1000
0010
0400
0001
0000
,
0310
0000
0000
2MM2
3003
0000
0000
0000
,
0001
0010
0100
1000
0100
0010
0001
0100
,
0M00
0100
1000
0010
0100
0001
0010
0100
,
1000
1000
0010
0100
0001
1000
0001
0010
,
00M0
0010
1000
0010
0100
0001
0010
0100
,
0010
0010
0001
1000
0010
0100
0001
0100
,
0M00
0100
1000
0001
0010
0100
1000
0001
,
1000
000M
00M0
0M00
M000
00M0
0M00
00M0
M000
000M
00M0
000M
,
0M00
0000
0000
0000
00M0
0000
0000
0000
M000
0000
0000
0000
0M00
0000
0000
0000
00M0
0000
0000
0000
0M00
0000
0000
0000
M000
0000
0000
0000
00M0
0000
0000
0000
0M00
0000
0000
0000
00M1
0000
0000
1000
0000
0000
0001
0000
0000
1000
0000
0000
,
0001
1000
0100
0010
0001
0100
0010
1000
,
0010
0010
0100
0001
1000
0100
0010
0100
,
1000
1000
0001
1000
0001
0100
0010
1000
,
0001
1000
0001
0000
1000
0001
1000
0000
0100
0000
0010
0000
0001
0000
1000
0000
,
0001
0000
1000
1000
0100
0010
0001
0100
,
0010
0010
0100
0001
1000
0100
0010
0001
,
1001
0000
1000
0001
0000
0001
1000
0000
,
0001
1000
0001
0000
1000
0001
1000
0000
0001
0000
0100
0000
0001
0000
0010
0000
,
0001
0100
0010
0010
0100
0010
0010
0100
,
0001
0000
0001
0000
1000
0000
0001
0010
0001
0000
0010
0000
0100
0000
0010
0000
,
0001
0001
1000
1000
0001
1000
1000
0100
,
0010
0000
0010
0000
0001
0000
1000
0010
1000
0000
0001
0000
0010
0000
0100
0000
,
1000
1000
0001
0001
1000
0001
0001
1000
,
0100
0000
0100
0000
1000
0000
0010
0100
0010
0000
0100
0000
0001
0000
0100
0000
,
0001
0001
1000
1000
0100
0010
0010
0001
,
0100
0000
0100
0000
0010
0000
1000
0001
1000
0000
0100
0000
0010
0000
0001
0000
,
1000
1000
0010
0010
0100
0001
0001
1000
,
0100
0000
0100
0000
0010
0000
0100
0010
0100
0000
1000
0000
0010
0000
0100
0000
,
0001
0001
1000
1000
0001
0010
0010
0100
,
0100
0000
1000
0000
0001
0000
0100
0010
0100
0000
0001
0000
0100
0000
0010
0000
,
1000
1000
0100
0100
1000
0001
0001
0100
,
0001
0000
0001
0000
1000
0000
0010
0100
0010
0000
1000
0000
0100
0000
0010
0000
,
M20M
0300
0001
0000
0100
0000
0010
0000
0100
0000
1000
0000
0001
0000
1000
0000
,
002M
0030
0200
0300
,
0001
0100
0001
0100
0010
1000
0010
1000
,
0001
0000
0100
0000
0010
0000
1000
0000
0100
0000
0010
0000
0001
1000
0001
0000
,
1000
0100
1000
0100
0010
0001
0010
0001
,
1000
0000
0010
0000
0100
0000
0001
0000
1000
0001
1000
0000
0001
1000
0001
0000
,
0100
0010
0100
0010
1000
0001
1000
0001
,
0010
0000
0100
0000
0010
0000
0100
0000
1000
0000
0001
0000
1000
0001
1000
0000
,
0010
0100
0010
0100
0001
1000
0001
1000
,
0100
0000
0010
0000
0100
0000
0010
0000
0001
1000
0001
0000
1000
0001
1000
0000
,
0001
0010
0001
0010
0100
1000
0100
1000
,
0100
0000
0040
0000
0001
0000
0000
0000
0130
0000
1000
0000
0001
1000
0001
0000
,
1000
0010
1000
0010
0100
0001
0100
0001
,
1000
0001
1000
0000
0100
0000
1000
0001
1000
0000
0010
0000
1000
0001
1000
0001
,
1000
0010
1000
0010
0100
0001
0100
0001
,
1000
0400
0010
0000
1300
0010
0100
0100
,
0001
0001
1000
1000
0100
0040
0001
0000
,
0130
0000
0000
2MM2
3003
0000
0000
0000
,
M000
000M
00M0
0M00
M000
00M0
0M00
00M0
M000
000M
00M0
000M
,
0M00
0000
0000
0000
00M0
0000
0000
0000
M000
0000
0000
0000
0M00
0000
0000
0000
00M0
0000
0000
0000
0M00
0000
0000
0000
M000
0000
0000
0000
00M0
0000
0000
0000
0M00
0000
0000
0000
00M0
0000
0000
000M
0000
0000
00M0
0000
0000
0M00
0000
0000
,
M000
00M0
0M00
000M
M000
0M00
00M0
0M00
M000
00M0
0M00
000M
M000
000M
M000
0M00
,
00M0
000M
00M0
0M00
M000
0M00
00M0
000M
00M0
0M00
M000
000M
0M00
00M0
0M00
000M
,
M000
00M0
0M00
000M
0M00
00M0
M000
000M
00M0
0M00
M000
00M0
0M00
000M
00M0
0M00
,
M000
00M0
0M00
000M
M000
0M00
00M0
000M
00M0
0M00
M000
000M
M000
0M00
00M0
000M
,
00M0
0M00
M000
00M0
0M00
000M
00M0
0M00
M000
00M0
0M00
000M
00M0
0M00
M000
000M
,
M000
0M00
00M0
000M
00M0
0M00
M000
000M
M000
000M
00M0
0M00
M000
0M00
00M0
0M00
,
2MM2
3003
0000
0000
0000
0000
0000
0000
;
