#TITLE:User Error;
#SUBTITLE:;
#ARTIST:Underhill;
#TITLETRANSLIT:;
#SUBTITLETRANSLIT:;
#ARTISTTRANSLIT:;
#CREDIT:;
#BANNER:User Error-bn.png;
#BACKGROUND:User Error-bg.png;
#LYRICSPATH:;
#CDTITLE:;
#MUSIC:User Error.mp3;
#OFFSET:-0.021;
#SAMPLESTART:96.018;
#SAMPLELENGTH:12.000;
#SELECTABLE:YES;
#BPMS:0.000=140.000;
#STOPS:;
#BGCHANGES:;
// cache tags:
#FIRSTBEAT:32.000;
#LASTBEAT:330.000;
#SONGFILENAME:Songs/toune 8/User Error/User Error.sm;
#HASMUSIC:1;
#HASBANNER:1;
#MUSICLENGTH:142.372;
// end cache tags

//---------------dance-single - ----------------
#NOTES:
     dance-single:
     :
     Challenge:
     10:
     0.886,1.000,0.506,0.267,1.000,773.000,72.000,38.000,0.000,9.000:
0000
0000
0000
0000
,
0000
0000
0000
0000
,
0000
0000
0000
0000
,
0000
0000
0000
0000
,
0000
0000
0000
0000
,
0000
0000
0000
0000
,
0000
0000
0000
0000
,
0000
0000
0000
0000
,
1000
0000
0000
1000
0000
0000
1000
0000
1001
0000
0000
0000
0000
0000
0001
0000
,
0100
0000
0010
0100
0000
0000
0001
0100
1001
0000
0000
0000
0010
0000
0000
0000
,
1000
0100
1000
0100
0000
0000
0011
0000
1001
0000
0000
0000
0000
0000
1000
0000
,
0100
0000
0001
0100
0000
0000
1000
0100
1010
0000
0000
0000
1001
0000
0000
0000
,
0001
0000
0000
0001
0000
0000
0001
0000
1001
0000
0000
0000
0000
0000
1000
0000
,
0010
0000
0100
0010
0000
0000
1000
0010
1001
0000
0000
0000
0100
0000
0000
0000
,
0100
0010
0100
0010
0000
0000
0110
0000
2002
0000
0000
0000
3003
0000
0001
0000
,
0100
0000
1000
0100
0000
0000
0100
0010
0202
0000
0003
0000
1301
0000
0000
0000
,
0001
0010
0100
0000
0000
0000
0110
0000
1001
0000
0000
0000
0000
0000
1100
0000
,
0001
1000
0001
1000
0000
0000
0010
0010
0110
0000
0000
0000
0011
0000
0000
0000
,
1000
0100
0010
0001
0000
0000
0100
0010
1001
0000
0000
0000
0000
0000
0110
0000
,
0101
0000
0100
0010
0000
0000
0001
0100
1001
0000
0000
0000
0100
0000
0000
0000
,
1000
0100
0010
0001
1000
0100
0010
0001
0100
0010
1000
0001
0010
0100
1000
0010
,
0100
0001
1000
0010
0100
1000
0001
1000
0100
0010
0001
0100
0010
1000
0100
0010
,
2000
0000
0000
0100
0000
0000
0010
0000
3022
0000
0000
0000
0030
0000
0010
0000
,
1003
0000
0200
0000
0010
0001
1300
0000
0012
0000
0000
0000
0000
0000
0010
0010
,
1003
0100
0010
0001
1000
0100
0010
0000
0110
0000
0000
0000
0001
0000
0010
0000
,
1000
0000
1000
0100
0000
0000
0010
0001
0011
0000
0000
0000
1000
0000
0000
0000
,
1000
0100
0010
0001
1000
0000
0100
1000
1001
0000
0000
0000
0000
0000
0100
0000
,
0001
0000
0001
0100
0000
0000
0010
0100
1001
0000
0000
0000
0100
0000
0000
0000
,
0100
0000
0000
0110
0000
0000
1001
0000
0110
0000
0000
0000
0000
0000
0101
0000
,
1001
0000
0010
1000
0000
0000
1000
0010
0101
0000
0000
0000
1000
0100
0010
0000
,
2001
0000
0000
0010
0000
0000
0001
3000
0102
0000
0000
0000
0000
0000
0010
0000
,
0103
0000
0010
0010
0000
0000
0100
0100
0000
0000
0000
0000
2000
0000
0000
0000
,
3010
0001
0010
0100
0000
0000
1001
0000
0110
0000
0000
0000
0000
0000
0001
0000
,
0010
0000
1000
1000
0000
0000
0010
0010
0110
0000
0000
0000
0001
0000
0000
0000
,
0120
1000
0100
0001
0000
0000
0100
0000
1032
0000
0000
0000
0000
0000
0010
0000
,
0103
0000
0002
1000
0000
0000
0010
0010
2013
0000
0000
0000
0001
0000
0000
0000
,
3120
0000
0000
1000
0000
0000
0001
0000
0132
0000
0000
0000
0000
0000
1000
0000
,
0013
0000
0100
0100
0000
0000
0100
0100
1001
0000
0000
0000
2000
0000
0000
0000
,
3012
0100
0010
0100
0000
0000
0010
0000
2003
0000
0000
0000
0000
0000
0010
0000
,
3001
0100
0020
0001
0000
0000
0001
1000
0230
0000
0000
0000
0002
0000
0000
0000
,
0313
0100
1000
0001
0100
0001
1000
0100
0010
0001
0010
0100
1000
0100
1000
0010
,
0100
0001
0100
0010
1000
0100
0010
0001
0010
0100
1000
0010
0100
0001
1000
0100
,
0010
0001
1000
0001
0010
0100
0010
0001
1000
0100
1000
0001
0100
0001
0010
0100
,
1000
0100
0001
0010
2000
0010
0001
0100
3010
1000
0100
0010
0002
0010
0100
0010
,
1003
0010
0100
1000
0010
0100
0001
0010
0100
0010
0001
0100
0010
1000
0100
0010
,
1000
0100
1000
0010
0100
0010
0001
0010
0100
1000
0100
0010
1000
0001
1000
0010
,
0100
0010
0001
0100
0010
0100
1000
0100
0010
1000
0001
1000
0010
0100
0010
0001
,
1000
0001
0100
0010
2000
0100
0010
0001
3010
0100
1000
0010
0002
0010
0100
1000
,
0023
0000
0000
0000
0000
0000
0000
0000
1032
0100
0010
0100
0010
1000
0100
0010
,
1003
0100
0010
0001
0010
0100
1000
0100
1001
0100
0010
0100
0001
0100
0010
0100
,
1000
0100
0010
0001
1000
0100
0010
0001
0110
0001
0010
0100
1000
0100
0010
0001
,
0010
0100
0010
0001
1000
0100
1000
0010
1001
0100
0010
1000
0100
0010
0001
0100
,
0002
0100
0010
1000
0100
0010
0100
0013
2001
0100
0010
0001
0100
0010
0100
0001
,
3010
0100
0001
0100
0010
1000
0100
0010
1001
0100
0010
1000
0001
0010
0100
1000
,
0010
0001
0100
0010
0001
0100
0010
1000
0011
0100
1000
0010
0100
0001
0010
0100
,
0001
0100
0010
1000
0100
1000
0001
0100
0011
0100
1000
0100
0010
1000
0001
0100
,
0010
0000
0010
0000
0010
0000
0010
0000
1001
0000
0100
0000
0100
0010
0100
0000
,
0100
0010
0001
0100
0010
1000
0100
0010
1001
0100
1000
0000
1000
0010
1000
0000
,
0001
0010
0100
0000
0001
0000
0100
0000
1010
0000
0100
0000
0010
0000
0100
0000
,
0010
0001
0010
0100
1000
0010
0100
0010
1001
0010
0100
0000
0100
0010
0100
0000
,
0001
0001
1000
1000
0010
1000
0001
1000
0101
0000
0001
0100
0000
0100
0001
0100
,
1000
0100
1000
0100
0001
0100
0001
0100
0011
0100
1000
0100
1000
0100
1000
0000
,
0010
0100
0010
0100
0010
1000
0001
0100
0020
0000
1000
0001
0000
0001
1000
0000
,
0000
0000
0230
0000
0000
0000
0000
0000
0302
0000
0000
0000
0003
0000
0010
0100
,
1000
0010
0100
0010
1000
0001
1000
0001
0110
0000
0001
0100
0000
0100
1000
0000
,
0001
1000
0010
0000
1000
0100
0001
1000
0110
0001
0100
0000
0100
1000
0100
0000
,
0010
0000
0001
0100
0000
0100
0001
0000
1100
0001
0010
0000
0001
1000
0010
0000
,
1000
0010
1000
0001
0100
1000
0001
1000
0110
1000
0001
0000
0001
1000
0001
0000
,
0010
0100
0010
0001
0100
1000
0100
0000
0010
0000
0010
0000
0100
0001
0100
0000
,
1000
0000
1000
0010
0100
0001
0100
0000
0001
0100
0001
0000
1000
0010
1000
0000
,
0010
0001
1000
0000
0100
0000
0001
0000
0100
0000
0010
0000
1000
0100
1000
0100
,
0010
0000
0010
0000
0010
0000
0010
0001
1000
0000
0010
0000
0010
0100
1000
0001
,
0100
0001
1000
0100
0010
0000
0010
0000
1000
0001
0010
0000
0010
0000
0010
1000
,
0010
0001
0100
0001
0100
0000
0010
0000
0100
0000
0001
0000
0100
0000
1000
0001
,
0010
0100
0010
0001
0000
0000
0101
0000
1001
0000
0000
0000
0000
0000
1100
0000
,
0010
0001
0010
0100
0000
0000
0010
1000
1001
0000
0000
0000
0001
0000
0000
0000
,
0001
0100
0010
1000
0000
0000
1100
0000
1001
0000
0000
0000
0000
0000
0001
0000
,
0100
0000
0010
0100
0000
0000
1000
0100
1001
0000
0000
0000
0010
0000
0000
0000
,
0100
0010
0001
0010
0100
1000
0100
0010
1000
0100
1000
0001
0010
0100
1000
0100
,
0010
0001
0010
0100
1000
0100
0001
1000
0001
1000
0010
0100
0001
0100
0010
1000
,
0012
0000
0000
0100
0000
0000
0100
0003
1001
0000
0000
0000
0000
0000
0010
0000
,
0001
0001
0001
0001
0001
0000
0002
0000
0000
0000
0000
0000
0200
0000
0000
0003
,
0000
0000
0300
0000
;
