#TITLE:Apocalypse;
#SUBTITLE:-dirge of swans- (Another Step);
#ARTIST:Zektbach;
#TITLETRANSLIT:;
#SUBTITLETRANSLIT:;
#ARTISTTRANSLIT:;
#CREDIT:;
#BANNER:Apocalypse -dirge of swans- (Another Step).PNG;
#BACKGROUND:Apocalypse -dirge of swans- (Another Step)-bg.PNG;
#LYRICSPATH:;
#CDTITLE:NVLM-cdtitle.png;
#MUSIC:Apocalypse -dirge of swans- (Another Step).mp3;
#OFFSET:0.000;
#SAMPLESTART:35.274;
#SAMPLELENGTH:12.000;
#SELECTABLE:YES;
#DISPLAYBPM:*;
#BPMS:0.000=85.000,9.250=170.000,14.750=85.000,15.750=42.500,16.250=85.000,18.250=170.000,148.750=85.000,172.750=340.000,236.250=85.000,252.250=170.000,308.250=21.250,310.750=42.500,311.750=1000.000;
#STOPS:;
#BGCHANGES:;
// cache tags:
#FIRSTBEAT:1.250;
#LASTBEAT:310.750;
#SONGFILENAME:Songs/mongol/Apocalypse -dirge of swans- (Another Step)/Apocalypse -dirge of swans- (Another Step).sm;
#HASMUSIC:1;
#HASBANNER:1;
#MUSICLENGTH:124.891;
// end cache tags

//---------------dance-single - ----------------
#NOTES:
     dance-single:
     :
     Challenge:
     17:
     1.000,1.000,1.000,0.689,1.000,1170.000,253.000,86.000,0.000,89.000:  // measure 1
0000
0000
0000
0000
0000
1100
0110
0011
1001
1112
0000
0003
0000
1102
0110
1013
,  // measure 2
0101
1121
0000
0030
0000
1201
1010
0311
1001
2111
0000
3000
0000
1102
0110
0113
,  // measure 3
1001
0000
1112
0000
0000
0000
0003
0000
0110
0110
2002
0000
3200
0000
0320
0000
0230
0000
2300
0000
3200
0000
0320
0000
0230
0000
2300
0000
3200
0000
0320
0000
,  // measure 4
0230
0000
0000
0000
2300
0000
0000
0000
3200
0000
0000
0000
0320
0000
0000
0000
0230
0000
0000
0000
2300
0000
0000
0000
3200
0000
0000
0000
0320
0000
0000
0000
0230
0000
0000
0000
2300
0000
0000
0000
3200
0000
0000
0000
0320
0000
0230
0000
2300
0000
3200
0000
0320
0000
0230
0000
2300
0000
3200
0000
0320
0230
2300
3200
,  // measure 5
0320
0230
2300
3200
0320
0000
0230
0000
2300
0000
3200
0000
0320
0000
0230
0000
2300
0000
3200
0000
0320
0000
0230
0000
2300
0000
3200
0000
0320
0000
0230
0000
1303
0000
0000
0000
0000
0000
0000
0000
0000
0000
0000
0000
0000
0000
0000
0000
0000
0000
0000
0000
0000
0000
0000
0000
0000
0000
0000
0000
0000
0000
0000
0000
,  // measure 6
0000
0000
0000
1100
0010
0100
0010
0001
0010
0001
0010
0101
0010
0001
0010
0100
,  // measure 7
1000
0100
1000
0110
0001
0100
0001
0010
1000
0010
1000
0011
1000
0010
1000
0100
,  // measure 8
0001
0100
0001
1100
0010
0100
0010
0001
0010
0001
0010
0101
0010
0001
0010
0100
,  // measure 9
1000
0100
1000
0110
0001
0100
0001
0010
1000
0010
1000
0011
1000
0010
1000
0100
,  // measure 10
0001
0100
0001
1100
0010
0100
0010
0001
0010
0001
0010
0101
0010
0001
0010
0100
,  // measure 11
1000
0100
1000
0110
0001
0100
0001
0010
1000
0010
1000
0011
1000
0010
1000
0100
,  // measure 12
0001
0100
0001
1100
0010
0100
0010
0001
0010
0001
0010
0101
0010
0001
0010
0100
,  // measure 13
1000
0100
1000
0110
0001
0100
0001
0010
1000
0010
1000
0011
1000
0010
1000
0100
,  // measure 14
0001
0100
0001
1100
0010
0100
0010
1001
0010
0001
0010
0101
0010
0001
0010
0100
,  // measure 15
1000
0100
1000
0110
0001
0100
0001
0010
1000
0011
1000
0010
1000
0010
1000
0100
,  // measure 16
0001
0100
0001
1100
0010
0100
0010
1001
0010
0001
0010
0101
0010
0001
0010
0100
,  // measure 17
1000
0100
1000
0110
0001
0100
0001
0110
1000
0011
1000
0010
1000
0010
1000
0100
,  // measure 18
0001
0100
0001
1100
0010
0100
0010
1001
0010
0001
0010
0101
0010
0001
0010
0100
,  // measure 19
1000
0100
1000
0110
0001
0100
0001
0010
1000
0011
1000
0010
1000
0010
1000
0100
,  // measure 20
0001
0100
0001
1100
0010
0100
0010
1001
0010
0001
0010
0101
0010
0001
0010
0100
,  // measure 21
1000
0100
0010
0101
0000
0000
1100
0000
0000
0101
0000
0110
1000
0011
1000
0110
,  // measure 22
0001
1100
0001
1100
0010
0100
0010
1001
0100
0001
0100
1001
0010
0001
0010
1100
,  // measure 23
0010
0100
0010
1100
0010
0100
0010
1001
0100
0001
0100
1001
0010
0001
0010
1100
,  // measure 24
0010
0100
0010
1100
0010
0100
0010
1001
0100
0001
0100
1001
0010
0001
0010
1100
,  // measure 25
0010
0100
0010
1100
0010
0100
0010
1001
0100
0001
0100
1001
0010
0001
0010
1100
,  // measure 26
0010
0100
0010
1100
0010
0100
0010
1001
0100
0001
0100
1001
0010
0001
0010
1100
,  // measure 27
0010
0100
0010
1100
0010
0100
0010
1001
0100
0001
0100
1001
0010
0001
0010
1100
,  // measure 28
0010
0100
0010
1100
0010
0100
0010
1001
0100
0001
0100
1001
0010
0001
0010
1100
,  // measure 29
0010
0100
0010
1100
0010
0100
0010
1001
0100
0001
0100
1001
0010
0001
0010
1100
,  // measure 30
0010
0100
0010
1100
0010
0100
0010
1001
0100
0001
0100
1001
0010
0001
0010
1100
,  // measure 31
0010
0100
0010
1100
0010
0100
0010
1001
0100
0001
0100
1001
0010
0001
0010
1100
,  // measure 32
0010
0100
0010
1100
0010
0100
0010
1001
0100
0001
0100
1001
0010
0001
0010
1100
,  // measure 33
0010
0100
0010
1100
0010
0100
0010
1001
0100
0001
0100
1001
0010
0001
0010
1100
,  // measure 34
0010
0100
0010
1100
0010
0100
0010
1001
0100
0001
0100
1001
0010
0001
0010
1100
,  // measure 35
0010
0100
0010
1100
0010
0100
0010
1001
0100
0001
0100
1001
0010
0001
0010
1100
,  // measure 36
0010
0100
0010
1100
0010
0100
0010
1001
0100
0001
0100
1001
0010
0001
0010
1100
,  // measure 37
0010
0100
0010
1100
0010
0101
1000
0110
0001
1010
0100
1010
0001
0110
0001
1100
,  // measure 38
0010
1100
0001
1111
1111
0110
0110
1111
1111
1001
1001
1111
1111
0101
0101
1111
,  // measure 39
1111
1010
1010
1111
1111
0110
0110
1111
1111
1001
1001
1111
1111
0101
0101
1111
,  // measure 40
1111
0000
0000
1010
0000
0000
1010
0000
0000
1001
0000
0100
0000
0010
0000
0101
0000
0010
0000
0100
0000
1001
0000
0100
0000
0010
0000
0101
0000
0010
0000
0100
0000
1001
0000
0100
0000
0010
0000
0101
0000
0010
0000
0100
0000
1001
0000
0100
,  // measure 41
0000
0010
0000
0101
0000
0010
0000
0100
0000
1001
0000
0100
0000
0010
0000
0101
0000
0010
0000
0100
0000
1001
0000
0100
0000
0010
0000
0101
0000
0010
0000
0100
0000
1001
0000
0100
0000
0010
0000
0101
0000
0010
0000
0100
0000
1001
0000
0100
,  // measure 42
0000
0000
0000
0000
0010
0000
0000
0000
0000
0000
0000
0000
0101
0000
0000
0000
0000
0000
0000
0000
0010
0000
0000
0000
0000
0000
0000
0000
0100
0000
0000
0000
0000
0000
0000
0000
1001
0000
0000
0000
0000
0000
0000
0000
0100
0000
0000
0000
0000
0000
0000
0000
0010
0000
0000
0000
0000
0000
0000
0000
0001
0000
0000
0000
0000
0000
0000
0000
0010
0000
0000
0000
0000
0000
0000
0000
0100
0000
0000
0000
0000
0000
0000
0000
1001
0000
0000
0000
0000
0000
0000
0000
0100
0000
0000
0000
0000
0000
0000
0000
0010
0000
0000
0000
0000
0000
0000
0000
0001
0000
0000
0000
0000
0000
0000
0000
0010
0000
0000
0000
0001
0000
0000
0000
0100
0000
0010
0000
0000
0000
0000
0000
1011
0000
0000
0000
0000
0000
0000
0000
0100
0000
0000
0000
0000
0000
0000
0000
0010
0000
0000
0000
0000
0000
0000
0000
0001
0000
0000
0000
0000
0000
0000
0000
0010
0000
0000
0000
0000
0000
0000
0000
0100
0000
0000
0000
0000
0000
0000
0000
1001
0000
0000
0000
0000
0000
0000
0000
0100
0000
0000
0000
,  // measure 43
0000
0000
0000
0000
0010
0000
0000
0000
0000
0000
0000
0000
0001
0000
0000
0000
0000
0000
0000
0000
0010
0000
0000
0000
0000
0000
0000
0000
0100
0000
0000
0000
0000
0000
0000
0000
1001
0000
0000
0000
0000
0000
0000
0000
0100
0000
0000
0000
0000
0000
0000
0000
0010
0000
0000
0000
0000
0000
0000
0000
0001
0000
0000
0000
0000
0000
0000
0000
0010
0000
0000
0000
0000
0000
0000
0000
0100
0000
0000
0000
0000
0000
0000
0000
1000
0000
0000
0000
0000
0000
0000
0000
0100
0000
0000
0000
0000
0000
0000
0000
0010
0000
0000
0000
0000
0000
0000
0000
0001
0000
0000
0000
0000
0000
0000
0000
0010
0000
0000
0000
0001
0000
0000
0000
0100
0000
0010
0000
0000
0000
0000
0000
1001
0000
0000
0000
0000
0000
0000
0000
0100
0000
0000
0000
0000
0000
0000
0000
0010
0000
0000
0000
0000
0000
0000
0000
0101
0000
0000
0000
0000
0000
0000
0000
0010
0000
0000
0000
0000
0000
0000
0000
0100
0000
0000
0000
0000
0000
0000
0000
1001
0000
0000
0000
0000
0000
0000
0000
0100
0000
0000
0000
,  // measure 44
0001
0000
0000
0000
0010
0000
0000
0000
0000
0000
0000
0000
0101
0000
0000
0000
0000
0000
0000
0000
1000
0000
0000
0000
0001
0000
0000
0000
0100
0000
0010
0000
0000
0000
0000
0000
1001
0000
0000
0000
0000
0000
0000
0000
0000
0000
0000
0000
0000
0000
0000
0000
0000
0000
0000
0000
0000
0000
0000
0000
0010
0000
0000
0000
0000
0000
0000
0000
0100
0000
0000
0000
0000
0000
0000
0000
0000
0000
0000
0000
0000
0000
0000
0000
1000
0000
0000
0000
0000
0000
0000
0000
0000
0000
0000
0000
0000
0000
0000
0000
0010
0000
0000
0000
0000
0000
0000
0000
0100
0000
0000
0000
0000
0000
0000
0000
0000
0000
0000
0000
0000
0000
0000
0000
0000
0000
0000
0000
0000
0000
0000
0000
0001
0000
0000
0000
0000
0000
0000
0000
0000
0000
0000
0000
0000
0000
0000
0000
0000
0000
0000
0000
0000
0000
0000
0000
0010
0000
0000
0000
0000
0000
0000
0000
1000
0000
0000
0000
0000
0000
0000
0000
0000
0000
0000
0000
0000
0000
0000
0000
0001
0000
0000
0000
0000
0000
0000
0000
0000
0000
0000
0000
,  // measure 45
0000
0100
0000
0010
0000
0000
0000
0000
0000
0001
0000
0000
0000
0000
0000
1000
0000
0100
0000
0000
0000
0010
0000
0000
0000
1000
0000
0001
0000
0000
0000
0000
0000
0100
0000
0000
0000
0000
0000
0010
0000
0001
0000
0000
0000
1000
0000
0000
,  // measure 46
0000
0010
0000
0100
0000
0000
0000
0000
0000
1000
0000
0000
0000
0000
0000
0010
0000
0100
0000
0000
0000
1000
0000
0000
0000
0010
0000
0100
0000
0000
0000
0000
0000
0001
0000
0000
0000
0000
0000
0010
0000
1000
0000
0000
0000
0001
0000
0000
,  // measure 47
0000
0100
0000
0010
0000
0000
0000
0000
0000
0001
0000
0000
0000
0000
0000
1000
0000
0100
0000
0000
0000
0010
0000
0000
0000
1000
0000
0001
0000
0000
0000
0000
0000
0100
0000
0000
0000
0000
0000
0010
0000
0001
0000
0000
0000
1000
0000
0000
,  // measure 48
0000
0010
0000
0100
0000
0000
0000
0000
0000
1000
0000
0000
0000
0000
0000
0010
0000
0100
0000
0000
0000
1000
0000
0000
0000
0010
0000
0100
0000
0000
0000
0000
0000
0001
0000
0000
0000
0000
0000
0010
0000
1000
0000
0000
0000
0001
0000
0000
,  // measure 49
0000
0100
0000
0010
0000
0000
0000
0000
0000
0001
0000
0000
0000
0000
0000
1000
0000
0100
0000
0000
0000
0010
0000
0000
0000
1000
0000
0001
0000
0000
0000
0000
0000
0100
0000
0000
0000
0000
0000
0010
0000
0001
0000
0000
0000
1000
0000
0000
,  // measure 50
0000
0010
0000
0100
0000
0000
0000
0000
0000
0001
0000
0000
0000
0000
0000
1000
0000
0100
0000
0000
0000
0010
0000
0000
0000
1000
0000
0001
0000
0000
0000
0000
0000
0100
0000
0000
0000
0000
0000
0010
0000
0001
0000
0000
0000
1000
0000
0000
,  // measure 51
0000
0010
0000
0100
0000
0000
0000
0000
0000
0001
0000
0000
0000
0000
0000
1000
0000
0100
0000
0000
0000
0010
0000
0000
0000
1000
0000
0001
0000
0000
0000
0000
0000
0100
0000
0000
0000
0000
0000
0010
0000
0001
0000
0000
0000
1000
0000
0000
,  // measure 52
0000
0010
0000
0100
0000
0000
0000
0000
0000
0001
0000
0000
0000
0000
0000
1000
0000
0100
0000
0000
0000
0010
0000
0000
0000
1000
0000
0001
0000
0000
0000
0000
0000
0100
0000
0000
0000
0000
0000
0010
0000
0001
0000
0000
0000
1000
0000
0000
,  // measure 53
0000
0010
0000
0100
0000
0000
0000
0000
0000
0001
0000
0000
0000
0000
0000
1000
0000
0100
0000
0000
0000
0010
0000
0000
0000
1000
0000
0001
0000
0000
0000
0000
0000
0100
0000
0000
0000
0000
0000
0010
0000
0001
0000
0000
0000
1000
0000
0000
,  // measure 54
0000
0010
0000
0100
0000
0000
0000
0000
0000
0001
0000
0000
0000
0000
0000
1000
0000
0100
0000
0000
0000
0010
0000
0000
0000
1000
0000
0001
0000
0000
0000
0000
0000
0100
0000
0000
0000
0000
0000
0010
0000
0001
0000
0000
0000
1000
0000
0000
,  // measure 55
0000
0010
0000
0100
0000
0000
0000
0000
0000
0001
0000
0000
0000
0000
0000
1000
0000
0100
0000
0000
0000
0010
0000
0000
0000
1000
0000
0001
0000
0000
0000
0000
0000
0100
0000
0000
0000
0000
0000
0010
0000
0001
0000
0000
0000
1000
0000
0000
,  // measure 56
0000
0010
0000
0100
0000
0000
0000
0000
0000
0001
0000
0000
0000
0000
0000
1000
0000
0100
0000
0000
0000
0010
0000
0000
0000
1000
0000
0001
0000
0000
0000
0000
0000
0100
0000
0000
0000
0000
0000
0010
0000
0001
0000
0000
0000
1000
0000
0000
,  // measure 57
0000
0010
0000
0100
0000
0000
0000
0000
0000
0001
0000
0000
0000
0000
0000
1000
0000
0100
0000
0000
0000
0010
0000
0000
0000
1000
0000
0001
0000
0000
0000
0000
0000
0100
0000
0000
0000
0000
0000
0010
0000
0001
0000
0000
0000
1000
0000
0000
,  // measure 58
0000
0010
0000
0100
0000
0000
0000
0000
0000
0001
0000
0000
0000
0000
0000
1000
0000
0100
0000
0000
0000
0010
0000
0000
0000
1000
0000
0001
0000
0000
0000
0000
0000
0100
0000
0000
0000
0000
0000
0010
0000
0001
0000
0000
0000
1000
0000
0000
,  // measure 59
0000
0010
0000
0100
0000
0000
0000
0000
0000
0001
0000
0000
0000
0000
0000
1000
0000
0100
0000
0000
0000
0010
0000
0000
0000
1000
0000
0001
0000
0000
0000
0000
0000
0100
0000
0000
0000
0000
0000
0010
0000
0001
0000
0000
0000
1000
0000
0000
,  // measure 60
0000
0010
0000
2000
0000
0000
0000
0000
0000
0000
0000
0000
0000
0000
0000
3200
0000
0000
0000
0000
0000
0000
0000
0000
0000
0000
0000
0320
0000
0000
0000
0000
0000
0000
0000
0000
0000
0000
0000
0032
0000
0000
0000
0000
0000
0000
0000
0000
,  // measure 61
0000
0023
0000
0230
0000
0320
0000
0000
0000
0230
0000
0000
0000
2300
0000
0000
,  // measure 62
0000
3200
0000
0000
0000
0320
0000
0000
0000
0230
0000
0000
0000
0320
0000
0032
,  // measure 63
0000
0000
0000
0000
0023
0000
0000
0000
0000
0000
0000
0000
0000
0000
0000
0000
0000
0000
0000
0000
1230
0010
0001
1000
0010
0001
1000
0010
0001
1000
0010
0001
1000
0010
0001
1000
0321
0000
0000
0000
0000
0000
0000
0000
0000
0000
0000
0000
0000
0000
0000
0000
0230
0000
0000
0000
0000
0000
0000
0000
0000
0000
0000
0000
,  // measure 64
0000
1300
0010
0100
0010
1001
0100
0001
0100
1001
0010
0001
0010
1100
0010
0100
,  // measure 65
0010
1100
0010
0100
0010
1001
0100
0001
0100
1001
0010
0001
0010
1100
0010
0100
,  // measure 66
0010
1100
0010
0100
0010
1001
0100
0001
0100
1001
0010
0001
0010
1100
0010
0100
,  // measure 67
0010
1100
0010
0100
0010
1001
0100
0001
0100
1001
0010
0001
0010
1100
0010
0100
,  // measure 68
0010
1100
0010
0100
0010
1001
0100
0001
0100
1001
0010
0001
0010
1100
0010
0100
,  // measure 69
0010
1100
0010
0100
0010
1001
0100
0001
0100
1001
0010
0001
0010
1100
0010
0100
,  // measure 70
0010
1100
0010
0100
0010
1001
0100
0001
0100
1001
0010
0001
0010
1100
0010
0100
,  // measure 71
0010
1100
0010
0100
0010
1001
0100
0001
0100
1001
0010
0001
0010
1100
0010
0100
,  // measure 72
0010
1100
0010
0100
0010
1001
0100
0001
0100
1001
0010
0001
0010
1100
0010
0100
,  // measure 73
0010
1100
0010
0100
0010
1001
0100
0001
0100
1001
0010
0001
0010
1100
0010
0100
,  // measure 74
0010
1100
0010
0100
0010
1001
0100
0001
0100
1001
0010
0001
0010
1100
0010
0100
,  // measure 75
0010
1100
0010
0100
0010
1001
0100
0001
0100
1001
0010
0001
0010
1100
0010
0100
,  // measure 76
0010
1100
0010
0100
0010
1001
0100
0001
0100
1001
0010
0001
0010
1100
0010
0100
,  // measure 77
0010
1100
0010
0101
1000
0110
0001
1010
0100
1010
0001
0110
0001
1100
0010
1100
,  // measure 78
0001
0000
2222
0003
0002
0300
0200
3000
2000
0300
0200
0000
0000
0000
0000
0000
0000
0000
0000
0000
0000
0000
3333
0000
0000
0000
0000
0000
0000
0000
0000
0000
;

//---------------dance-single - ----------------
#NOTES:
     dance-single:
     :
     Hard:
     14:
     1.000,1.000,0.681,0.681,1.000,1091.000,85.000,85.000,0.000,20.000:  // measure 1
0000
0000
0000
0000
0000
1100
0110
0011
1001
1112
0000
0003
0000
1102
0110
1013
,  // measure 2
0101
1121
0000
0030
0000
1201
1010
0311
1001
2111
0000
3000
0000
1102
0110
0113
,  // measure 3
1001
0000
1112
0000
0000
0000
0003
0000
0110
0110
2000
0000
3200
0000
0302
0000
0203
0000
2300
0000
3020
0000
0032
0000
0023
0000
0230
0000
0320
0000
0032
0000
,  // measure 4
0203
0000
0000
0000
2300
0000
0000
0000
3020
0000
0000
0000
0032
0000
0000
0000
0203
0000
0000
0000
2300
0000
0000
0000
3020
0000
0000
0000
0032
0000
0000
0000
0023
0000
0000
0000
2030
0000
0000
0000
3200
0000
0000
0000
0302
0000
0203
0000
2300
0000
3020
0000
0032
0000
0203
0000
2300
0000
3020
0000
0032
0203
2300
3200
,  // measure 5
0302
0023
2030
3200
0302
0000
0203
0000
2300
0000
3020
0000
0032
0000
0203
0000
2300
0000
3200
0000
0302
0000
0023
0000
2030
0000
3200
0000
0320
0000
0230
0000
1300
0000
0000
0000
0000
0000
0000
0000
0000
0000
0000
0000
0000
0000
0000
0000
0000
0000
0000
0000
0000
0000
0000
0000
0000
0000
0000
0000
0000
0000
0000
0000
,  // measure 6
0000
0000
0000
0100
0010
0100
0010
0001
0010
0001
0010
1000
0010
1000
0010
0100
,  // measure 7
1000
0100
1000
0100
0001
0100
0001
0010
1000
0010
1000
0010
0001
0010
0001
0100
,  // measure 8
0001
0100
0001
0100
0010
0100
0010
0001
0010
0001
0010
1000
0010
1000
0010
0100
,  // measure 9
1000
0100
1000
0100
0001
0100
0001
0010
1000
0010
1000
0010
0001
0010
0001
0100
,  // measure 10
0001
0100
0001
0100
0010
0100
0010
0001
0010
0001
0010
1000
0010
1000
0010
0100
,  // measure 11
1000
0100
1000
0100
0001
0100
0001
0010
1000
0010
1000
0010
0001
0010
0001
0100
,  // measure 12
0001
0100
0001
0100
0010
0100
0010
0001
0010
0001
0010
1000
0010
1000
0010
0100
,  // measure 13
1000
0100
1000
0100
0001
0100
0001
0010
1000
0010
1000
0010
0001
0010
0001
0100
,  // measure 14
0001
0100
0001
0100
0010
0100
0010
0001
0010
0001
0010
1000
0010
1000
0010
0100
,  // measure 15
1000
0100
1000
0100
0001
0100
0001
0010
1000
0010
1000
0010
0001
0010
0001
0100
,  // measure 16
0001
0100
0001
0100
0010
0100
0010
0001
0010
0001
0010
1000
0010
1000
0010
0100
,  // measure 17
1000
0100
1000
0100
0001
0100
0001
0010
1000
0010
1000
0010
0001
0010
0001
0100
,  // measure 18
0001
0100
0001
0100
0010
0100
0010
0001
0010
0001
0010
1000
0010
1000
0010
0100
,  // measure 19
1000
0100
1000
0100
0001
0100
0001
0010
1000
0010
1000
0010
0001
0010
0001
0100
,  // measure 20
0001
0100
0001
0100
0010
0100
0010
0001
0010
0001
0010
1000
0010
1000
0010
0100
,  // measure 21
1000
0100
1000
0011
0000
0000
1100
0000
0000
0101
0000
0110
1001
0110
1001
0110
,  // measure 22
1001
0110
1001
0100
0010
0100
0010
0001
0100
0001
0100
1000
0010
1000
0010
0001
,  // measure 23
0010
0001
0010
0100
0010
0100
0010
0001
0100
0001
0100
1000
0010
1000
0010
0001
,  // measure 24
0010
0001
0010
0100
0010
0100
0010
0001
0100
0001
0100
1000
0010
1000
0010
0001
,  // measure 25
0010
0001
0010
0100
0010
0100
0010
0001
0100
0001
0100
1000
0010
1000
0010
0001
,  // measure 26
0010
0001
0010
0100
0010
0100
0010
0001
0100
0001
0100
1000
0010
1000
0010
0001
,  // measure 27
0010
0001
0010
0100
0010
0100
0010
0001
0100
0001
0100
1000
0010
1000
0010
0001
,  // measure 28
0010
0001
0010
0100
0010
0100
0010
0001
0100
0001
0100
1000
0010
1000
0010
0001
,  // measure 29
0010
0001
0010
0100
0010
0100
0010
0001
0100
0001
0100
1000
0010
1000
0010
0001
,  // measure 30
0010
0001
0010
0100
0010
0100
0010
0001
0100
0001
0100
1000
0010
1000
0010
0001
,  // measure 31
0010
0001
0010
0100
0010
0100
0010
0001
0100
0001
0100
1000
0010
1000
0010
0001
,  // measure 32
0010
0001
0010
0100
0010
0100
0010
0001
0100
0001
0100
1000
0010
1000
0010
0001
,  // measure 33
0010
0001
0010
0100
0010
0100
0010
0001
0100
0001
0100
1000
0010
1000
0010
0001
,  // measure 34
0010
0001
0010
0100
0010
0100
0010
0001
0100
0001
0100
1000
0010
1000
0010
0001
,  // measure 35
0010
0001
0010
0100
0010
0100
0010
0001
0100
0001
0100
1000
0010
1000
0010
0001
,  // measure 36
0010
0001
0010
0100
0010
0100
0010
0001
0100
0001
0100
1000
0010
1000
0010
0001
,  // measure 37
0010
0001
0010
0100
0010
0100
0010
0001
0100
0001
0100
1000
0010
1000
0010
0001
,  // measure 38
0010
0001
0010
1001
1001
0110
0110
0011
0011
1100
1100
1010
1010
0101
0101
1001
,  // measure 39
1001
0110
0110
0101
0101
1010
1010
0011
0011
1100
1100
0110
0110
1001
1001
0011
,  // measure 40
0011
0000
0000
1100
0000
0000
1100
0000
0000
1000
0000
0100
0000
0010
0000
0001
0000
0010
0000
0100
0000
1000
0000
0100
0000
0010
0000
0001
0000
0010
0000
0100
0000
1000
0000
0100
0000
0010
0000
0001
0000
0010
0000
0100
0000
1000
0000
0100
,  // measure 41
0000
0010
0000
0001
0000
0010
0000
0100
0000
1000
0000
0100
0000
0010
0000
0001
0000
0010
0000
0100
0000
1000
0000
0100
0000
0010
0000
0001
0000
0010
0000
0100
0000
1000
0000
0100
0000
0010
0000
0001
0000
0010
0000
0100
0000
1000
0000
0100
,  // measure 42
0000
0010
0000
0001
0000
0010
0000
0100
0000
1000
0000
0100
0000
0010
0000
0001
0000
0010
0000
0100
0000
1000
0000
0100
0000
0010
0000
0001
0000
0010
0000
0100
0000
1000
0000
0100
0000
0010
0000
0001
0000
0010
0000
0100
0000
1000
0000
0100
,  // measure 43
0000
0010
0000
0001
0000
0010
0000
0100
0000
1000
0000
0100
0000
0010
0000
0001
0000
0010
0000
0100
0000
1000
0000
0100
0000
0010
0000
0001
0000
0010
0000
0100
0000
1000
0000
0100
0000
0010
0000
0001
0000
0010
0000
0100
0000
1000
0000
0100
,  // measure 44
0000
0010
0000
0001
0000
0010
0000
0100
0000
1001
0000
0000
0000
0000
0000
0010
0000
0000
0000
0000
0000
1000
0000
0000
0000
0000
0000
0100
0000
0000
0000
0000
0000
0001
0000
0000
0000
0000
0000
0010
0000
0000
0000
0000
0000
0001
0000
0000
,  // measure 45
0000
0010
0000
0001
0000
1000
0000
0010
0000
0001
0000
0100
0000
0010
0000
1000
,  // measure 46
0000
0100
0000
0001
0000
0010
0000
1000
0000
0100
0000
0001
0000
0010
0000
0001
,  // measure 47
0000
0010
0000
0001
0000
1000
0000
0010
0000
0001
0000
0100
0000
0010
0000
1000
,  // measure 48
0000
0100
0000
0001
0000
0010
0000
1000
0000
0100
0000
0001
0000
0010
0000
0001
,  // measure 49
0000
0010
0000
0001
0000
1000
0000
0010
0000
0001
0000
0100
0000
0010
0000
1000
,  // measure 50
0000
0100
0000
0001
0000
0010
0000
1000
0000
0100
0000
0001
0000
0010
0000
0001
,  // measure 51
0000
0010
0000
0001
0000
1000
0000
0010
0000
0001
0000
0100
0000
0010
0000
1000
,  // measure 52
0000
0100
0000
0001
0000
0010
0000
1000
0000
0100
0000
0001
0000
0010
0000
0001
,  // measure 53
0000
0010
0000
0001
0000
1000
0000
0010
0000
0001
0000
0100
0000
0010
0000
1000
,  // measure 54
0000
0100
0000
0001
0000
0010
0000
1000
0000
0100
0000
0001
0000
0010
0000
0001
,  // measure 55
0000
0010
0000
0001
0000
1000
0000
0010
0000
0001
0000
0100
0000
0010
0000
1000
,  // measure 56
0000
0100
0000
0001
0000
0010
0000
1000
0000
0100
0000
0001
0000
0010
0000
0001
,  // measure 57
0000
0010
0000
0001
0000
1000
0000
0010
0000
0001
0000
0100
0000
0010
0000
1000
,  // measure 58
0000
0100
0000
0001
0000
0010
0000
1000
0000
0100
0000
0001
0000
0010
0000
0001
,  // measure 59
0000
0010
0000
0001
0000
1000
0000
0010
0000
0001
0000
0100
0000
0010
0000
1000
,  // measure 60
0000
2100
0000
0000
0000
3200
0000
0000
0000
0320
0000
0000
0000
0032
0000
0000
,  // measure 61
0000
0023
0000
0230
0000
0320
0000
0000
0000
0230
0000
0000
0000
2300
0000
0000
,  // measure 62
0000
3200
0000
0000
0000
0320
0000
0000
0000
0230
0000
0000
0000
0320
0000
0032
,  // measure 63
0000
0000
0023
0000
0000
0000
0000
0000
0000
0000
1230
0001
0010
1000
0001
0010
1000
0001
0321
0000
0000
0000
0000
0000
0000
0000
0230
0000
0000
0000
0000
0000
,  // measure 64
0000
1300
0010
0100
0010
0001
0100
0001
0100
1000
0010
1000
0010
0001
0010
0001
,  // measure 65
0010
0100
0010
0100
0010
0001
0100
0001
0100
1000
0010
1000
0010
0001
0010
0001
,  // measure 66
0010
0100
0010
0100
0010
0001
0100
0001
0100
1000
0010
1000
0010
0001
0010
0001
,  // measure 67
0010
0100
0010
0100
0010
0001
0100
0001
0100
1000
0010
1000
0010
0001
0010
0001
,  // measure 68
0010
0100
0010
0100
0010
0001
0100
0001
0100
1000
0010
1000
0010
0001
0010
0001
,  // measure 69
0010
0100
0010
0100
0010
0001
0100
0001
0100
1000
0010
1000
0010
0001
0010
0001
,  // measure 70
0010
0100
0010
0100
0010
0001
0100
0001
0100
1000
0010
1000
0010
0001
0010
0001
,  // measure 71
0010
0100
0010
0100
0010
0001
0100
0001
0100
1000
0010
1000
0010
0001
0010
0001
,  // measure 72
0010
0100
0010
0100
0010
0001
0100
0001
0100
1000
0010
1000
0010
0001
0010
0001
,  // measure 73
0010
0100
0010
0100
0010
0001
0100
0001
0100
1000
0010
1000
0010
0001
0010
0001
,  // measure 74
0010
0100
0010
0100
0010
0001
0100
0001
0100
1000
0010
1000
0010
0001
0010
0001
,  // measure 75
0010
0100
0010
0100
0010
0001
0100
0001
0100
1000
0010
1000
0010
0001
0010
0001
,  // measure 76
0010
0100
0010
0100
0010
0001
0100
0001
0100
1000
0010
1000
0010
0001
0010
0001
,  // measure 77
0010
1100
0011
1100
0011
1100
0011
1100
0011
1100
0011
1100
0011
1100
0011
1100
,  // measure 78
0001
0000
2222
0003
0002
0300
0200
3000
2000
0300
0200
0000
0000
0000
0000
0000
0000
0000
0000
0000
0000
0000
3333
0000
0000
0000
0000
0000
0000
0000
0000
0000
;

//---------------dance-single - ----------------
#NOTES:
     dance-single:
     :
     Medium:
     10:
     0.868,1.000,0.577,0.280,1.000,652.000,72.000,35.000,0.000,5.000:  // measure 1
0000
0000
0000
0000
0000
1000
0100
0010
0001
2002
0000
3003
0000
1000
0100
0010
,  // measure 2
0001
2002
0000
3003
0000
1000
0100
0010
0001
2002
0000
3003
0000
1000
0100
0010
,  // measure 3
0001
0000
2002
0000
0000
0000
3003
0000
0110
0110
2002
0000
0000
0000
0000
0000
0000
0000
0000
0000
0000
0000
0000
0000
0000
0000
0000
0000
0000
0000
0000
0000
,  // measure 4
0000
0000
0000
0000
,  // measure 5
0000
0000
3003
0000
,  // measure 6
0000
0000
0000
1010
0000
0100
0000
0010
0000
0001
0000
1010
0000
0000
0000
0000
,  // measure 7
0000
0000
0000
1010
0000
0100
0000
0001
0000
1010
0000
0101
0000
0001
0000
1000
,  // measure 8
0000
0010
0000
1010
0000
0100
0000
0010
0000
0001
0000
1010
0000
0000
0000
0000
,  // measure 9
0000
0001
0000
1010
0000
0100
0000
0001
0000
1010
0000
0101
0000
0001
0000
1000
,  // measure 10
0000
0010
0000
1010
0000
0100
0000
0010
0000
0001
0000
1010
0000
0001
0000
1000
,  // measure 11
0000
0100
0000
1010
0000
0100
0000
0001
0000
1010
0000
0101
0000
0001
0000
1000
,  // measure 12
0000
0010
0000
1010
0000
0100
0000
0010
0000
0001
0000
1010
0000
0001
0000
1000
,  // measure 13
0000
0100
0000
1010
0000
0100
0000
0001
0000
1010
0000
0101
0000
0001
0000
1000
,  // measure 14
0000
0010
0000
1010
0000
0100
0000
1010
0000
0001
0000
0110
0000
1000
0000
0100
,  // measure 15
0000
0001
0000
1010
0000
0100
0000
0001
0000
1010
0000
0101
0000
0001
0000
1000
,  // measure 16
0000
0010
0000
1010
0000
0100
0000
1010
0000
0001
0000
0110
0000
1000
0000
0100
,  // measure 17
0000
0001
0000
1010
0000
0100
0000
0001
0000
1010
0000
0101
0000
0001
0000
1000
,  // measure 18
0000
0010
0000
1010
0000
0100
0000
1010
0000
0001
0000
0110
0000
1000
0000
0100
,  // measure 19
0000
0001
0000
1010
0000
0100
0000
0001
0000
1010
0000
0101
0000
0001
0000
1000
,  // measure 20
0000
0010
0000
0001
0000
1000
0000
0100
0000
0010
0000
0001
0000
0001
0000
0100
,  // measure 21
0000
0010
0000
1001
0000
0000
1001
0000
0000
1100
0000
0010
0100
0010
0100
0010
,  // measure 22
0100
0010
0100
0010
0000
0001
0000
1000
0100
0010
0000
0001
0000
0100
0000
1000
,  // measure 23
0100
0010
0000
0100
0000
0010
0000
0001
1000
0100
0000
0010
0000
0001
0000
1000
,  // measure 24
0001
0100
0000
0010
0000
0001
0000
1000
0100
0010
0000
0001
0000
0100
0000
1000
,  // measure 25
0100
0010
0000
0100
0000
0010
0000
0001
1000
0100
0000
0010
0000
0001
0000
1000
,  // measure 26
0001
0100
0000
0010
0000
0001
0000
1000
0100
0010
0000
0001
0000
0100
0000
1000
,  // measure 27
0100
0010
0000
0100
0000
0010
0000
0001
1000
0100
0000
0010
0000
0001
0000
1000
,  // measure 28
0001
0100
0000
0010
0000
0001
0000
1000
0100
0010
0000
0001
0000
0100
0000
1000
,  // measure 29
0100
0010
0000
0100
0000
0010
0000
0001
1000
0100
0000
0010
0000
0001
0000
1000
,  // measure 30
0001
0100
0000
0010
0000
0001
0000
1000
0100
0010
0000
0001
0000
0100
0000
1000
,  // measure 31
0100
0010
0000
0100
0000
0010
0000
0001
1000
0100
0000
0010
0000
0001
0000
1000
,  // measure 32
0001
0100
0000
0010
0000
0001
0000
1000
0100
0010
0000
0001
0000
0100
0000
1000
,  // measure 33
0100
0010
0000
0100
0000
0010
0000
0001
1000
0100
0000
0010
0000
0001
0000
1000
,  // measure 34
0001
0100
0000
0010
0000
0001
0000
1000
0100
0010
0000
0001
0000
0100
0000
1000
,  // measure 35
0100
0010
0000
0100
0000
0010
0000
0001
1000
0100
0000
0010
0000
0001
0000
1000
,  // measure 36
0001
0100
0000
0010
0000
0001
0000
1000
0100
0010
0000
0001
0000
0100
0000
1000
,  // measure 37
0100
0010
0000
0100
0010
0100
0010
0100
0010
0100
0010
0100
0010
0100
0010
0100
,  // measure 38
0010
0100
0010
0100
0100
1000
1000
0001
0001
0010
0010
0001
0001
1000
1000
0100
,  // measure 39
0100
0010
0010
0100
0100
1000
1000
0001
0001
0010
0010
0001
0001
1000
1000
0100
,  // measure 40
0100
0010
0010
1001
0000
1001
0000
0101
0000
0101
0000
1001
0000
1001
0000
1100
,  // measure 41
0000
1100
0000
0101
0000
0101
0000
0110
0000
0110
0000
0101
0000
0101
0000
0011
,  // measure 42
0000
0000
0011
0000
0000
0000
1001
0000
0000
0000
0100
0000
0000
0000
0010
0000
0000
0000
0001
0000
0001
0010
0001
0000
0000
0000
0011
0000
0000
0000
0100
0000
,  // measure 43
0000
0000
1000
0000
0000
0000
1001
0000
0000
0000
0100
0000
0000
0000
0010
0000
0000
0000
0001
0000
0001
0010
0001
0000
0000
0000
0101
0000
0010
0000
0100
0000
,  // measure 44
0010
1000
0010
0001
0000
0000
0000
0010
0000
0000
0000
0001
0000
0000
0000
0100
,  // measure 45
0000
0000
0000
1000
0000
0000
0000
0010
0000
0000
0000
0001
0000
0000
0000
1000
,  // measure 46
0000
0000
0000
0100
0000
0000
0000
0010
0000
0000
0000
0001
0000
0000
0000
0100
,  // measure 47
0000
0000
0000
0010
0000
0000
0000
1000
0000
0000
0000
0100
0000
0000
0000
0001
,  // measure 48
0000
0000
0000
0100
0000
0000
0000
0010
0000
0000
0000
0001
0000
0000
0000
0100
,  // measure 49
0000
0000
0000
1000
0000
0000
0000
0010
0000
0000
0000
0001
0000
0000
0000
1000
,  // measure 50
0000
0000
0000
0100
0000
0000
0000
0010
0000
0000
0000
0001
0000
0000
0000
0100
,  // measure 51
0000
0000
0000
0010
0000
0000
0000
1000
0000
0000
0000
0100
0000
0000
0000
0010
,  // measure 52
0000
0000
0000
0001
0000
0000
0000
0010
0000
0000
0000
0001
0000
0000
0000
0100
,  // measure 53
0000
0000
0000
1000
0000
0000
0000
0010
0000
0000
0000
0001
0000
0000
0000
1000
,  // measure 54
0000
0000
0000
0100
0000
0000
0000
0010
0000
0000
0000
0001
0000
0000
0000
0100
,  // measure 55
0000
0000
0000
0010
0000
0000
0000
1000
0000
0000
0000
0100
0000
0000
0000
0001
,  // measure 56
0000
0000
0000
0001
0000
0000
0000
0010
0000
0000
0000
0001
0000
0000
0000
0100
,  // measure 57
0000
0000
0000
1000
0000
0000
0000
0010
0000
0000
0000
0001
0000
0000
0000
1000
,  // measure 58
0000
0000
0000
0100
0000
0000
0000
0010
0000
0000
0000
0001
0000
0000
0000
0100
,  // measure 59
0000
0000
0000
0010
0000
0000
0000
1000
0000
0000
0000
0100
0000
0000
0000
0001
,  // measure 60
0000
2100
0000
0000
0000
3200
0000
0000
0000
0320
0000
0000
0000
0032
0000
0000
,  // measure 61
0000
0023
0000
0230
0000
0320
0000
0000
0000
0230
0000
0000
0000
2300
0000
0000
,  // measure 62
0000
3200
0000
0000
0000
0320
0000
0000
0000
0230
0000
0000
0000
0320
0000
0032
,  // measure 63
0000
0000
0023
0000
0000
0000
0000
0000
0000
0000
1230
0001
1000
0001
1000
0001
1000
0001
0320
0000
0000
0000
0000
0000
0000
0000
0230
0000
0000
0000
0000
0000
,  // measure 64
0000
1300
0010
0001
0000
0100
0010
0001
0000
1000
0010
0100
0000
0001
0100
0010
,  // measure 65
0000
0100
0010
0100
0000
0001
0010
0001
0000
1000
0001
0100
0000
0010
0001
1000
,  // measure 66
0000
1000
0010
0001
0000
0100
0010
0001
0000
1000
0010
0100
0000
0001
0100
0010
,  // measure 67
0000
0100
0010
0100
0000
0001
0010
0001
0000
1000
0001
0100
0000
0010
0001
1000
,  // measure 68
0000
1000
0010
0001
0000
0100
0010
0001
0000
1000
0010
0100
0000
0001
0100
0010
,  // measure 69
0000
0100
0010
0100
0000
0001
0010
0001
0000
1000
0001
0100
0000
0010
0001
1000
,  // measure 70
0000
1000
0010
0001
0000
0100
0010
0001
0000
1000
0010
0100
0000
0001
0100
0010
,  // measure 71
0000
0100
0010
0100
0000
0001
0010
0001
0000
1000
0001
0100
0000
0010
0001
1000
,  // measure 72
0000
1000
0010
0001
0000
0100
0010
0001
0000
1000
0010
0100
0000
0001
0100
0010
,  // measure 73
0000
0100
0010
0100
0000
0001
0010
0001
0000
1000
0001
0100
0000
0010
0001
1000
,  // measure 74
0000
1000
0010
0001
0000
0100
0010
0001
0000
1000
0010
0100
0000
0001
0100
0010
,  // measure 75
0000
0100
0010
0100
0000
0001
0010
0001
0000
1000
0001
0100
0000
0010
0001
1000
,  // measure 76
0000
1000
0010
0001
0000
0100
0010
0001
0000
1000
0010
0100
0000
0001
0100
0010
,  // measure 77
0000
0100
0010
0100
1000
0001
0010
0001
0100
1000
0001
0100
1000
0010
0001
1000
,  // measure 78
0010
0202
2300
0023
3232
0023
0000
0000
0000
0000
0000
0330
0000
0000
0000
0000
;

//---------------dance-single - ----------------
#NOTES:
     dance-single:
     :
     Easy:
     4:
     0.329,0.591,0.048,0.280,0.969,247.000,6.000,35.000,0.000,0.000:  // measure 1
0000
0000
0000
0000
0000
0000
0000
0000
0000
0002
0000
0003
0000
0020
0000
0030
,  // measure 2
0000
0200
0000
0300
0000
2000
0000
3000
0000
0002
0000
0003
0000
0020
0000
0030
,  // measure 3
0000
0200
0000
0300
2002
0000
0000
0000
0000
0000
0000
0000
0000
0000
0000
0000
,  // measure 4
0000
0000
0000
0000
,  // measure 5
0000
0000
3003
0000
,  // measure 6
0000
0000
0000
0001
0000
0000
0000
0000
0000
0000
0000
0010
0000
0000
0000
0000
,  // measure 7
0000
0000
0000
0100
0000
0000
0000
0000
0000
1000
0000
0001
0000
0000
0000
0000
,  // measure 8
0000
0000
0000
0001
0000
0000
0000
0000
0000
0000
0000
0010
0000
0000
0000
0000
,  // measure 9
0000
0000
0000
0100
0000
0000
0000
0000
0000
1000
0000
0001
0000
0000
0000
0000
,  // measure 10
0000
0000
0000
0001
0000
0000
0000
0000
0000
0000
0000
0010
0000
0000
0000
0000
,  // measure 11
0000
0000
0000
0100
0000
0000
0000
0000
0000
1000
0000
0001
0000
0000
0000
0000
,  // measure 12
0000
0000
0000
0001
0000
0000
0000
0000
0000
0000
0000
0010
0000
0000
0000
0000
,  // measure 13
0000
0000
0000
0100
0000
0000
0000
0000
0000
1000
0000
0001
0000
0000
0000
0000
,  // measure 14
0000
0000
0000
0010
0000
0000
0000
0010
0000
0000
0000
0001
0000
0000
0000
0000
,  // measure 15
0000
0000
0000
1000
0000
0000
0000
0000
0000
0010
0000
0001
0000
0000
0000
0000
,  // measure 16
0000
0000
0000
0010
0000
0000
0000
0010
0000
0000
0000
0001
0000
0000
0000
0000
,  // measure 17
0000
0000
0000
1000
0000
0000
0000
0000
0000
0010
0000
0001
0000
0000
0000
0000
,  // measure 18
0000
0000
0000
0010
0000
0000
0000
0010
0000
0000
0000
0001
0000
0000
0000
0000
,  // measure 19
0000
0000
0000
1000
0000
0000
0000
0000
0000
0010
0000
0001
0000
0000
0000
0000
,  // measure 20
0000
0000
0000
0001
0000
0000
0000
0100
0000
0000
0000
0001
0000
0000
0000
0100
,  // measure 21
0000
0000
0000
1001
0000
0000
0000
0000
0000
1100
0000
0020
0000
0000
0000
0000
,  // measure 22
0000
0000
0000
0030
0000
0001
0000
0000
0000
0010
0000
0000
0000
0100
0000
0000
,  // measure 23
0000
0010
0000
0000
0000
0010
0000
0000
0000
0100
0000
0000
0000
0001
0000
0000
,  // measure 24
0000
0100
0000
0000
0000
0001
0000
0000
0000
0010
0000
0000
0000
0100
0000
0000
,  // measure 25
0000
0010
0000
0000
0000
0010
0000
0000
0000
0100
0000
0000
0000
0001
0000
0000
,  // measure 26
0000
0100
0000
0000
0000
0001
0000
0000
0000
0010
0000
0000
0000
0100
0000
0000
,  // measure 27
0000
0010
0000
0000
0000
0010
0000
0000
0000
0100
0000
0000
0000
0001
0000
0000
,  // measure 28
0000
0100
0000
0000
0000
0001
0000
0000
0000
0010
0000
0000
0000
0100
0000
0000
,  // measure 29
0000
0010
0000
0000
0000
0010
0000
0000
0000
0100
0000
0000
0000
0001
0000
0000
,  // measure 30
0000
0100
0000
0000
0000
0001
0000
0000
0000
0010
0000
0000
0000
0100
0000
0000
,  // measure 31
0000
0010
0000
0000
0000
0010
0000
0000
0000
0100
0000
0000
0000
0001
0000
0000
,  // measure 32
0000
0100
0000
0000
0000
0001
0000
0000
0000
0010
0000
0000
0000
0100
0000
0000
,  // measure 33
0000
0010
0000
0000
0000
0010
0000
0000
0000
0100
0000
0000
0000
0001
0000
0000
,  // measure 34
0000
0100
0000
0000
0000
0001
0000
0000
0000
0010
0000
0000
0000
0100
0000
0000
,  // measure 35
0000
0010
0000
0000
0000
0010
0000
0000
0000
0100
0000
0000
0000
0001
0000
0000
,  // measure 36
0000
0100
0000
0000
0000
0001
0000
0000
0000
0010
0000
0000
0000
0100
0000
0000
,  // measure 37
0000
0010
0000
0000
0000
0010
0000
0000
0000
0100
0000
0000
0000
0001
0000
0000
,  // measure 38
0000
0100
0000
0100
0000
1000
0000
0001
0000
0010
0000
0001
0000
1000
0000
0100
,  // measure 39
0000
0010
0000
0100
0000
1000
0000
0001
0000
0010
0000
0001
0000
1000
0000
0100
,  // measure 40
0000
0010
0000
0001
0000
1000
0000
0001
0000
0100
0000
0001
0000
1000
0000
0100
,  // measure 41
0000
1000
0000
0001
0000
0100
0000
0010
0000
0100
0000
0001
0000
0100
0000
0001
,  // measure 42
0000
0010
0000
0001
0000
0100
0000
0010
0000
0001
0010
0001
0000
0010
0000
0100
,  // measure 43
0000
1000
0000
1001
0000
0100
0000
0010
0000
0001
0010
0001
0000
0101
0000
0100
,  // measure 44
0000
1000
0000
2002
0000
0000
0000
0000
0000
0000
0000
0000
0000
0000
0000
0000
,  // measure 45
0000
0000
0000
0000
,  // measure 46
0000
0000
0000
0000
,  // measure 47
0000
0000
0000
0000
,  // measure 48
0000
0000
0000
0000
,  // measure 49
0000
0000
0000
0000
,  // measure 50
0000
0000
0000
0000
,  // measure 51
0000
0000
0000
0000
,  // measure 52
0000
0000
0000
0000
,  // measure 53
0000
0000
0000
0000
,  // measure 54
0000
0000
0000
0000
,  // measure 55
0000
0000
0000
0000
,  // measure 56
0000
0000
0000
0000
,  // measure 57
0000
0000
0000
0000
,  // measure 58
0000
0000
0000
0000
,  // measure 59
0000
0000
0000
0000
,  // measure 60
3003
2000
0000
0000
0000
3200
0000
0000
0000
0320
0000
0000
0000
0032
0000
0000
,  // measure 61
0000
0023
0000
0230
0000
0320
0000
0000
0000
0230
0000
0000
0000
2300
0000
0000
,  // measure 62
0000
3200
0000
0000
0000
0320
0000
0000
0000
0230
0000
0000
0000
0320
0000
0032
,  // measure 63
0000
0023
0000
0000
0000
0230
0000
0000
0000
0320
0000
0000
0000
0230
0000
0000
,  // measure 64
0000
0301
0000
0000
0000
0010
0000
0000
0000
0100
0000
0000
0000
0010
0000
0000
,  // measure 65
0000
0010
0000
0000
0000
0100
0000
0000
0000
0001
0000
0000
0000
0100
0000
0000
,  // measure 66
0000
0001
0000
0000
0000
0010
0000
0000
0000
0100
0000
0000
0000
0010
0000
0000
,  // measure 67
0000
0010
0000
0000
0000
0100
0000
0000
0000
0001
0000
0000
0000
0100
0000
0000
,  // measure 68
0000
0001
0000
0000
0000
0010
0000
0000
0000
0100
0000
0000
0000
0010
0000
0000
,  // measure 69
0000
0010
0000
0000
0000
0100
0000
0000
0000
0001
0000
0000
0000
0100
0000
0000
,  // measure 70
0000
0001
0000
0000
0000
0010
0000
0000
0000
0100
0000
0000
0000
0010
0000
0000
,  // measure 71
0000
0010
0000
0000
0000
0100
0000
0000
0000
0001
0000
0000
0000
0100
0000
0000
,  // measure 72
0000
0001
0000
0000
0000
0010
0000
0000
0000
0100
0000
0000
0000
0010
0000
0000
,  // measure 73
0000
0010
0000
0000
0000
0100
0000
0000
0000
0001
0000
0000
0000
0100
0000
0000
,  // measure 74
0000
0001
0000
0000
0000
0010
0000
0000
0000
0100
0000
0000
0000
0010
0000
0000
,  // measure 75
0000
0010
0000
0000
0000
0100
0000
0000
0000
0001
0000
0000
0000
0100
0000
0000
,  // measure 76
0000
0001
0000
0000
0000
0010
0000
0000
0000
0100
0000
0000
0000
0010
0000
0000
,  // measure 77
0000
0010
0000
0000
0000
0100
0000
0000
0000
0001
0000
0000
0000
0100
0000
0000
,  // measure 78
0000
0200
2300
3020
0032
0023
0000
0000
0000
0000
0000
0030
0000
0000
0000
0000
;
