#TITLE:Space Dog Escape Pod;
#SUBTITLE:;
#ARTIST:Mayhem;
#TITLETRANSLIT:;
#SUBTITLETRANSLIT:;
#ARTISTTRANSLIT:;
#CREDIT:Owem;
#BANNER:../banner.png;
#BACKGROUND:../bg.png;
#LYRICSPATH:;
#CDTITLE:../cdtitleowem.png;
#MUSIC:Mayhem - Space Dog Escape Pod.ogg;
#OFFSET:-0.395;
#SAMPLESTART:63.951;
#SAMPLELENGTH:21.333;
#SELECTABLE:YES;
#BPMS:0.000=135.000;
#STOPS:;
#BGCHANGES:;
// cache tags:
#FIRSTBEAT:15.000;
#LASTBEAT:576.000;
#SONGFILENAME:Songs/Owem's Simfiles 08 - 1.2/Space Dog Escape Pod - [Owem]/Space Dog Escape Pod.sm;
#HASMUSIC:1;
#HASBANNER:1;
#MUSICLENGTH:263.288;
// end cache tags

//---------------dance-single - 11- (Owem)----------------
#NOTES:
     dance-single:
     11- (Owem):
     Challenge:
     11:
     0.914,0.902,0.243,1.000,0.503,1282.000,64.000,332.000,25.000,0.000:
0000
0000
0000
0000
,
0000
0000
0000
0000
,
0000
0000
0000
0000
,
0000
0000
0000
0000
0000
0000
2000
3020
,
0230
0000
0000
0000
0000
0000
0302
0000
0000
0000
0000
0000
2003
0000
0000
0000
0000
0000
3200
0000
0000
0000
0000
0000
0320
0000
0000
0000
0000
0000
0000
0000
0000
0031
0000
0000
2000
0000
0000
0000
0000
0000
3001
0000
0100
0000
0001
0000
,
0200
0000
0320
0000
2030
0000
3002
0000
2003
0000
0000
3100
0040
0000
0034
0000
,
2003
0000
3020
0000
0230
0000
0302
0000
2003
0000
0000
3010
0200
0000
0301
1000
,
0002
0000
0023
0000
0230
0300
2000
3000
0002
0000
0203
0000
0320
0000
0230
0000
,
0302
0000
0000
0000
0000
0000
2003
0000
0000
0000
0000
0000
3200
0000
0000
0000
0000
0000
0320
0000
0000
0000
0000
0000
0032
0000
0000
0000
0000
0000
0000
0000
0000
0003
0000
0000
2000
0000
0000
0000
0000
0000
3010
0000
0100
0000
0010
0000
,
0200
0000
0302
0000
2003
0000
3002
0000
0023
0000
0000
0030
0400
0000
4300
0000
,
3002
0000
0203
0000
0320
0000
2030
0000
3002
0000
0000
0103
0040
0000
1030
0001
,
2000
0000
3200
0000
0320
0030
0002
0003
2000
0000
3020
0000
0230
0000
0302
0000
,
2003
0000
0000
0000
0000
0000
3002
0000
0000
0000
0000
0000
0023
0000
0000
0000
0000
0000
0230
0000
0000
0000
0000
0000
2300
0000
0000
0000
0000
0000
0000
0000
0000
3000
0000
0000
0020
0000
0000
0000
0000
0000
0130
0000
0001
0000
0100
0000
,
0002
0000
2003
0000
3200
0000
0320
0000
0032
0000
0000
0003
4000
0000
3040
0000
,
0230
0000
0302
0000
2003
0000
3002
0000
0203
0000
0000
0300
0040
0000
1030
0001
,
2000
0000
0000
3000
0000
0000
0200
0000
0000
0300
0000
0000
0020
0000
0000
0030
0000
0000
0002
0000
0000
0003
0000
0000
1000
0000
0000
0000
0010
0000
0100
0000
0000
0000
0000
0000
M1M1
0000
0000
0000
0000
0000
0001
0000
0000
0000
0000
0000
,
1001
1000
0010
0100
0101
0001
1000
0010
,
0110
0100
0001
1000
1100
0100
0010
0001
,
0101
0100
0010
1000
1001
0001
0100
0010
,
1010
1000
0001
1000
1100
0100
0010
0001
,
0101
0100
0010
1000
1001
0001
0010
0001
,
0101
0100
0010
1000
1010
0010
0100
0001
,
1001
1000
0010
0100
0101
0001
1000
0100
,
0110
0010
0001
1000
1010
0010
0100
0001
,
1000
0000
0100
0000
0010
0000
0001
0100
0001
0000
1000
0000
0100
0000
0010
0000
,
0001
0000
0000
0000
0000
0000
1000
0000
0000
0000
0000
0000
0010
0000
0000
0000
0000
0000
0100
0000
0000
0001
0000
0000
0100
0000
0000
0000
0000
0000
0010
0000
1000
0000
0010
0000
1000
0000
0000
0000
0000
0000
0001
0000
0000
0000
0000
0000
,
1000
0000
0100
0000
0010
0000
0001
1000
0001
0000
0100
0000
0010
0000
1000
0000
,
0100
1000
0010
0100
0101
0002
1003
0100
,
0010
0000
0001
0000
1000
0000
0001
0100
0001
0000
0010
0000
0100
0000
1000
0000
,
0010
0000
0000
0000
0000
0000
0100
0000
0000
0000
0000
0000
0001
0000
0000
0000
0000
0000
1000
0000
0000
0010
0000
0000
1000
0000
0000
0000
0000
0000
0001
0000
0100
0000
0001
0000
0100
0000
0000
0000
0000
0000
0010
0000
0000
0000
0000
0000
,
1000
0000
0001
0000
1000
0000
0100
0010
0001
0000
1000
0000
0001
0000
0100
0000
,
0010
0000
0000
0000
0100
0000
0000
0000
0001
0000
0000
0000
1000
0000
0000
0000
0100
0000
0000
0000
2000
0000
0000
3000
1MM1
0000
0000
0000
0001
0000
0000
0000
,
0100
0000
0000
0000
0001
0000
0000
0000
0000
1000
0000
0000
0001
0000
0000
0000
0100
0000
0001
0000
0000
0000
0000
0000
2000
0000
0000
0000
0000
0000
0010
0000
0000
0000
3000
0000
1000
0000
0000
0000
0000
0000
0001
0000
0000
0000
0000
0000
,
0010
0000
0000
0100
0000
0000
1000
0000
0001
1000
0000
0000
0002
0000
0000
0100
0000
0003
0001
0000
0000
0010
0000
0000
,
0100
0000
0000
0000
1000
0000
0000
0000
0000
0010
0000
0000
0100
0000
0000
0000
0001
0000
1000
0000
0000
0000
0000
0000
0002
0000
0000
0000
0000
0000
0010
0000
0000
0000
0003
0000
0001
0000
0000
0000
1000
0000
0010
0000
1000
0000
0010
0000
,
1000
0000
0000
0100
0000
0000
0010
0000
0001
0010
0000
0000
0200
0000
0000
2300
0000
0000
3001
0000
0000
0100
0000
0000
,
0010
0000
0000
0000
1000
0000
0000
0000
0000
0001
0000
0000
1000
0000
0000
0000
0010
0000
1000
0000
0000
0000
0000
0000
0002
0000
0000
0000
0000
0000
0010
0000
0000
0000
0003
0000
0001
0000
0000
0000
0000
0000
0100
0000
0000
0000
0000
0000
,
0010
0000
0000
1000
0000
0000
0001
0000
1000
0001
0000
0000
0200
0000
0000
0010
0000
0300
0100
0000
0000
0001
0000
0000
,
1000
0000
0000
0000
0100
0000
0000
0000
0000
0010
0000
0000
0001
0000
0000
0000
1000
0000
0001
0000
0000
0000
0000
0000
2000
0000
0000
0000
0000
0000
0100
0000
0000
0000
3000
0000
1000
0000
0000
0000
0001
0000
0100
0000
0001
0000
0100
0000
,
0001
0000
0000
0010
0000
0000
0100
0000
1000
0100
0000
0000
0020
0000
0000
0032
0000
0000
1003
0000
0000
0010
0000
0000
,
0100
0000
0000
0000
0001
0000
0000
0000
0000
0010
0000
0000
0001
0000
0000
0000
0100
0000
0010
0000
0000
0000
0000
0000
2000
0000
0000
0000
0000
0000
0010
0000
0000
0000
3000
0000
1000
0000
0000
0000
0000
0000
0001
0000
0000
0000
0000
0000
,
0010
0000
0000
0100
0000
0000
1000
0000
0001
0100
0000
0000
0002
0000
0000
1000
0000
0003
0001
0000
0000
0010
0000
0000
,
0100
0000
0000
0000
1000
0000
0000
0000
0000
0010
0000
0000
0100
0000
0000
0000
0001
0000
1000
0000
0000
0000
0000
0000
0002
0000
0000
0000
0000
0000
0100
0000
0000
0000
0003
0000
0001
0000
0000
0000
1000
0000
0001
0000
1000
0000
0001
0000
,
1000
0000
0000
0100
0000
0000
0010
0000
0001
0010
0000
0000
0200
0000
0000
2300
0000
0000
3001
0000
0000
0100
0000
0000
,
0010
0000
0000
0000
1000
0000
0000
0000
0000
0001
0000
0000
1000
0000
0000
0000
0010
0000
0100
0000
0000
0000
0000
0000
0002
0000
0000
0000
0000
0000
0010
0000
0000
0000
0003
0000
0001
0000
0000
0000
0000
0000
0100
0000
0000
0000
0000
0000
,
0010
0000
0000
1000
0000
0000
0001
0000
0010
0001
0000
0000
0200
0000
0000
0010
0000
0300
0100
0000
0000
0001
0000
0000
,
1000
0000
0000
0000
0100
0000
0000
0000
0000
0010
0000
0000
0001
0000
0000
0000
1000
0000
0001
0000
0000
0000
0000
0000
2000
0000
0000
0000
0000
0000
0100
0000
0000
0000
3000
0000
1000
0000
0000
0000
0001
0000
0100
0000
0001
0000
0100
0000
,
0001
0000
0000
0010
0000
0000
0100
0000
1000
0100
0000
0000
0020
0000
0000
0030
0000
0000
MM21
0000
0000
0032
0000
0000
,
0103
0000
0000
0020
0000
0000
1030
0000
0000
0002
0000
0000
0013
0000
0000
0200
0000
0000
1300
0000
0001
1000
0000
0010
,
0200
0000
0000
0302
0000
0000
2003
0000
0000
3200
0000
0000
0320
0000
0000
0001
0000
0030
0020
0000
0000
0230
0000
0000
,
1300
0000
0000
0002
0000
0000
0103
0000
0000
0020
0000
0000
1030
0000
0000
0002
0000
0000
1003
0000
0100
0010
0000
0001
,
0020
0000
0000
0230
0000
0000
2300
0000
0000
3002
0000
0000
0203
0000
0000
0010
0000
0300
0200
0000
0000
0302
0000
0000
,
1003
0000
0000
0200
0000
0000
0310
0000
0000
0002
0000
0000
1003
0000
0000
0020
0000
0000
0130
0000
0001
1000
0000
0001
,
2000
0000
0000
3200
0000
0000
0320
0000
0000
0032
0000
0000
2003
0000
0000
0010
0000
3000
2000
0000
0000
3002
0000
0000
,
0013
0000
0000
0200
0000
0000
1300
0000
0000
0002
0000
0000
1003
0000
0000
0020
0000
0000
0130
0000
0001
0100
0000
0010
,
2000
0000
0000
3002
0000
0000
0023
0000
0000
0230
0000
0000
2300
0000
0000
0001
0000
3000
2000
0000
0000
3002
0000
0000
,
0103
0000
0000
0020
0000
0000
1030
0000
0000
0002
0000
0000
0013
0000
0000
0200
0000
0000
1300
0000
0010
1000
0000
0001
,
0200
0302
2003
3200
0320
0032
2003
3200
,
1300
0000
0000
0002
0000
0000
0103
0000
0000
0020
0000
0000
1030
0000
0000
0002
0000
0000
1003
0000
0100
0010
0000
0001
,
0020
0230
2300
3002
0203
0320
2030
3002
,
1003
0000
0000
0200
0000
0000
0310
0000
0000
0002
0000
0000
1003
0000
0000
0020
0000
0000
0130
0000
0001
0100
0000
0010
,
2000
3200
0320
0032
2003
3020
0230
0302
,
0013
0000
0000
0200
0000
0000
1300
0000
0000
0002
0000
0000
1003
0000
0000
0020
0000
0000
0130
0000
0001
1000
0000
0100
,
2000
0000
0000
0000
3002
0000
0000
0000
0023
0000
0000
0000
0230
0000
0000
0000
2300
0000
0000
3000
0002
0000
0000
0003
1MM1
0000
0000
0000
1000
0000
0000
0000
,
0010
0000
0000
0000
0100
0000
0000
0000
0000
0001
0000
0000
0000
0000
0000
0000
1000
0000
0100
0000
0000
0000
0000
0000
0020
0000
0000
0000
0000
0000
0000
0000
0000
0030
0000
0000
0001
0000
0000
0000
0000
0000
0100
0000
0000
0000
0000
0000
,
0010
0000
0000
0000
0000
0000
1000
0000
0000
0000
0000
0000
0001
0000
0000
0000
1000
0000
0010
0000
0000
0000
0000
0000
0200
0000
0000
0000
0000
0000
0000
0000
0000
0300
0000
0000
0001
0000
0000
0000
0000
0000
1000
0000
0000
0000
0000
0000
,
0100
0000
0000
0000
0010
0000
0000
0000
0000
0001
0000
0000
0000
0000
0000
0000
1000
0000
0010
0000
0000
0000
0000
0000
0200
0000
0000
0000
0000
0000
0000
0000
0000
0300
0000
0000
0001
0000
0000
0000
1000
0000
0010
0000
1000
0000
0010
0000
,
0100
0000
0000
0000
0000
0000
0001
0000
0000
0000
0000
0000
1000
0000
0000
0000
0100
0000
0010
0000
0000
0000
0000
0000
0002
0000
0000
0000
0000
0003
2000
0000
0000
0000
0000
0000
3010
0000
0000
0000
0000
0000
0100
0000
0000
0000
0000
0000
,
0001
0000
0000
0000
1000
0000
0000
0000
0000
0010
0000
0000
0000
0000
0000
0000
0100
0000
0001
0000
0000
0000
0000
0000
2000
0000
0000
0000
0000
0000
0000
0000
0000
3000
0000
0000
0100
0000
0000
0000
0000
0000
0010
0000
0000
0000
0000
0000
,
0001
0000
0000
0000
0000
0000
1000
0000
0000
0000
0000
0000
0001
0000
0000
0000
0100
0000
0001
0000
0000
0000
0000
0000
2000
0000
0000
0000
0000
0000
0000
0000
0000
3000
0000
0000
0010
0000
0000
0000
0000
0000
0100
0000
0000
0000
0000
0000
,
0001
0000
0000
0000
1000
0000
0000
0000
0000
0001
0000
0000
0000
0000
0000
0000
0100
0000
0010
0000
0000
0000
0000
0000
2000
0000
0000
0000
0000
0000
0000
0000
0000
3000
0000
0000
0001
0000
0000
0000
0100
0000
0010
0000
0100
0000
0010
0000
,
1000
0000
0000
0000
0000
0000
0000
0000
0000
0000
0000
0000
0001
0000
0000
0000
0000
0000
0000
0000
0000
0000
0000
0000
1000
0000
0000
0000
0000
0000
0000
0000
0100
0000
0000
0000
0010
0000
0000
0000
0000
0000
0000
0000
0000
0000
0000
0000
0002
0000
0000
0000
0000
0000
0000
0000
0000
0000
0003
0000
2000
0000
0000
0000
0000
0000
0000
0000
0000
3000
0000
0000
1M10
0000
0000
0000
0000
0000
0000
0000
0000
0000
0000
0000
0010
0000
0000
0000
0000
0000
0000
0000
0000
0000
0000
0000
,
0100
0000
0000
0000
0001
0000
0000
0000
0000
1000
0000
0000
0000
0000
0000
0000
0001
0000
1000
0000
0000
0000
0000
0000
0020
0000
0000
0000
0000
0000
0100
0000
0000
0030
0000
0000
0010
0000
0000
0000
0000
0000
0100
0000
0000
0000
0000
0000
,
0001
0000
0000
0000
0000
0000
1000
0000
0000
0000
0000
0000
0100
0000
0000
0000
0010
0000
0001
0000
0000
0000
0000
0000
2000
0000
0000
0000
0000
0000
0001
0000
0000
3000
0000
0000
1000
0000
0000
0000
0000
0000
0010
0000
0000
0000
0000
0000
,
0100
0000
0000
0000
0001
0000
0000
0000
0000
1000
0000
0000
0000
0000
0000
0000
0001
0000
0100
0000
0000
0000
0000
0000
0020
0000
0000
0000
0000
0000
1000
0000
0000
0030
0000
0000
1000
0000
0000
0000
0001
0000
0100
0000
0001
0000
0100
0000
,
0010
0000
0000
0000
0000
0000
1000
0000
0000
0000
0000
0000
0001
0000
0000
0000
1000
0000
0100
0000
0000
0000
0000
0000
0020
0000
0000
0000
0000
0030
0002
0000
0000
0000
0000
0000
1003
0000
0000
0000
0000
0000
0010
0000
0000
0000
0000
0000
,
0100
0000
0000
0000
0001
0000
0000
0000
0000
1000
0000
0000
0000
0000
0000
0000
0100
0000
0010
0000
0000
0000
0000
0000
0002
0000
0000
0000
0000
0000
1000
0000
0000
0003
0000
0000
0001
0000
0000
0000
0000
0000
0100
0000
0000
0000
0000
0000
,
0010
0000
0000
0000
0000
0000
0100
0000
0000
0000
0000
0000
0001
0000
0000
0000
1000
0000
0001
0000
0000
0000
0000
0000
2000
0000
0000
0000
0000
0000
0001
0000
0000
3000
0000
0000
1000
0000
0000
0000
0000
0000
0100
0000
0000
0000
0000
0000
,
0010
0000
0000
0000
0001
0000
0000
0000
0000
1000
0000
0000
0000
0000
0000
0000
0010
0000
1000
0000
0000
0000
0000
0000
0002
0000
0000
0000
0000
0000
0100
0000
0000
0003
0000
0000
0100
0000
0000
0000
0010
0000
1000
0000
0010
0000
1000
0000
,
0100
0000
0000
0010
0000
0000
0001
0000
1000
0001
0000
0000
0200
0000
0000
0340
0000
0030
2M1M
0000
0000
3001
0000
0000
,
0200
0000
0000
0310
0000
0000
1000
0000
0001
0000
1000
0000
0010
0000
0100
0000
0010
0000
1000
0001
1000
0002
0000
0003
,
0100
0000
0001
1000
0000
0000
0010
0100
0000
0010
1000
0000
0002
0000
0000
1003
0000
0000
0200
0000
0000
0310
0000
0000
,
0002
0000
0000
1003
0000
0000
0010
0000
0010
0000
0010
0000
0100
0000
0001
0000
1000
0000
0010
0100
0010
0200
0000
0300
,
0001
0000
1000
0200
0000
0000
0310
0001
0000
0010
0001
0000
2000
0000
0000
3020
0000
0000
0130
0000
0000
0001
0000
0000
,
2000
0000
0000
3100
0000
0000
0010
0000
0001
0000
1000
0000
0010
0000
0010
0000
0100
0000
0001
1000
0001
2000
0000
3000
,
0100
0000
0010
0002
0000
0000
1003
0010
0000
1000
0001
0000
2000
0000
0000
3010
0000
0000
0200
0000
0000
0301
0000
0000
,
2000
0000
0000
3001
0000
0000
0100
0000
0010
0000
1000
0000
0001
0000
1000
0000
0100
0000
0010
0001
0010
0002
0000
0003
,
1000
0000
0010
0200
0000
0000
0301
1000
0000
0010
1000
0000
0002
0000
0000
0103
0000
0000
M2M1
0000
0000
0301
0000
0000
,
2000
0000
0000
3010
0000
0000
0100
0000
0001
0000
1000
0000
0010
0000
0100
0000
0010
0000
1000
0001
0100
0002
0000
0003
,
0100
0000
0001
1000
0000
0000
0010
0100
0000
0010
1000
0000
0002
0000
0000
1003
0000
0000
0200
0000
0000
0310
0000
0000
,
0002
0000
0000
1003
0000
0000
0010
0000
0100
0000
0001
0000
0100
0000
0001
0000
1000
0000
0010
0100
0010
2000
0000
3000
,
0001
0000
1000
0200
0000
0000
0310
0001
0000
0010
0001
0000
2000
0000
0000
3020
0000
0000
0130
0000
0000
0001
0000
0000
,
2000
0000
0000
3100
0000
0000
0010
0000
0010
0000
0001
0000
0100
0000
0010
0000
0100
0000
0001
1000
0001
0020
0000
0030
,
0100
0000
1000
0002
0000
0000
1003
0010
0000
1000
0001
0000
2000
0000
0000
3010
0100
0010
0200
0000
0000
0301
0000
0000
,
2000
0000
0000
3001
0000
0000
0100
0000
0010
0000
1000
0000
0001
0000
1000
0000
0100
0000
0010
0001
0010
0002
0000
0003
,
1000
0000
0010
0200
0000
0000
0301
1000
0000
0010
1000
0000
0002
0000
0000
0203
0000
0300
M21M
0000
0000
0320
0000
0000
,
0230
0000
0302
0000
2003
0000
3200
0000
0320
0000
0000
0030
0002
0000
0043
0000
,
0230
0000
2300
0000
3020
0000
0230
0000
0302
0000
0000
0003
0400
0000
0304
0000
,
2003
0000
3020
0000
0230
0000
0302
0000
2003
0000
0000
3000
0200
0000
0310
0001
,
0020
0000
0230
0000
2300
3000
0002
0003
0200
0000
0320
0000
2030
0000
3002
0000
,
0203
0000
0000
0320
0000
0000
0230
0000
0000
0302
0000
0000
2003
0000
0000
0000
0000
0000
3020
0000
0000
0130
0001
0100
,
0002
2003
3200
0320
0032
0000
0403
0340
,
2030
0000
3002
0000
0023
0000
0230
0000
2300
0000
0000
3000
0040
0000
1030
0001
,
2000
0000
0000
0000
0000
0000
3200
0000
0000
0000
0000
0000
0320
0000
0000
0030
0000
0000
0002
0000
0000
0003
0000
0000
1000
0000
0000
0000
0010
0000
1000
0000
0000
0000
0000
0000
1MM1
0000
0000
0000
0000
0000
0001
0000
0000
0000
0000
0000
,
0100
0000
0000
0000
0001
0000
0000
0000
0000
1000
0000
0000
0001
0000
0000
0000
0010
0000
0001
0000
0000
0000
0000
0000
0200
0000
0000
0000
0000
0000
0010
0000
0000
0000
0300
0000
0100
0000
0000
0000
0000
0000
0001
0000
0000
0000
0000
0000
,
0010
0000
0000
0100
0000
0000
1000
0000
0001
0100
0000
0000
0002
0000
0000
0100
0000
0003
0001
0000
0000
0010
0000
0000
,
0100
0000
0000
0000
1000
0000
0000
0000
0000
0010
0000
0000
0100
0000
0000
0000
0001
0000
1000
0000
0000
0000
0000
0000
0002
0000
0000
0000
0000
0000
0010
0000
0000
0000
0003
0000
0001
0000
0000
0000
0100
0000
0010
0000
0100
0000
0010
0000
,
1000
0000
0000
0100
0000
0000
0010
0000
0001
0010
0000
0000
0200
0000
0000
2300
0000
0000
3001
0000
0000
0100
0000
0000
,
0010
0000
0000
0000
1000
0000
0000
0000
0000
0001
0000
0000
1000
0000
0000
0000
0010
0000
1000
0000
0000
0000
0000
0000
0002
0000
0000
0000
0000
0000
1000
0000
0000
0000
0003
0000
0001
0000
0000
0000
0000
0000
0100
0000
0000
0000
0000
0000
,
0010
0000
0000
1000
0000
0000
0001
0000
0010
0001
0000
0000
0200
0000
0000
0010
0000
0300
0100
0000
0000
0001
0000
0000
,
1000
0000
0000
0000
0100
0000
0000
0000
0000
0010
0000
0000
0001
0000
0000
0000
1000
0000
0001
0000
0000
0000
0000
0000
2000
0000
0000
0000
0000
0000
0100
0000
0000
0000
3000
0000
1000
0000
0000
0000
0001
0000
1000
0000
0001
0000
1000
0000
,
0001
0000
0000
0010
0000
0000
0100
0000
1000
0100
0000
0000
0020
0000
0000
0030
0000
0000
MM11
0000
0000
0002
0000
0000
,
1003
0000
0000
0020
0000
0000
0130
0000
0000
0002
0000
0000
1003
0000
0000
0200
0000
0000
0300
0000
0010
0001
0000
1000
,
0001
0000
0000
0000
0100
0000
0000
0000
0010
0000
0000
0000
0100
0000
0000
0000
0002
0000
0000
0000
0000
0000
0000
0003
4000
0000
0000
0000
3200
0000
0000
0000
,
0310
0000
0000
0002
0000
0000
1003
0000
0000
0020
0000
0000
0130
0000
0000
0002
0000
0000
0003
0000
1000
0010
0000
1000
,
0001
0000
0000
0000
0100
0000
0000
0000
0010
0000
0000
0000
1000
0000
0000
0000
0002
0000
0000
0000
0000
0000
0000
0003
4000
0000
0000
0000
3200
0000
0000
0000
,
0310
0000
0000
0002
0000
0000
1003
0000
0000
0020
0000
0000
0130
0000
0000
0002
0000
0000
0003
0000
1000
0001
0000
0100
,
0001
0000
0000
0000
0010
0000
0000
0000
0100
0000
0000
0000
1000
0000
0000
0000
0020
0000
0000
0000
0000
0000
0000
0030
0400
0000
0000
0000
0302
0000
0000
0000
,
1003
0000
0000
0200
0000
0000
1300
0000
0000
0020
0000
0000
0130
0000
0000
0002
0000
0000
0003
0000
0010
0100
0000
1000
,
0100
0000
0000
0000
0010
0000
0000
0000
0001
0000
0000
0000
1000
0000
0000
0000
0020
0000
0000
0000
0000
0000
0000
0030
2M1M
0000
0000
0000
3004
0000
0000
0000
,
0103
0000
0000
0000
0000
0000
0020
0000
0000
0000
0000
0000
1030
0000
0000
0000
0000
0000
0002
0000
0000
1003
0000
0000
0001
0000
0000
0000
0000
0000
0200
0000
0000
0000
0000
0000
0300
0000
0000
0000
0010
0000
1000
0000
0000
0000
1000
0000
,
0001
0000
0000
0100
0000
0000
0010
0000
0000
1000
0000
0000
0001
0000
0000
1000
0010
1000
0020
0000
0000
0430
0000
0000
,
0301
0000
0000
0000
0000
0000
2000
0000
0000
0000
0000
0000
3100
0000
0000
0000
0000
0000
0020
0000
0000
0031
0000
0000
1000
0000
0000
0000
0000
0000
0020
0000
0000
0000
0000
0000
0030
0000
0000
0000
0100
0000
0001
0000
0000
0000
0100
0000
,
0010
0000
0000
1000
0000
0000
0010
0000
0000
0100
0000
0000
0001
0000
0000
4000
0000
3000
0020
0000
0000
0430
0000
0000
,
0301
0000
0000
0000
0000
0000
2000
0000
0000
0000
0000
0000
3010
0000
0000
0000
0000
0000
0200
0000
0000
0301
0000
0000
0100
0000
0000
0000
0000
0000
0020
0000
0000
0000
0000
0000
0030
0000
0000
0000
1000
0000
0001
0000
0000
0000
1000
0000
,
0010
0000
0000
0100
0000
0000
0001
0000
0000
1000
0000
0000
0100
0000
0000
0010
0001
0010
0002
0000
0000
4003
0000
0000
,
3010
0000
0000
0000
0000
0000
0200
0000
0000
0000
0000
0000
0301
0000
0000
0000
0000
0000
2000
0000
0000
3100
0000
0000
1000
0000
0000
0000
0000
0000
0020
0000
0000
0000
0000
0000
0030
0000
0000
0000
0100
0000
0001
0000
0000
0000
0100
0000
,
0010
0000
0000
1000
0000
0000
0001
0000
0000
1000
0000
0000
0100
0000
0000
0020
0000
0030
MM11
0000
0000
0001
0000
0000
,
1000
0000
0100
0000
0010
0000
0001
0100
0001
0000
1000
0000
0100
0000
0010
0000
,
0001
0000
0000
0000
0000
0000
1000
0000
0000
0000
0000
0000
0010
0000
0000
0000
0000
0000
0100
0000
0000
0001
0000
0000
0100
0000
0000
0000
0000
0000
0001
0000
1000
0000
0001
0000
1000
0000
0000
0000
0000
0000
0010
0000
0000
0000
0000
0000
,
1000
0000
0100
0000
0010
0000
0001
1000
0001
0000
0100
0000
0010
0000
1000
0000
,
0100
1000
0001
0100
0110
0020
1030
0100
,
0010
0000
0001
0000
1000
0000
0001
0010
0001
0000
1000
0000
0100
0000
1000
0000
,
0010
0000
0000
0000
0000
0000
0100
0000
0000
0000
0000
0000
0001
0000
0000
0000
0000
0000
1000
0000
0000
0010
0000
0000
1000
0000
0000
0000
0000
0000
0001
0000
0100
0000
0001
0000
0100
0000
0000
0000
0000
0000
0010
0000
0000
0000
0000
0000
,
1000
0000
0001
0000
1000
0000
0001
0010
0100
0000
1000
0000
0001
0000
0100
0000
,
0010
0000
1000
0000
0001
0000
0100
0000
0101
0000
0002
0003
1MM1
0000
0001
0000
,
1001
1000
0010
0100
0101
0001
1000
0010
,
0110
0100
0001
1000
1100
0100
0010
0001
,
0101
0100
0010
1000
1001
0001
0100
0010
,
1010
1000
0001
1000
1100
0100
0010
0001
,
0101
0100
0010
1000
1001
0001
0010
0001
,
0101
0100
0010
1000
1010
0010
0100
0001
,
1001
1000
0010
0100
0101
0001
1000
0100
,
0110
0000
0000
0000
0010
0000
0000
0000
0001
0000
0000
0000
0100
0000
0000
0000
0010
0000
0000
0000
2000
3000
0000
0000
2002
0000
0000
0000
0000
0000
0000
0000
,
3003
0000
0000
0000
;

//---------------dance-single - 16 (Owem)----------------
#NOTES:
     dance-single:
     16 (Owem):
     Edit:
     16:
     1.000,1.000,0.232,0.710,1.000,2036.000,61.000,187.000,18.000,0.000:
0000
0000
0000
0000
,
0000
0000
0000
0000
,
0000
0000
0000
0000
,
0000
0000
0000
0000
0000
0000
2000
3020
,
0230
0000
0000
0000
0000
0000
0302
0000
0000
0000
0000
0000
2003
0000
0000
0000
0000
0000
3200
0000
0000
0000
0000
0000
0320
0000
0000
0000
0000
0000
0000
0000
0000
0031
0000
0000
2000
0000
0000
0000
0000
0000
3001
0000
0100
0000
0001
0000
,
0200
0000
0320
0000
2030
0000
3002
0000
2003
0000
0000
3100
0040
0000
0034
0000
,
2003
0000
3020
0000
0230
0000
0302
0000
2003
0000
0000
3010
0200
0000
0301
1000
,
0002
0000
0023
0000
0230
0300
2000
3000
0002
0000
0203
0000
0320
0000
0230
0000
,
0302
0000
0000
0000
0000
0000
2003
0000
0000
0000
0000
0000
3200
0000
0000
0000
0000
0000
0320
0000
0000
0000
0000
0000
0032
0000
0000
0000
0000
0000
0000
0000
0000
0003
0000
0000
2000
0000
0000
0000
0000
0000
3010
0000
0100
0000
0010
0000
,
0200
0000
0302
0000
2003
0000
3002
0000
0023
0000
0000
0030
0400
0000
4300
0000
,
3002
0000
0203
0000
0320
0000
2030
0000
3002
0000
0000
0103
0040
0000
1030
0001
,
2000
0000
3200
0000
0320
0030
0002
0003
2000
0000
3020
0000
0230
0000
0302
0000
,
2003
0000
0000
0000
0000
0000
3002
0000
0000
0000
0000
0000
0023
0000
0000
0000
0000
0000
0230
0000
0000
0000
0000
0000
2300
0000
0000
0000
0000
0000
0000
0000
0000
3000
0000
0000
0020
0000
0000
0000
0000
0000
0130
0000
0001
0000
0100
0000
,
0002
0000
2003
0000
3200
0000
0320
0000
0032
0000
0000
0003
4000
0000
3040
0000
,
0230
0000
0302
0000
2003
0000
3002
0000
0203
0000
0000
0300
0040
0000
1030
0001
,
2000
0000
0000
3000
0000
0000
0200
0000
0000
0300
0000
0000
0020
0000
0000
0030
0000
0000
0002
0000
0000
0003
0000
0000
1000
0000
0000
0000
0010
0000
0100
0000
0000
0000
0000
0000
M1M1
0000
0000
0000
0000
0000
0001
0000
0000
0000
0000
0000
,
1001
1000
0010
0100
0101
0001
1000
0010
,
0110
0100
0001
1000
1100
0100
0010
0001
,
0101
0100
0010
1000
1001
0001
0100
0010
,
1010
1000
0001
1000
1100
0100
0010
0001
,
0101
0100
0010
1000
1001
0001
0010
0001
,
0101
0100
0010
1000
1010
0010
0100
0001
,
1001
1000
0010
0100
0101
0001
1000
0100
,
0110
0010
0001
1000
1010
0010
0100
0001
,
1000
0000
0100
0000
0010
0000
0001
0100
0001
0000
1000
0000
0100
0000
0010
0000
,
0001
0000
0000
0000
0000
0000
1000
0000
0000
0000
0000
0000
0010
0000
0000
0000
0000
0000
0100
0000
0000
0001
0000
0000
0100
0000
0000
0000
0000
0000
0010
0000
1000
0000
0010
0000
1000
0000
0000
0000
0000
0000
0001
0000
0000
0000
0000
0000
,
1000
0000
0100
0000
0010
0000
0001
1000
0001
0000
0100
0000
0010
0000
1000
0000
,
0100
1000
0010
0100
0101
0002
1003
0100
,
0010
0000
0001
0000
1000
0000
0001
0100
0001
0000
0010
0000
0100
0000
1000
0000
,
0010
0000
0000
0000
0000
0000
0100
0000
0000
0000
0000
0000
0001
0000
0000
0000
0000
0000
1000
0000
0000
0010
0000
0000
1000
0000
0000
0000
0000
0000
0001
0000
0100
0000
0001
0000
0100
0000
0000
0000
0000
0000
0010
0000
0000
0000
0000
0000
,
1000
0000
0001
0000
1000
0000
0100
0010
0001
0000
1000
0000
0001
0000
0100
0000
,
0010
0000
0000
1000
0000
0000
0001
0000
0000
1000
0000
0000
1001
0000
0000
0002
0000
0000
1003
0100
0010
0001
1000
0001
,
0100
0010
1000
0001
0100
0001
0010
0100
1000
0001
0010
0001
0100
0010
1000
0001
0100
0010
0100
0001
1000
0010
1000
0100
,
0010
0001
1000
0100
1000
0001
1000
0010
0100
0001
0100
0010
1000
0001
0100
0001
0010
0100
1000
0001
0010
0001
1000
0100
,
0010
0001
1000
0100
1000
0001
0010
0001
0100
0010
1000
0001
0100
0010
0100
0001
1000
0010
1000
0001
0100
0001
1000
0100
,
0010
0001
1000
0100
1000
0001
0010
0001
0100
0010
1000
0001
0100
0010
0100
0001
1000
0010
1000
0001
0100
0001
0010
0100
,
1000
0001
0010
0001
0100
0010
1000
0001
0100
0010
0100
0001
1000
0010
1000
0100
0010
0001
1000
0100
1000
0001
0010
0001
,
0100
0010
1000
0001
0100
0010
0100
0001
1000
0100
0010
0001
1000
0001
0100
0010
1000
0001
0100
0001
0010
0100
1000
0001
,
0010
0001
0100
0010
0100
0001
1000
0100
0010
0001
1000
0100
1000
0001
0010
0001
0100
0010
1000
0001
0100
0010
0100
0001
,
1000
0010
1000
0001
0100
0001
1000
0100
0010
0001
1000
0100
1000
0001
0010
0001
0100
0010
1000
0001
0100
0010
0100
0001
,
1000
0100
1000
0010
0100
0001
0100
0010
1000
0001
0100
0001
1000
0100
0010
0001
1000
0100
1000
0010
0100
0001
0100
0010
,
1000
0001
0010
0001
1000
0001
0100
0010
0100
0001
1000
0010
1000
0100
0010
0100
1000
0001
0010
0001
1000
0001
0100
0010
,
1000
0010
0100
0001
1000
0100
0010
0001
0010
0100
1000
0001
1000
0010
0100
0001
0100
0010
1000
0001
0010
0001
1000
0010
,
1000
0001
0100
0010
0100
0001
1000
0100
0010
0001
1000
0100
1000
0001
0010
0001
0100
0010
1000
0001
0100
0010
0100
0001
,
1000
0100
1000
0001
0010
0100
1000
0100
0010
0001
1000
0010
1000
0001
0010
0001
0100
0010
0100
0001
1000
0100
0010
0100
,
1000
0001
0010
0001
1000
0010
1000
0001
0100
0010
1000
0001
0100
0001
1000
0100
0010
0100
1000
0001
0010
0001
1000
0100
,
0010
0100
1000
0001
0010
0001
1000
0010
0100
0001
0100
0010
1000
0001
0010
0001
1000
0100
0010
0001
1000
0010
1000
0001
,
0100
0010
0100
0001
1000
0010
1000
0000
0001
0100
0000
0000
0020
0000
0000
0M30
000M
0M00
1000
0001
1000
0100
0010
0001
,
1000
0100
1000
0001
0100
0010
1000
0001
0100
0001
0010
0100
1000
0001
0010
0001
0100
0010
0100
0001
1000
0010
1000
0100
,
0010
0001
1000
0100
1000
0001
1000
0010
0100
0001
1000
0010
1000
0001
0100
0001
1000
0100
0010
0001
1000
0010
1000
0001
,
0100
0010
1000
0001
0100
0001
0010
0100
1000
0001
0010
0001
0100
0010
0100
0001
1000
0010
1000
0100
0010
0001
1000
0100
,
1000
0001
1000
0010
0100
0001
0100
0010
1000
0001
0010
0001
1000
0100
0010
0001
1000
0100
1000
0010
0100
0001
0100
0010
,
1000
0001
1000
0100
0010
0100
1000
0001
0010
0001
1000
0001
0100
0010
0100
0001
1000
0100
0010
0100
1000
0001
0010
0001
,
1000
0001
0100
0010
0100
0001
0100
0010
1000
0001
0010
0001
1000
0100
0010
0001
1000
0100
1000
0001
0010
0001
0100
0010
,
1000
0001
0010
0100
1000
0100
0010
0001
1000
0001
0100
0010
0100
0001
1000
0010
1000
0001
0100
0001
1000
0100
0010
0001
,
1000
0100
1000
0001
0010
0001
0100
0010
1000
0001
0100
0001
0010
0100
1000
0001
0010
0001
1000
0010
0100
0001
0100
0010
,
1000
0001
1000
0100
0010
0001
1000
0100
1000
0001
0010
0001
0100
0010
1000
0001
0100
0001
1000
0010
0100
0001
0100
0010
,
1000
0001
0010
0001
1000
0100
0010
0001
1000
0100
1000
0001
0010
0001
0100
0010
0100
0001
1000
0100
0010
0100
1000
0001
,
0010
0001
0100
0010
1000
0001
0100
0001
1000
0010
0100
0001
0100
0010
1000
0001
1000
0100
0010
0001
1000
0100
1000
0001
,
0010
0001
0100
0010
1000
0001
0100
0010
1000
0010
0100
0001
1000
0001
0010
0100
1000
0001
0010
0001
0100
0010
1000
0001
,
0100
0001
1000
0100
0010
0001
1000
0100
1000
0001
0010
0001
0100
0010
1000
0001
0100
0010
0100
0001
1000
0100
0010
0001
,
1000
0100
1000
0001
0010
0001
1000
0100
0010
0100
1000
0001
1000
0010
0100
0001
0100
0010
1000
0001
0100
0001
1000
0010
,
0100
0001
0100
0010
1000
0001
0010
0001
1000
0100
0010
0001
1000
0100
1000
0001
0100
0001
1000
0010
0100
0001
0100
0010
,
1000
0000
0000
0000
0001
0000
0000
0000
0010
0000
0000
0000
0001
0000
0000
0000
1000
0000
0000
0000
0100
0000
0000
0000
0010
0000
0000
0000
0100
0000
0000
0000
1000
0000
0000
0000
0001
0000
0000
0000
1000
0000
0000
0000
0010
0000
0000
0000
0200
0000
0000
0000
0000
0000
0000
0000
0000
0300
0000
0000
0002
0000
0000
0000
0000
0000
0000
0000
0000
0003
0000
0000
1MM1
0000
0000
0000
0000
0000
0000
0000
0000
0000
0000
0000
1000
0000
0000
0000
0000
0000
0000
0000
0000
0000
0000
0000
,
0010
0000
0000
0000
0100
0000
0000
0000
0000
0001
0000
0000
0000
0000
0000
0000
1000
0000
0100
0000
0000
0000
0000
0000
0020
0000
0000
0000
0000
0000
0000
0000
0000
0030
0000
0000
0001
0000
0000
0000
0000
0000
0100
0000
0000
0000
0000
0000
,
0010
0000
0000
0000
0000
0000
1000
0000
0000
0000
0000
0000
0001
0000
0000
0000
1000
0000
0010
0000
0000
0000
0000
0000
0200
0000
0000
0000
0000
0000
0000
0000
0000
0300
0000
0000
0001
0000
0000
0000
0000
0000
1000
0000
0000
0000
0000
0000
,
0100
0000
0000
0000
0010
0000
0000
0000
0000
0001
0000
0000
0000
0000
0000
0000
1000
0000
0010
0000
0000
0000
0000
0000
0200
0000
0000
0000
0000
0000
0000
0000
0000
0300
0000
0000
0001
0000
0000
0000
1000
0000
0010
0000
1000
0000
0010
0000
,
0100
0000
0000
0000
0000
0000
0001
0000
0000
0000
0000
0000
1000
0000
0000
0000
0100
0000
0010
0000
0000
0000
0000
0000
0002
0000
0000
0000
0000
0003
2000
0000
0000
0000
0000
0000
3010
0000
0000
0000
0000
0000
0100
0000
0000
0000
0000
0000
,
0001
0000
0000
0000
1000
0000
0000
0000
0000
0010
0000
0000
0000
0000
0000
0000
0100
0000
0001
0000
0000
0000
0000
0000
2000
0000
0000
0000
0000
0000
0000
0000
0000
3000
0000
0000
0100
0000
0000
0000
0000
0000
0010
0000
0000
0000
0000
0000
,
0001
0000
0000
0000
0000
0000
1000
0000
0000
0000
0000
0000
0001
0000
0000
0000
0100
0000
0001
0000
0000
0000
0000
0000
2000
0000
0000
0000
0000
0000
0000
0000
0000
3000
0000
0000
0010
0000
0000
0000
0000
0000
0100
0000
0000
0000
0000
0000
,
0001
0000
0000
0000
1000
0000
0000
0000
0000
0001
0000
0000
0000
0000
0000
0000
0100
0000
0010
0000
0000
0000
0000
0000
2000
0000
0000
0000
0000
0000
0000
0000
0000
3000
0000
0000
0001
0000
0000
0000
0100
0000
0010
0000
0100
0000
0010
0000
,
1000
0000
0000
0000
0000
0000
0000
0000
0000
0000
0000
0000
0001
0000
0000
0000
0000
0000
0000
0000
0000
0000
0000
0000
1000
0000
0000
0000
0000
0000
0000
0000
0100
0000
0000
0000
0010
0000
0000
0000
0000
0000
0000
0000
0000
0000
0000
0000
0002
0000
0000
0000
0000
0000
0000
0000
0000
0000
0003
0000
2000
0000
0000
0000
0000
0000
0000
0000
0000
3000
0000
0000
1M10
0000
0000
0000
0000
0000
0000
0000
0000
0000
0000
0000
0010
0000
0000
0000
0000
0000
0000
0000
0000
0000
0000
0000
,
0100
0000
0000
0000
0001
0000
0000
0000
0000
1000
0000
0000
0000
0000
0000
0000
0001
0000
1000
0000
0000
0010
0000
0000
0200
0000
0000
0000
0000
0000
0010
0000
0000
0300
0000
0000
0010
0000
0000
0000
0000
0000
0100
0000
0000
0000
0000
0000
,
0001
0000
0000
0000
0000
0000
1000
0000
0000
0000
0000
0000
0100
0000
0000
0000
0010
0000
0001
0000
0000
1000
0000
0000
0002
0000
0000
0000
0000
0000
1003
0000
0100
0000
1000
0000
0100
0000
0000
0000
0000
0000
0010
0000
0000
0000
0000
0000
,
0001
0000
0000
0000
1000
0000
0000
0000
0000
0010
0000
0000
0000
0000
0000
0000
0100
0000
0010
0000
0000
1000
0000
0000
0020
0000
0000
0000
0000
0000
1000
0000
0000
0030
0000
0000
1000
0000
0000
0000
0001
0000
0100
0000
0001
0000
0100
0000
,
0010
0000
0000
0000
0000
0000
1000
0000
0000
0000
0000
0000
0001
0000
0000
0000
1000
0000
0100
0000
0000
0000
0000
0000
0020
0000
0000
0000
0000
0030
0002
0000
0000
0000
0000
0000
1003
0000
0000
0000
0000
0000
0010
0000
0000
0000
0000
0000
,
0100
0000
0000
0000
0001
0000
0000
0000
0000
1000
0000
0000
0000
0000
0000
0000
0100
0000
0010
0000
0000
0001
0000
0000
2000
0000
0000
0000
0000
0000
0001
0000
0000
3000
0000
0000
0001
0000
0000
0000
0000
0000
0100
0000
0000
0000
0000
0000
,
0010
0000
0000
0000
0000
0000
0100
0000
0000
0000
0000
0000
0001
0000
0000
0000
1000
0000
0001
0000
0000
0100
0000
0000
0020
0000
0000
0000
0000
0000
1030
0000
0001
0000
1000
0000
0001
0000
0000
0000
0000
0000
0100
0000
0000
0000
0000
0000
,
0010
0000
0000
0000
1000
0000
0000
0000
0000
0001
0000
0000
0000
0000
0000
0000
1000
0000
0001
0000
0000
0100
0000
0000
0020
0000
0000
0000
0000
0000
0100
0000
0000
0030
0000
0000
0100
0000
0000
0000
0010
0000
1000
0000
0010
0000
1000
0000
,
0100
0000
0000
0010
0000
0000
0001
0000
1000
0001
0000
0000
0200
0000
0000
0340
0000
0000
1030
0001
1000
0010
0100
0001
,
1000
0100
0010
0001
1000
0100
1000
0001
0010
0001
0100
0010
1000
0001
0100
0001
0010
0100
1000
0001
0010
0001
1000
0010
,
0100
0001
0100
0010
1000
0001
1000
0100
0010
0001
1000
0100
1000
0001
0010
0001
0100
0010
1000
0001
0100
0001
1000
0010
,
0100
0001
0100
0010
1000
0001
0010
0001
1000
0100
0010
0001
1000
0100
1000
0001
0010
0001
0100
0010
0100
0001
1000
0100
,
0010
0100
1000
0001
0010
0001
0100
0010
1000
0001
0100
0001
1000
0010
0100
0001
0100
0010
1000
0001
1000
0100
0010
0001
,
1000
0100
1000
0001
0010
0001
0100
0010
1000
0001
0100
0010
1000
0010
0100
0001
1000
0001
0010
0100
1000
0001
0010
0001
,
0100
0010
1000
0001
0100
0001
1000
0100
0010
0001
1000
0100
1000
0001
0010
0001
0100
0010
1000
0001
0100
0010
0100
0001
,
1000
0100
0010
0001
1000
0100
1000
0001
0010
0001
1000
0100
0010
0100
1000
0001
1000
0010
0100
0001
0100
0010
1000
0001
,
0100
0001
1000
0010
0100
0001
0100
0010
1000
0001
0010
0001
1000
0100
0010
0001
1000
0100
1000
0001
0100
0001
1000
0010
,
0100
0001
0100
0010
1000
0001
0010
0001
1000
0100
1000
0001
0010
0001
0100
0010
1000
0001
0100
0010
0100
0001
1000
0010
,
1000
0001
0010
0100
1000
0100
0010
0001
1000
0100
1000
0001
0010
0001
0100
0010
1000
0001
0100
0001
1000
0010
0100
0001
,
0100
0010
1000
0001
0100
0001
0010
0100
1000
0001
0010
0001
1000
0100
0010
0001
1000
0100
1000
0001
0010
0001
0100
0010
,
0100
0001
1000
0100
0010
0100
1000
0001
0010
0001
1000
0001
0100
0010
1000
0001
0100
0001
0010
0100
1000
0001
0010
0001
,
1000
0100
0010
0001
1000
0100
1000
0001
1000
0010
0100
0001
0100
0010
1000
0001
0100
0001
0010
0100
1000
0001
0010
0001
,
1000
0100
0010
0001
1000
0010
1000
0001
0100
0010
0100
0001
1000
0100
1000
0001
0010
0001
0100
0010
1000
0001
0100
0010
,
0100
0001
1000
0010
0100
0010
1000
0001
0010
0100
1000
0100
0010
0001
1000
0100
1000
0001
0100
0010
1000
0010
0100
0001
,
1000
0000
0000
0000
0100
0000
0000
0000
0010
0000
0000
0000
0001
0000
0000
0000
1000
0000
0000
0000
0010
0000
0000
0000
0100
0000
0000
0000
0000
0000
0000
0000
0001
0000
0000
0000
0100
0000
0000
0000
0000
0000
0000
0000
0010
0000
0000
0000
2000
0000
0000
0000
0000
0000
0000
0000
0000
0000
0000
0000
3002
0000
0000
0000
0000
0000
0000
0000
0000
0003
0000
0000
2MM1
0000
0000
0000
0000
0000
0000
0000
0000
0000
0000
0000
3020
0000
0000
0000
0000
0000
0000
0000
0000
0000
0000
0000
,
0230
0000
0302
0000
2003
0000
3200
0000
0320
0000
0000
0030
0002
0000
0043
0000
,
0230
0000
2300
0000
3020
0000
0230
0000
0302
0000
0000
0003
0400
0000
0304
0000
,
2003
0000
3020
0000
0230
0000
0302
0000
2003
0000
0000
3000
0200
0000
0310
0001
,
0020
0000
0230
0000
2300
3000
0002
0003
0200
0000
0320
0000
2030
0000
3002
0000
,
0203
0000
0000
0320
0000
0000
0230
0000
0000
0302
0000
0000
2003
0000
0000
0000
0000
0000
3020
0000
0000
0130
0001
0100
,
0002
2003
3200
0320
0032
0000
0403
0340
,
2030
0000
3002
0000
0023
0000
0230
0000
2300
0000
0000
3000
0040
0000
1030
0001
,
2000
0000
0000
0000
0000
0000
3200
0000
0000
0000
0000
0000
0320
0000
0000
0030
0000
0000
0002
0000
0000
0003
0000
0000
1000
0000
0000
0000
0010
0000
1000
0000
0000
0000
0000
0000
0001
0000
0010
0000
0100
0000
1000
0000
0001
0000
0100
0000
,
0001
0010
0100
1000
0001
0010
0001
0100
0010
0100
0001
1000
0100
0010
0001
1000
0100
1000
0001
0010
0001
0100
0010
1000
,
0001
0100
0010
0100
0001
1000
0010
1000
0001
0100
0001
1000
0100
0010
0001
1000
0100
1000
0001
0010
0001
0100
0010
1000
,
0001
0100
0010
0100
0001
1000
0100
1000
0010
0100
0001
0100
0010
1000
0001
0100
0001
1000
0100
0010
0001
1000
0100
1000
,
0010
0100
0001
0100
0010
1000
0001
0010
0001
1000
0001
0100
0010
0100
0001
1000
0010
1000
0100
0010
0100
1000
0001
0010
,
0001
1000
0001
0100
0010
1000
0010
0100
0001
1000
0100
0010
0001
0010
0100
1000
0001
1000
0010
0100
0001
0100
0010
1000
,
0001
0010
0001
1000
0010
1000
0001
0100
0010
0100
0001
1000
0100
0010
0001
1000
0100
1000
0001
0010
0001
0100
0010
1000
,
0001
0100
0010
0100
0001
1000
0100
1000
0001
0010
0100
1000
0100
0010
0001
1000
0010
1000
0001
0010
0001
0100
0010
0100
,
0001
1000
0100
0010
0100
1000
0001
0000
0100
0001
0000
0000
2000
0000
0000
3000
0000
0000
1MM1
0000
0000
0002
0000
0000
,
1003
0000
0000
0020
0000
0000
0130
0000
0000
0002
0000
0000
1003
0000
0000
0200
0000
0000
0300
0000
0010
0001
0000
1000
,
0001
0000
0000
0000
0100
0000
0000
0000
0010
0000
0000
0000
0100
0000
0000
0000
0002
0000
0000
0000
0000
0000
0000
0003
4000
0000
0000
0000
3200
0000
0000
0000
,
0310
0000
0000
0002
0000
0000
1003
0000
0000
0020
0000
0000
0130
0000
0000
0002
0000
0000
0003
0000
1000
0010
0000
1000
,
0001
0000
0000
0000
0100
0000
0000
0000
0010
0000
0000
0000
1000
0000
0000
0000
0002
0000
0000
0000
0000
0000
0000
0003
4000
0000
0000
0000
3200
0000
0000
0000
,
0310
0000
0000
0002
0000
0000
1003
0000
0000
0020
0000
0000
0130
0000
0000
0002
0000
0000
0003
0000
1000
0001
0000
0100
,
0001
0000
0000
0000
0010
0000
0000
0000
0100
0000
0000
0000
1000
0000
0000
0000
0020
0000
0000
0000
0000
0000
0000
0030
0400
0000
0000
0000
0302
0000
0000
0000
,
1003
0000
0000
0200
0000
0000
1300
0000
0000
0020
0000
0000
0130
0000
0000
0002
0000
0000
0003
0000
0010
0100
0000
1000
,
0100
0000
0000
0000
0010
0000
0000
0000
0001
0000
0000
0000
1000
0000
0000
0000
0020
0000
0000
0000
0000
0000
0000
0030
2M1M
0000
0000
0000
3004
0000
0000
0000
,
0103
0000
0000
0000
0000
0000
0020
0000
0000
0000
0000
0000
1030
0000
0000
0000
0000
0000
0002
0000
0000
1003
0000
0000
0001
0000
0000
0000
0000
0000
0200
0000
0000
0000
0000
0000
0300
0000
0000
0000
0010
0000
1000
0000
0000
0000
1000
0000
,
0001
0000
0000
0100
0000
0000
0010
0000
0000
1000
0000
0000
0001
0000
0000
1000
0010
1000
0020
0000
0000
0430
0000
0000
,
0301
0000
0000
0000
0000
0000
2000
0000
0000
0000
0000
0000
3100
0000
0000
0000
0000
0000
0020
0000
0000
0031
0000
0000
1000
0000
0000
0000
0000
0000
0020
0000
0000
0000
0000
0000
0030
0000
0000
0000
0100
0000
0001
0000
0000
0000
0100
0000
,
0010
0000
0000
1000
0000
0000
0010
0000
0000
0100
0000
0000
0001
0000
0000
4000
0000
3000
0020
0000
0000
0430
0000
0000
,
0301
0000
0000
0000
0000
0000
2000
0000
0000
0000
0000
0000
3010
0000
0000
0000
0000
0000
0200
0000
0000
0301
0000
0000
0100
0000
0000
0000
0000
0000
0020
0000
0000
0000
0000
0000
0030
0000
0000
0000
1000
0000
0001
0000
0000
0000
1000
0000
,
0010
0000
0000
0100
0000
0000
0001
0000
0000
1000
0000
0000
0100
0000
0000
0010
0001
0010
0002
0000
0000
4003
0000
0000
,
3010
0000
0000
0000
0000
0000
0200
0000
0000
0000
0000
0000
0301
0000
0000
0000
0000
0000
2000
0000
0000
3100
0000
0000
1000
0000
0000
0000
0000
0000
0020
0000
0000
0000
0000
0000
0030
0000
0000
0000
0100
0000
0001
0000
0000
0000
0100
0000
,
0010
0000
0000
1000
0000
0000
0001
0000
0000
1000
0000
0000
0100
0000
0000
0020
0000
0030
MM11
0000
0000
0001
0000
0000
,
1000
0000
0100
0000
0010
0000
0001
0100
0001
0000
1000
0000
0100
0000
0010
0000
,
0001
0000
0000
0000
0000
0000
1000
0000
0000
0000
0000
0000
0010
0000
0000
0000
0000
0000
0100
0000
0000
0001
0000
0000
0100
0000
0000
0000
0000
0000
0001
0000
1000
0000
0001
0000
1000
0000
0000
0000
0000
0000
0010
0000
0000
0000
0000
0000
,
1000
0000
0100
0000
0010
0000
0001
1000
0001
0000
0100
0000
0010
0000
1000
0000
,
0100
1000
0001
0100
0110
0020
1030
0100
,
0010
0000
0001
0000
1000
0000
0001
0010
0001
0000
1000
0000
0100
0000
1000
0000
,
0010
0000
0000
0000
0000
0000
0100
0000
0000
0000
0000
0000
0001
0000
0000
0000
0000
0000
1000
0000
0000
0010
0000
0000
1000
0000
0000
0000
0000
0000
0001
0000
0100
0000
0001
0000
0100
0000
0000
0000
0000
0000
0010
0000
0000
0000
0000
0000
,
1000
0000
0001
0000
1000
0000
0001
0010
0100
0000
1000
0000
0001
0000
0100
0000
,
0010
0000
1000
0000
0001
0000
0100
0000
0101
0000
0002
0003
1MM1
0000
0001
0000
,
1001
1000
0010
0100
0101
0001
1000
0010
,
0110
0100
0001
1000
1100
0100
0010
0001
,
0101
0100
0010
1000
1001
0001
0100
0010
,
1010
1000
0001
1000
1100
0100
0010
0001
,
0101
0100
0010
1000
1001
0001
0010
0001
,
0101
0100
0010
1000
1010
0010
0100
0001
,
1001
1000
0010
0100
0101
0001
1000
0100
,
0110
0000
0000
0000
0010
0000
0000
0000
0001
0000
0000
0000
0100
0000
0000
0000
0010
0000
0000
0000
2000
3000
0000
0000
2002
0000
0000
0000
0000
0000
0000
0000
,
3003
0000
0000
0000
;
