#TITLE:Sleeper;
#SUBTITLE:;
#ARTIST:AKIRA DEATH;
#TITLETRANSLIT:;
#SUBTITLETRANSLIT:;
#ARTISTTRANSLIT:;
#CREDIT:B. Abear;
#BANNER:;
#BACKGROUND:;
#LYRICSPATH:;
#CDTITLE:;
#MUSIC:13 Sleeper.ogg;
#OFFSET:-2.031;
#SAMPLESTART:99.820;
#SAMPLELENGTH:12.000;
#SELECTABLE:YES;
#DISPLAYBPM:135.000:269.940;
#BPMS:0.000=67.485,16.000=269.940,344.000=134.970,346.000=269.940,350.000=135.340,356.000=269.940,628.000=134.970,630.000=269.940,638.000=134.970;
#STOPS:;
#BGCHANGES:;
// cache tags:
#FIRSTBEAT:16.000;
#LASTBEAT:642.000;
#SONGFILENAME:Songs/SSSC Pack 2/Sleeper - [Cosmic Pope]/Sleeper.sm;
#HASMUSIC:1;
#HASBANNER:0;
#MUSICLENGTH:161.488;
// end cache tags

//---------------dance-single - B. Abear----------------
#NOTES:
     dance-single:
     B. Abear:
     Challenge:
     16:
     1.000,1.000,0.700,0.396,0.715,1268.000,113.000,64.000,102.000,1.000:

0000
0000
0000
0000
,
0000
0000
0000
0000
,
0000
0000
0000
0000
,
0000
0000
0000
0000
,
1000
0010
0100
0001
1000
0100
1000
0001
,
0010
0100
1000
0001
0100
0010
0200
0000
,
0301
1000
0010
0100
0001
1000
0100
0010
,
0100
1000
0001
0010
0100
1000
0200
0000
,
1301
1000
0100
0010
0001
0001
1000
0001
,
0000
1000
0100
0000
0100
0000
0010
0000
0001
0000
1000
0000
0010
0000
0010
0000
,
0100
0001
0010
0100
1000
1000
0001
0001
,
0010
0000
0100
0000
0000
0000
1000
0000
0001
0100
0001
0100
0001
0000
1000
0000
,
1001
0000
0001
0000
0000
0000
0100
0000
0010
1000
0010
0000
0100
0000
0001
0000
,
0011
0000
0010
0000
0000
0000
0100
0000
1000
0001
1000
0000
0001
0100
0001
0100
,
0010
1000
0000
0001
0010
0100
0100
1000
,
0001
0000
1000
0000
0001
0010
0001
0010
0001
1000
0001
1000
0001
1000
0001
0000
,
1000
0100
0010
0001
1000
0010
0100
0001
1000
0100
1000
0001
,
1000
0001
1000
0001
1000
0001
1000
0001
1000
0001
1000
0001
1000
0001
1000
0001
,
0100
0010
1010
0000
1000
0001
0011
0000
,
0001
0000
0010
0000
0110
0000
0100
0000
1000
0000
0001
0000
0100
0001
1000
0001
,
1000
0100
0110
0000
0010
0001
1001
0000
,
1000
0010
0110
0100
0001
0001
1000
1000
,
0001
0010
0011
0000
0001
0100
0101
0000
,
0100
0000
0010
0000
1010
0000
1000
0000
0001
0000
0001
0000
0010
0100
0010
0100
,
1000
0001
0101
0000
0100
0001
0011
0000
,
0010
0000
0100
0000
1100
0000
1000
0000
0001
1000
0001
1000
0001
1000
0001
1000
,
0002
0203
0320
0230
0302
0203
0320
0230
,
0302
0000
0203
0000
0320
0000
0230
0000
0302
0000
0203
0000
0310
1000
0010
1000
,
0200
0320
0230
2300
3200
0320
0230
2300
,
3200
0000
2300
0000
3200
0000
0320
0000
0230
0000
2300
0000
3010
0100
0010
0100
,
0002
0023
0230
0320
0032
0023
0230
0320
,
0032
0000
0023
0000
0230
0000
0320
0000
0032
0000
0023
0000
0130
1000
0100
1000
,
0020
0230
0302
0203
0320
0230
0302
0203
,
0320
0000
0230
0000
0302
0000
0203
0000
0310
1000
0010
1000
0010
1000
0010
1000
,
0001
0010
0100
1000
0001
0100
0010
1000
,
0001
1000
0100
0010
0001
0001
0001
0001
,
1000
0010
0100
0001
1000
0100
1000
0001
,
0010
0001
1000
0010
0100
0100
0100
0100
,
0010
1000
0001
1000
0100
0010
0001
1000
,
0010
0100
0010
1000
0001
0001
0001
0001
,
0010
0100
0010
0000
0100
0000
1000
0000
0001
1000
0001
0000
1000
0000
0010
0000
,
0100
0000
0100
0000
0010
0000
0100
0000
0001
1000
0100
0010
0001
1000
0001
1000
,
0010
0000
0100
0001
0101
0000
0110
1010
,
0000
1001
0011
0000
0010
0000
0100
1000
,
1100
0000
0100
0010
0011
0000
0001
1000
,
1010
0000
0000
0000
0010
1000
0010
0000
1000
0000
1000
0000
0011
0000
1000
0000
,
0100
0000
0100
0010
0011
0000
0011
1010
,
0000
1010
0110
0000
0100
0000
0001
1000
,
1100
0000
0100
0010
0011
0000
0001
1000
,
1001
0000
0000
0000
0000
0000
0000
0000
0000
0000
0000
0000
0000
0000
0000
0000
0000
0000
0000
0000
0000
0000
0000
0000
0001
0000
0000
1000
0000
0000
0001
0000
0000
1000
0000
0000
0001
0000
0000
1000
0000
0000
0001
0000
1000
0000
0001
0000
,
1000
0010
1000
0100
0010
0001
1000
0010
,
0110
0000
0110
0000
0100
0000
0001
0000
1000
0000
0100
0000
0010
0001
0010
0001
,
1000
0000
0010
0000
0100
0000
0001
0000
1000
0100
1000
0100
0010
0000
0001
0000
,
1000
0000
0010
1000
0010
0000
0100
0000
0001
0000
1000
0100
1000
0001
1000
0001
,
1000
0010
1010
0000
1000
0100
0110
0000
,
0010
0000
0001
0000
0011
0000
0010
0000
0100
0000
0100
0000
1000
0001
1000
0001
,
0100
0000
0010
0000
1010
0000
0000
0000
1000
0000
0001
1000
0010
0000
1000
0001
,
0010
0000
0100
0000
1000
0000
0001
0000
1000
0010
1000
0001
1000
0010
0100
0001
,
1000
0100
0010
0001
1000
0001
1000
0100
,
0010
0000
0001
0000
1000
0000
0010
0000
0100
0001
1000
0001
0010
0100
1000
0001
,
0010
0000
0100
0000
1000
0000
0001
0000
1000
0010
1000
0010
1000
0000
0001
0000
,
0010
0000
0001
0000
0100
0010
0100
0001
1000
0000
0100
0000
0010
0001
1000
0001
,
1000
0010
0100
0001
1000
0100
0010
0001
,
1000
0000
0100
0000
1000
0000
0001
0000
0100
0000
0100
0000
0010
1000
0001
1000
,
0010
0000
0100
0000
0001
0000
1000
0000
0100
1000
0100
0000
0010
0000
0001
0000
,
1000
0000
1000
0000
0010
0000
0010
0000
0100
0001
1000
0100
1000
0001
0010
0100
,
1000
0000
0000
0000
,
0000
0000
0000
0000
,
0000
0000
0000
0000
,
0000
0000
0000
0000
,
0001
1000
1000
0010
1000
1000
0001
1000
,
1000
0010
1000
1000
0001
1000
1000
0100
,
0010
0001
0001
0010
0100
0100
0010
0001
,
0001
0010
0100
0100
0010
0001
0001
1000
,
0010
0100
0000
0001
1000
0000
0100
0010
,
0000
0000
0001
0000
1000
0000
0000
0000
0010
0100
0001
1000
0100
0010
0001
1000
,
0010
0100
0000
0001
1000
0000
0100
0010
,
0000
0000
0001
0000
1000
0000
0000
0000
0100
1000
0001
1000
0010
0100
0001
0010
,
0100
0000
0000
11MM
0000
0000
1MM1
0000
,
0000
0000
1M1M
0000
0000
0000
0000
0000
0010
0100
0001
1000
0010
1000
0001
0010
,
0001
0000
0000
MM11
0000
0000
M11M
0000
,
0000
0000
11MM
0000
0000
0000
0000
0000
1000
0100
0010
0001
0010
0100
0010
0001
,
1000
0000
0000
1M1M
0000
0000
1MM1
0000
,
0000
0000
MM11
0000
0000
0000
0000
0000
0001
0010
0001
0010
0100
1000
0001
0100
,
0010
0000
0000
1M1M
0000
0000
M11M
0000
,
0000
0000
0000
0000
0000
0000
M1M1
0000
0000
0000
0000
0000
0000
0000
0000
0000
0000
0000
0000
0000
0000
0000
0000
0000
0100
0000
0000
0010
0000
0000
1000
0000
0000
0001
0000
0000
0010
0000
0000
0100
0000
0000
1000
0000
0001
0000
1000
0000
,
0001
0000
0000
0000
0000
0000
0000
0000
0000
0000
0000
0000
1MM0
0000
0001
0MM0
1000
0000
0MM1
0000
1000
0MM0
0001
0000
,
1MM0
0000
0001
0MM0
1000
0000
0MM1
0000
1000
0MM0
0001
0000
1MM0
0000
0000
0000
0000
0000
0000
0000
0000
0000
0000
0000
,
0000
0000
0000
0000
,
1000
1000
0200
0000
0310
0010
0002
0000
,
1003
1000
0020
0000
0130
0100
0001
0001
,
1000
1000
0020
0000
1030
1000
0200
0000
,
0310
0010
0002
0000
0013
0010
0100
0100
,
1000
0001
0010
0100
1000
0001
1000
0010
,
0100
0001
1000
0100
0010
0001
2000
0000
,
3010
0100
0001
1000
0100
0010
0100
1000
,
0001
0100
0010
1000
0001
1000
0020
0000
,
1030
1000
0001
1000
1000
0100
1000
1000
,
0001
1000
1000
0100
1000
1000
0010
0100
,
0001
0001
1000
0001
0001
0010
0001
0001
,
1000
0000
0000
0010
0000
0000
1000
0000
0000
0010
0000
0000
1000
0000
0000
0010
0000
0000
1000
0000
0000
0010
0000
0000
1000
0000
0001
0000
1000
0000
0001
0000
1000
0000
0001
0000
1000
0000
0001
0000
1000
0000
0001
0000
1000
0000
0001
0000
,
0010
0110
1100
1001
,
1010
0000
0110
0000
0100
0000
0101
1001
,
1100
0110
0011
1001
,
1100
0000
1001
0000
0101
0110
1010
1001
,
0011
0110
1100
0011
,
1001
0000
1010
0000
1000
0000
1001
0011
,
0110
0000
1100
0000
1100
0101
1010
0000
,
1010
0000
1001
0000
1010
0000
0000
0000
1000
0001
1000
0001
1000
0001
1000
0001
,
0010
0100
1000
0001
1000
0010
0100
0001
,
1000
0001
0010
0100
1000
1000
1000
1000
,
0001
0100
0010
1000
0001
0010
0001
1000
,
0100
0000
1000
0000
0001
0000
0100
0000
0010
0000
0010
0000
0010
0100
0001
1000
,
0010
1000
0001
1000
0100
0010
0001
1000
,
0010
0100
0010
1000
0001
0001
0001
0001
,
0010
0100
0010
0000
0100
0000
1000
0000
0001
1000
0001
0000
1000
0000
0010
0000
,
0100
0000
0100
0000
0010
0000
0100
0000
0001
1000
0100
0010
0001
1000
0001
1000
,
0010
0000
0100
0000
0110
0000
0000
0000
0010
0000
1000
0000
0001
0000
0010
0100
,
1000
0000
0001
0000
1000
0000
0010
0000
0100
0000
0100
0000
0001
1000
0100
1000
,
0001
0000
0010
0000
0110
0000
0000
0000
0100
1000
0100
1000
0100
0000
0010
0000
,
0001
0000
1000
0000
0001
0100
0001
0100
0001
0000
1000
0000
0010
1000
0010
0000
,
1000
0001
1000
0100
0110
0010
0001
1001
,
1000
0000
0010
0000
0100
0000
0010
0000
0100
0000
0010
0000
1000
0100
0010
0001
,
1000
0001
0010
0100
1000
0100
0010
0001
,
1000
0000
0010
0000
1000
0000
0001
0000
1000
0010
1000
0010
1000
0010
1000
0010
,
0100
0001
1000
0100
1100
1000
0001
0010
,
0100
0000
0010
0000
0001
0000
1000
0000
0010
0000
0010
0000
1000
0000
0001
0010
,
0001
0000
1000
0000
0100
0000
1000
0000
0001
0100
0010
1000
0001
0000
0010
0000
,
0001
0000
1000
0000
0010
0100
0010
1000
0010
0000
1000
0000
0001
0010
0100
0010
,
0100
1000
0001
0100
0010
1000
0100
0010
,
0001
0000
1000
0000
0010
0000
0100
0000
0001
0000
1000
0000
0100
0010
0001
1000
,
0001
0010
0110
0000
0100
1000
1000
0001
,
1000
0000
0001
0000
0010
0000
0100
0000
1000
0001
1000
0000
0100
0000
1000
0001
,
1000
1000
0010
0100
0100
0010
1000
1000
,
0010
0100
0100
0010
1000
1000
0001
0000
,
0010
0010
0100
1000
1000
0100
0010
0010
,
0100
1000
1000
0100
0010
0010
0001
1000
,
0010
0100
0000
0001
1000
0000
0100
0010
,
0000
0000
0001
0000
1000
0000
0000
0000
0010
0100
0001
1000
0100
0010
0001
1000
,
0010
0100
0000
0001
1000
0000
0100
0010
,
0000
0000
0001
0000
1000
0000
0000
0000
0100
1000
0001
1000
0010
0100
0001
0010
,
0100
0000
0000
11MM
0000
0000
1MM1
0000
,
0000
0000
1M1M
0000
0000
0000
0000
0000
0010
0100
0001
1000
0010
1000
0001
0010
,
0001
0000
0000
MM11
0000
0000
M11M
0000
,
0000
0000
11MM
0000
0000
0000
0000
0000
1000
0100
0010
0001
0010
0100
0010
0001
,
1000
0000
0000
1M1M
0000
0000
1MM1
0000
,
0000
0000
MM11
0000
0000
0000
0000
0000
0001
0010
0001
0010
0100
1000
0001
0100
,
0010
0000
0000
1M1M
0000
0000
M11M
0000
,
0000
0000
0000
0000
0000
0000
M1M1
0000
0000
0000
0000
0000
0000
0000
0000
0000
0000
0000
0000
0000
0000
0000
0000
0000
0100
0000
0000
0010
0000
0000
1000
0000
0000
0001
0000
0000
0010
0000
0000
0100
0000
0000
1000
0000
0001
0000
1000
0000
,
0001
1000
0100
11MM
1000
0001
1MM1
1000
,
0010
0000
1M1M
0000
1000
0000
0001
0000
0100
0010
1000
0001
0100
0001
1000
0100
,
1000
0100
1000
11MM
0100
0010
M11M
0100
,
0010
0000
MM11
0000
0001
0000
0010
0000
0001
0010
0100
1000
0100
0010
0100
1000
,
0001
0100
0001
M1M1
0100
0001
1MM1
1000
,
0100
0000
11MM
0000
0100
0000
0010
0000
0001
0010
0001
0010
0100
1000
0001
0100
,
0010
1000
0010
1M1M
1000
0010
M11M
0100
,
0001
0000
0000
0000
0000
0000
M1M1
0000
0000
0000
0000
0000
0100
0000
0000
0000
0000
0000
0001
0000
0000
0000
0000
0000
0100
0000
0000
0010
0000
0000
1000
0000
0000
0001
0000
0000
0010
0000
0000
0100
0000
0000
1000
0000
0001
0000
1000
0000
,
0001
0000
0000
0000
0000
0000
0000
0000
0001
1000
0001
1000
0001
1000
0001
1000
,
0001
1000
0001
1000
0001
1000
0001
1000
0001
1000
0001
1000
0001
1000
0001
1000
,
0001
1000
0001
1000
0001
1000
0001
1000
0MM1
0000
0000
0000
M00M
0000
0000
0000
,
0MM0
M00M
MMMM
0000
;
