#TITLE:KI Feeling;
#SUBTITLE:;
#ARTIST:Graeme Norgate;
#TITLETRANSLIT:;
#SUBTITLETRANSLIT:;
#ARTISTTRANSLIT:;
#CREDIT:Plaguefox (gamecast.org/plaguemix);
#BANNER:kifeeling-bn.png;
#BACKGROUND:kifeeling-bg.jpg;
#LYRICSPATH:kifeeling.lrc;
#CDTITLE:pm3cd.png;
#MUSIC:kifeeling.ogg;
#OFFSET:-0.007;
#SAMPLESTART:41.160;
#SAMPLELENGTH:16.300;
#SELECTABLE:YES;
#BPMS:0.000=140.000,160.000=70.000,176.000=140.000;
#STOPS:;
#BGCHANGES:;
// cache tags:
#FIRSTBEAT:16.000;
#LASTBEAT:240.500;
#SONGFILENAME:Songs/plaguemix series/KI Feeling/kifeeling.sm;
#HASMUSIC:1;
#HASBANNER:1;
#MUSICLENGTH:115.340;
// end cache tags

//---------------dance-single - HEAVY----------------
#NOTES:
     dance-single:
     HEAVY:
     Hard:
     8:
     0.504,0.547,0.139,0.156,0.195,373.000,16.000,18.000,0.000,0.000:
0000
0000
0000
0000
,
0000
0000
0000
0000
,
0000
0000
0000
0000
,
0000
0000
0000
0000
,
1001
0000
0000
0000
0100
0000
0000
0001
0000
0100
0000
0000
0001
0000
0000
0000
,
0010
0000
0000
0000
1000
0000
0000
0100
0000
1000
0000
0000
0100
0000
0000
0000
,
0010
0000
0000
0000
0001
0000
0000
0010
0000
0001
0000
0000
0010
0000
0000
0000
,
0001
0100
0001
0000
1000
0100
1000
0100
,
0010
0000
0010
0000
0010
0001
0010
0000
,
0001
0000
0100
0000
0010
1000
0010
0000
,
0100
0000
0010
0000
1000
0100
0010
0000
,
0100
0000
0000
0000
0010
0000
0000
0000
0001
0000
0000
0010
0000
0000
0100
0000
,
1000
0000
0001
0000
0100
0000
0001
0000
1000
0000
0000
0010
0100
0000
0000
0000
,
0001
0000
1000
0000
0100
0000
1000
0000
0001
0000
0000
0010
0100
0000
0000
0000
,
1000
0000
0010
0000
0100
0000
0001
0000
0010
0000
0000
0100
1000
0000
0000
0000
,
0001
0000
0100
0000
0010
0000
1000
0000
0001
0000
0000
0010
0000
0000
0100
0000
,
1000
0200
0000
1300
0002
0000
0203
0000
,
0310
2000
0000
3010
0200
0000
0302
0000
,
1003
0200
0000
0310
0002
0000
0103
0000
,
1010
1100
0110
0011
,
0001
0020
0000
0031
2000
0000
3020
0000
,
0130
0002
0000
0103
0020
0000
2030
0000
,
3001
0020
0000
0130
2000
0000
3001
0000
,
0200
0000
0000
0300
,
0001
0100
0010
1000
0100
0010
0001
1000
,
0001
0100
0010
1000
0100
0010
0001
1000
,
0001
1000
0010
0100
0010
1000
0001
0100
,
0010
0100
0001
0010
0100
0010
0001
0100
,
0001
0010
0100
1000
0010
0100
0001
1000
,
0001
0010
0100
1000
0010
0100
0001
1000
,
0001
1000
0100
0010
0100
1000
0001
1000
,
0001
0001
0001
0000
1000
1000
1000
0000
,
0001
0000
0100
0000
0010
1000
0000
1000
0100
0000
0100
0010
0000
0010
0001
0000
,
1000
0000
0001
0000
0010
0100
0000
0100
1000
0000
1000
0010
0000
0010
0100
0000
,
0001
0000
1000
0000
0010
0100
0000
0100
0001
0000
0001
0010
0000
0010
0100
0000
,
1000
0010
0100
0001
0010
0000
1001
0000
,
1000
0000
0010
0000
0100
0001
0000
0001
0010
0000
0010
0100
0000
0100
1000
0000
,
0001
0000
1000
0000
0100
0010
0000
0010
0001
0000
0001
0100
0000
0100
0010
0000
,
1000
0000
0001
0000
0100
0010
0000
0010
1000
0000
1000
0100
0000
0100
0010
0000
,
0001
0100
0010
1000
0100
0010
0001
0100
,
0010
0000
0000
0010
1000
0000
1000
0000
0001
0000
0001
0000
0100
0000
0100
0001
,
1000
0000
0000
0010
0000
0000
0000
0000
1000
0000
0001
0000
0001
0000
1000
0000
,
0010
0000
0000
0100
0001
0000
0001
0000
1000
0000
1000
0000
0010
0000
0010
1000
,
0001
0000
0000
0100
0000
0000
0000
0000
0001
0000
1000
0000
1000
0000
0001
0000
,
1000
0000
1100
0000
1000
0000
0001
0100
,
0001
0000
0101
0000
0001
0000
1000
0010
,
1000
0000
1010
0000
1000
0000
0001
0010
,
0001
0011
0100
1001
,
0010
0000
1010
0000
0010
0000
0100
1000
,
0100
0000
1100
0000
0100
0000
0010
0001
,
0010
0000
0011
0000
0010
0000
0100
0001
,
0100
0101
1000
0110
,
1000
0010
0100
0001
0010
0100
1000
0001
,
1000
0010
0100
0001
0010
0100
1000
0001
,
1000
0001
0100
0010
0100
0001
1000
0010
,
0100
0010
1000
0100
0010
0100
1000
0010
,
1000
0100
0010
0001
0100
0010
1000
0001
,
1000
0100
0010
0001
0100
0010
1000
0001
,
1000
0001
0010
1000
0010
0001
1000
0001
,
1000
0000
0001
0000
1000
0001
0000
0100
0000
0010
0000
0100
0020
0000
0000
0000
,
0000
0030
0000
0000
0000
0000
0000
0000
;

//---------------dance-single - STANDARD----------------
#NOTES:
     dance-single:
     STANDARD:
     Medium:
     6:
     0.404,0.417,0.043,0.139,0.052,305.000,5.000,16.000,0.000,0.000:








0000
0000
0000
0000
,
0000
0000
0000
0000
,
0000
0000
0000
0000
,
0000
0000
0000
0000
,
0001
0001
0001
0000
,
0010
0010
0010
0000
,
1000
1000
1000
0000
,
0100
0000
0100
0000
0100
1000
0001
0100
,
0010
0000
0010
0000
0010
0000
0010
0100
,
0001
0000
0001
0000
0001
0000
0001
0010
,
0100
0000
0100
0000
0100
0000
0100
1000
,
0001
0000
0100
1000
0001
0010
0100
0100
,
0010
0000
0010
0000
0010
0000
0010
0100
,
1000
0000
1000
0000
1000
0000
1000
0010
,
0100
0000
0100
0000
0100
0000
0100
0001
,
1000
0000
0100
0001
1000
0000
1001
0000
,
1000
2000
0000
3001
0002
0000
0103
0000
,
0010
0020
0000
1030
2000
0000
3001
0000
,
1000
2000
0000
3010
0020
0000
0130
0000
,
1010
0101
1010
0110
,
0001
0002
0000
1003
2000
0000
3010
0000
,
0100
0200
0000
0310
0020
0000
1030
0000
,
0001
0002
0000
1003
2000
0000
3001
0000
,
0200
0000
0000
0300
,
0001
1000
0010
0000
0001
1000
0100
0000
,
0001
1000
0010
1000
0001
1000
0100
0000
,
0010
1000
0100
0000
0010
0100
0001
0000
,
0010
1000
0100
1000
0010
0100
0001
0000
,
1000
0100
0010
0000
1000
0100
0001
0000
,
1000
0100
0010
0100
1000
0100
0001
0000
,
1000
0010
0100
0000
0100
0010
1000
0000
,
1000
0010
0100
0001
0100
0010
1000
0000
,
0010
0000
0000
0000
0010
0000
0000
0010
0000
0000
0010
0000
0000
0010
0000
0000
,
1000
0000
0000
0000
1000
0000
0000
1000
0000
0000
1000
0000
0000
1000
0000
0000
,
0100
0000
0000
0000
0100
0000
0000
0100
0000
0000
0100
0000
0000
0100
0000
0000
,
0010
0001
0100
0010
1000
0100
0010
0001
,
1000
0000
0000
0000
1000
0000
0000
1000
0000
0000
1000
0000
0000
1000
0000
0000
,
0100
0000
0000
0000
0100
0000
0000
0100
0000
0000
0100
0000
0000
0100
0000
0000
,
0010
0000
0000
0000
0010
0000
0000
0010
0000
0000
0010
0000
0000
0010
0000
0000
,
0100
1000
0010
0100
0001
0010
0100
1000
,
0020
1000
0100
0001
,
0130
0000
0010
0000
0001
0010
0100
1000
,
0200
0001
0010
1000
,
0010
0300
0000
0000
1000
0000
0000
0000
1000
0000
0100
0000
0010
0000
0001
0000
,
1000
0000
0100
0000
0001
0000
0100
0010
,
0001
0000
0100
0000
1000
0000
0100
0010
,
1000
0000
0100
0000
0001
0000
0100
0010
,
0001
0100
1000
0000
0100
0010
1000
0000
,
0001
0000
0010
0000
1000
0000
0010
0100
,
1000
0000
0010
0000
0001
0000
0010
0100
,
0001
0000
0010
0000
1000
0000
0010
0100
,
1000
0010
0001
0000
0010
0100
0001
0000
,
1000
0001
0100
0000
1000
0001
0010
0000
,
1000
0001
0100
0001
1000
0001
0010
0000
,
0100
0001
0010
0000
0100
0010
1000
0000
,
0100
0001
0010
0001
0100
0010
1000
0000
,
0001
0010
0100
0000
0001
0010
1000
0000
,
0001
0010
0100
0010
0001
0010
1000
0000
,
0001
0100
0010
0000
0010
0100
0001
0000
,
0001
0100
0010
1000
0010
0100
0002
0000
,
0000
0103
0000
0000
0000
0000
0000
0000
,;

//---------------dance-single - LIGHT----------------
#NOTES:
     dance-single:
     LIGHT:
     Easy:
     4:
     0.281,0.365,0.182,0.069,0.009,198.000,21.000,8.000,0.000,0.000:
0000
0000
0000
0000
,
0000
0000
0000
0000
,
0000
0000
0000
0000
,
0000
0000
0000
0000
,
1000
0000
0100
0000
,
0001
0000
0010
0000
,
1000
0000
0100
0000
,
0001
0000
0100
0010
,
1001
0000
0100
1000
,
0010
0000
0100
0001
,
0010
0000
0100
1000
,
0010
0000
0000
0000
0000
0000
0000
0000
1000
0000
0000
0100
0000
0000
0010
0000
,
0001
0000
0010
0001
,
0100
0000
0010
1000
,
0100
0000
0010
0001
,
0100
0000
0000
0000
0000
0000
0000
0000
0001
0000
0000
0010
0000
0000
0100
0000
,
0000
2000
0000
0000
0100
0000
3100
0000
,
0000
0002
0000
0000
0010
0000
0013
0000
,
0000
2000
0000
0000
0100
0000
3100
0000
,
1000
0100
0001
0010
,
0000
0002
0000
0000
0100
0000
0103
0000
,
0000
2000
0000
0000
0010
0000
3010
0000
,
0000
0002
0000
0000
0100
0000
0103
0000
,
0200
0000
0000
0300
,
0010
0010
0101
0000
,
1000
1000
1010
0000
,
0001
0010
1000
0010
,
0001
0100
1001
0000
,
0100
0100
1010
0000
,
0001
0001
0101
0000
,
1000
0100
0001
0100
,
1000
0010
1001
0110
,
0001
0010
0100
1000
,
0001
0010
0100
1000
,
0001
0010
0100
1000
,
0001
0100
0010
1000
,
1000
0100
0010
0001
,
1000
0100
0010
0001
,
1000
0100
0010
0001
,
1000
0010
0100
0001
,
1001
0000
0010
0010
0001
0001
0100
0100
,
1000
0000
0000
0000
0100
0100
0100
0000
,
1001
0000
0010
0010
1000
1000
0100
0100
,
0001
0000
0000
0000
0100
0100
0100
0000
,
1001
1000
1000
0100
,
1001
0001
0001
0010
,
0110
0100
0100
0001
,
1000
0001
0100
0001
,
0110
0010
0010
0001
,
0110
0100
0100
1000
,
0110
0010
0010
0001
,
1000
0001
0010
0001
,
0010
0010
0011
0000
,
0100
0100
1100
0000
,
0010
1000
0100
1000
,
0010
0001
0110
0000
,
0100
0100
1100
0000
,
0010
0010
0011
0000
,
0100
0001
0010
0001
,
0100
0010
0100
0020
,
0000
0030
0000
0000
0000
0000
0000
0000
;
