#TITLE:Delirium;
#SUBTITLE:;
#ARTIST:☺;
#TITLETRANSLIT:;
#SUBTITLETRANSLIT:;
#ARTISTTRANSLIT:;
#CREDIT:;
#BANNER:Delirium.png;
#BACKGROUND:Delirium-bg.png;
#LYRICSPATH:;
#CDTITLE:;
#MUSIC:Delirium.mp3;
#OFFSET:-0.044;
#SAMPLESTART:64.800;
#SAMPLELENGTH:11.850;
#SELECTABLE:YES;
#BPMS:0.000=163.000,217.000=279.500,219.000=163.001;
#STOPS:208.000=0.370
,209.000=0.370
,210.000=0.370
,211.000=0.360
,216.000=0.370
,217.000=0.320
;
#BGCHANGES:-10000.000=_movie=1.000=0=0=1,
99999=-nosongbg-=1.000=0=0=0 // don't automatically add -songbackground-
;
// cache tags:
#FIRSTBEAT:16.000;
#LASTBEAT:317.000;
#SONGFILENAME:Songs/mike songs/Deliriumv2/Delirium.sm;
#HASMUSIC:1;
#HASBANNER:1;
#MUSICLENGTH:123.303;
// end cache tags

//---------------dance-single - C. Foy----------------
#NOTES:
     dance-single:
     C. Foy:
     Challenge:
     13:
     1.000,1.000,0.333,0.438,1.000,914.000,41.000,54.000,110.000,0.000:
0000
0000
0000
0000
,
0000
0000
0000
0000
,
0000
0000
0000
0000
,
0000
0000
0000
0000
,
1000
0010
1000
0010
1000
0010
1000
0010
1000
0010
1000
0010
1000
0010
1000
0010
,
1000
0100
1000
0100
1000
0100
1000
0100
1000
0001
1000
0001
1000
0001
1000
0001
,
0010
0001
0010
0001
0010
0001
0010
0001
0010
0001
0010
0001
0010
0001
0010
0001
,
1000
0001
1000
0001
1000
0001
1000
0001
0100
0010
0100
0010
0100
0010
0100
0010
,
1000
0100
1000
0100
0010
0001
0010
0001
0010
0100
0010
0100
1000
0010
1000
0010
,
1000
0001
1000
0001
0100
0001
0100
0001
1000
0010
1000
0010
0100
0000
0M00
0000
,
1000
0001
1000
0001
0010
0001
0010
0001
1000
0100
1000
0100
0010
0100
0010
0100
,
1000
0001
1000
0001
0100
0001
0100
0001
1000
0010
1000
0010
0100
0000
0M00
0000
,
1000
0001
1000
0001
0010
0001
0010
0001
1000
0100
1000
0100
1000
0010
1000
0010
,
0001
0010
0001
0010
1000
0100
1000
0100
0001
0100
0001
0100
1000
0000
M000
0000
,
0100
0001
0100
0001
1000
0010
1000
0010
1000
0100
1000
0100
0001
0100
0001
0100
,
1000
0001
1000
0001
0100
0001
0100
0001
0100
1000
0100
1000
0100
0000
0M00
0000
,
0011
MMMM
0101
MMMM
1100
MMMM
1010
MM1M
,
0110
0000
MMMM
0000
1001
0000
MMMM
0000
1100
0000
0000
0001
0100
0000
1000
0010
,
0100
0001
0100
0001
1000
0000
0100
0010
0001
1000
0010
1000
0010
0000
0100
0001
,
0010
0100
1000
0100
0010
0000
0001
1000
0010
0100
0001
1000
0010
0100
0001
1000
,
0200
M0M1
0000
M01M
0000
10MM
0000
M301
,
0010
0000
M11M
0000
0000
0000
11MM
0000
1000
0000
0MM0
0001
M100
0000
001M
1000
,
0002
M1M0
0000
1MM0
0000
MM10
0000
01M3
,
2000
0000
0M1M
0000
0000
0000
0MM1
0000
3000
0000
M00M
0010
0100
0000
0001
0010
,
2000
01MM
0000
0M1M
0000
0MM1
0000
3M10
,
0002
0000
1MM0
0000
0000
0000
M1M3
0000
0000
0000
M00M
0100
0010
0000
100M
0100
,
0020
MM01
0000
M10M
0000
1M0M
0000
M130
,
0002
0000
MM10
0000
0000
0000
M1M3
0000
1000
0010
0100
0001
1000
0010
0100
0001
,
1000
1100
1000
1100
0100
0110
0010
0011
,
1001
0000
0000
0000
0101
0000
0000
0000
0020
0000
0000
2030
0200
3000
0002
0000
,
0300
0010
0000
1000
0000
0100
0003
1000
,
1010
0000
0000
0000
0011
0000
0000
0000
0100
0000
0000
1000
0100
0000
0001
0010
,
0100
1100
1000
1001
0001
0101
0100
0110
,
0110
0000
0000
0000
1001
0000
0000
0000
0002
0000
0000
0103
2000
0000
0020
0000
,
3000
0100
0000
1000
0000
0001
0030
1000
,
1100
0000
0000
0000
0101
0000
0000
0000
0010
0001
0010
0001
1000
0010
1000
0010
,
0100
0001
1000
0010
0100
0001
1000
0010
0100
0001
1000
0010
0100
0001
1000
0010
,
0100
0001
0100
0010
0100
0001
0100
0010
1000
0100
1000
0001
1000
0010
1000
0001
,
0010
0100
1000
0100
0010
0001
1000
0010
0100
0001
0100
0010
1000
0100
0001
0100
,
1000
0010
0100
0010
1000
0001
0010
0100
1000
0100
0010
0001
1000
0001
1000
0010
,
0100
0001
0100
0010
1000
0100
0001
0100
1000
0010
0100
0001
0010
0100
1000
0100
,
0010
0001
1000
0010
0100
0001
0100
0010
1000
0001
0010
0100
1000
0001
0010
0001
,
0100
0010
1000
0001
0100
0010
1000
0010
0100
0001
1000
0100
0010
0001
1000
0100
,
1000
0001
1000
0001
1000
0001
1000
0001
1000
0001
1000
0001
2000
0000
0000
0000
,
3010
0100
0001
0100
0010
0100
0001
0100
0010
1000
0100
1000
0010
1000
0100
1000
,
0010
0100
0001
0100
0010
0100
0001
0100
0001
1000
0001
0100
0001
0010
0001
1000
,
0010
1000
0100
1000
0010
1000
0100
0010
0001
0100
0001
1000
0001
0010
0001
0100
,
1000
0100
0001
0100
0010
0100
0010
0100
0001
0010
0100
0010
0001
0100
0001
0100
,
0010
1000
0010
0100
0010
1000
0100
1000
0010
0001
0010
1000
0001
0010
0100
1000
,
0010
0100
0001
0100
0010
1000
0100
1000
0010
0001
0010
1000
0100
0010
0001
0100
,
1000
0100
0001
0010
0100
1000
0010
0100
0001
0100
0010
1000
0100
0010
0001
0100
,
1000
0100
0001
0010
0100
1000
0010
0100
0001
0100
0010
1000
0001
0010
0100
0000
,
2002
3003
M01M
0000
2200
3300
MM10
0000
0202
0303
0M1M
0000
2002
3003
M00M
0000
,
0011
0011
0101
0101
1001
1001
1010
0110
,
0220
0330
0MM0
0000
2002
3003
M00M
0000
0000
0000
0000
0000
2000
0000
0020
3000
,
0002
0030
0200
0003
2000
0300
0200
3000
0002
0300
0020
0003
2000
0030
0200
3000
,
0002
0300
0020
0003
0002
0030
0100
1003
0010
0000
0002
0010
2003
0000
0M1M
0000
,
0001
0M1M
0000
01MM
0001
3M1M
0000
M1M0
,
0001
0000
0010
0000
1001
0000
0000
0010
0001
0000
0100
1000
0100
0010
0100
0010
,
0100
0010
0100
0010
0100
0010
0100
0010
0100
0010
0100
0010
1000
0001
1000
0001
,
1000
0001
1000
0001
0100
0001
0100
0001
0100
0001
0100
0001
0100
0010
0100
0010
,
0100
0010
0100
0010
0100
0010
0100
0010
0100
0010
0100
0010
1000
0010
1000
0010
,
1000
0010
1000
0010
1000
0100
1000
0100
1000
0100
1000
0100
0010
0001
0100
0010
,
1000
0001
0100
0010
1000
0100
0010
0001
0010
0100
1000
0001
0100
0010
1000
0010
,
0100
0001
0010
0100
1000
0100
0010
0001
0100
1000
0100
0010
1000
0100
0010
0001
,
0010
0100
1000
0001
0100
0010
0100
0001
0010
0100
1000
0010
0100
0001
0100
0010
,
1000
0100
0001
0100
1000
0010
0100
0001
0100
0010
1000
0100
0010
0001
0010
0100
,
1000
0010
0100
0010
1000
0100
0010
0100
1000
0010
0100
0001
0010
0100
0010
0001
,
0100
0010
0100
0001
0010
0100
1000
0010
0100
0001
1000
0010
1000
0100
0010
0001
,
0010
0100
1000
0001
0100
0010
1000
0010
0100
0001
1000
0010
1000
0100
0001
0100
,
1000
0010
0100
0001
0100
0010
1000
0100
0010
0001
1000
0100
0010
0001
0100
0010
,
1000
0010
0100
0001
0010
0100
1000
0100
0010
0001
1000
0010
0100
0001
0100
0010
,
1000
0001
0010
0100
1000
0100
0010
0100
1000
0010
0001
0010
1000
0001
0010
0001
,
0100
1000
0100
0010
1000
0100
0001
0100
1000
0010
0001
0010
1000
0100
0001
0100
,
1000
0010
0001
0010
1000
0001
1000
0001
1000
0001
1000
0001
2000
0000
0M0M
0000
,
0010
0000
0100
0000
0010
0M0M
0000
0000
0100
0000
0010
0000
3200
0000
0000
0000
,
0302
0000
0000
0000
0023
0000
0000
2030
0020
3000
0002
0030
0200
0003
0000
0000
,
0010
1000
0010
0000
0010
0001
0320
0000
,
0032
0000
0000
0000
1003
0010
0100
0001
1000
0100
0010
0001
2002
0000
0000
0000
,
0000
0000
3003
MMMM
0000
0000
0000
0000
0000
0000
0000
0000
;

//---------------lights-cabinet - ----------------
#NOTES:
     lights-cabinet:
     :
     Easy:
     1:
     1.000,1.000,1.000,0.105,0.101,500.000,340.000,13.000,0.000,299.000:
00000000
00000000
00000000
00000000
,
00000000
00000000
00000000
00000000
,
00000000
00000000
00000000
00000000
,
00000000
00000000
00000000
00000000
,
10000011
00010000
10000011
00010000
10000011
00010000
10000011
00010011
,
01000011
00100000
01000011
00100000
01000011
00100000
01000011
00000011
,
00010011
10000000
00010011
10000000
00010011
10000000
00100011
01000011
,
20020011
01100011
01100011
30030000
,
00100011
00000000
00000000
00100000
01000011
00000000
00000000
00000000
00100011
00000000
00000000
00100000
01000011
00000000
00000011
00000000
,
00100011
00000000
01000011
00000000
00100011
10000000
01000011
00000011
,
01000011
00000000
00000000
01000000
00100011
00000000
00000000
00000000
00100011
00000000
00000000
00100000
01000011
00000000
00000011
00000000
,
10000011
00000000
00010011
00000000
01000011
00010000
01000011
00000011
,
00100011
00000000
00000000
00100000
01000011
00000000
00000000
00000000
01000011
00000000
00000000
01000000
00100011
00000000
00000011
00000000
,
00100011
00000000
10000011
00000000
10000011
00010000
01000011
00000011
,
01000011
00000000
00000000
01000000
00100011
00000000
00000000
00000000
00100011
00000000
00000000
00100000
01000011
00000000
00000011
00000000
,
00010011
00000000
10000011
00000000
00100011
01000000
00100011
00000011
,
10000011
00000000
00100000
00000000
10000011
00000000
00010000
01000000
,
00100011
00000000
10000000
00000000
00010011
01000000
00010011
10000000
,
00010011
10000000
00100011
01000000
,
00100000
00000000
11000000
00000000
00100011
00000011
11000011
00000011
,
10000011
00100000
10000011
01000000
10000011
00100000
10000011
00010011
,
10000011
00100000
10000011
01000000
10000011
00100000
10000011
00000011
,
01000011
00010000
01000011
00100000
01000011
00010000
01000011
00100011
,
01000011
00010000
01000011
00100000
02000011
00000000
03010011
00000011
,
10000011
00100000
10000011
01000000
10000011
00100000
10000011
00010011
,
10000011
00100000
10000011
01000000
10000011
00000000
10000011
00000011
,
01000011
00010000
01000011
00100000
01000011
00010000
01000011
00100011
,
01000011
00010000
01000011
00100000
01000022
00100000
00100033
00000000
,
01000011
00010000
01000011
00000000
00100011
10000000
00100011
00000011
,
01000011
00010000
01000011
00100000
10000011
00100000
01000011
00000011
,
00010011
01000000
00010011
00000000
10000011
00100000
10000011
00000011
,
00010011
00000000
10000000
00000000
00010011
00000000
01000000
00000000
00100011
00000000
01000000
00010000
00100011
00000000
00000011
00000000
,
10000011
00100000
10000011
00000000
00010011
01000000
00010011
00000011
,
00100011
00010000
00010011
01000000
00100011
10000000
00100011
00000011
,
10000011
00100000
10000011
00000000
00010011
01000000
00010011
00000011
,
10000011
00000000
00100000
00000000
00100011
00000000
01000000
00000000
00100011
00000000
01000000
00010000
01000011
00000000
00000000
00000000
,
10000011
00000000
00000000
00100000
00000000
00000000
01000000
00000000
00010011
00000000
00000000
10000000
00000000
00000000
00100000
00000000
,
10000011
00000000
00000000
00100000
00000000
00000000
01000000
00000000
00010011
00000000
00000000
10000000
00000011
00000000
00100000
00000000
,
10000011
00000000
00000000
00100000
00000000
00000000
01000000
00000000
00010011
00000000
00000000
10000000
00000000
00000000
00100000
00000000
,
01000011
00010000
01000011
00100000
02000011
00000000
03010011
00000011
,
10000011
00010000
00000000
00000000
10000011
00000000
00000000
00000000
00100011
00000000
01000000
00000000
00100011
00000000
00000000
00000000
,
00100011
10000000
00000000
00000000
00100011
00000000
00000000
00000000
01000011
00000000
00100011
00000000
10000011
00000000
00000000
00000000
,
10000011
00100000
00000000
00000000
10000011
00000000
00000000
00000000
00100011
00000000
01000000
00000000
00100011
00000000
00000011
00000000
,
00100011
01000000
00000000
00000000
01000000
00100000
00000000
00000000
00100011
01000000
00000000
00000000
01000000
00100000
00000000
00000000
,
10000011
01000000
00010011
00000000
00010011
01000000
10000011
00000011
,
10000011
00000000
00100011
00000000
01000011
00010000
00010011
00000011
,
10000011
01000000
00010011
00000000
00010011
01000000
10000011
00000011
,
00010011
00000000
10000011
00000000
10000011
00000000
00110011
00000011
,
00010011
00100000
10000011
00000000
10000011
00100000
00010011
00000011
,
10000011
00000000
01000011
00000000
10000011
00010000
00010011
00000011
,
10000011
01000000
00010011
00000000
00010011
01000000
10000011
00000011
,
00200011
10000011
00010011
10300011
,
10011111
01101111
10011111
01101111
,
10100011
00110011
01010011
01100011
,
10011111
01101111
00000000
10000011
,
00010011
00000000
01000011
00000000
00100011
10000011
00010011
00000000
,
01000011
00000000
00100011
10000000
00100011
01000011
00010011
00000000
,
10000011
00000000
00100011
00000000
10000011
00100011
10000011
01000000
,
10000011
01000000
10000011
00000011
00110011
00000000
10000011
00100000
,
10000011
01000000
10000011
00100000
10000011
00010011
10000011
00100000
,
10000011
01000000
10000011
00100000
10000011
00000011
01000011
00010000
,
01000011
00100000
01000011
00010000
01000011
00100011
01000011
00010000
,
01000011
00100000
01000011
00000000
00010011
00000011
10000011
00100000
,
10000011
01000000
10000011
00100000
10000011
00010011
10000011
00100000
,
10000011
01000000
10000011
00100000
10000011
00000011
01000011
00010000
,
01000011
00100000
01000011
00010000
01000011
00100011
01000011
00100000
,
10000011
00100000
10000022
10000000
10000033
00000000
00100011
10000000
,
01000011
00000000
01000011
10000000
01000011
00000011
01000011
10000000
,
00010011
01000000
00100011
10000000
00100011
00000011
00010011
00100000
,
00010011
00000000
00010011
00100000
00010011
00000011
00010011
10000000
,
00010011
00000000
01000000
00000000
00100011
00000000
01000000
00010000
10000011
00000000
00000011
00000000
01000011
00000000
10000000
00000000
,
01000011
00000000
10000011
00100000
10000011
00000011
00010011
01000000
,
00010011
10000000
00100011
01000000
00010011
00000011
10000011
00100000
,
01000011
00000000
00010011
00100000
00010011
00000011
10000011
00010000
,
01000011
00000000
00100000
00000000
01000011
00000000
00010000
01000000
00100011
00000000
00000011
00000000
01000011
00000000
00000000
00000000
,
00110011
01000011
00110011
00010011
,
11000011
00000000
00010011
00000000
11000011
00000011
01000011
00000000
,
00110011
01000011
00110011
00010011
,
10000011
00000000
00100011
01000000
00010011
00000000
20021122
00000000
,
00000000
00000033
00000000
00000000
30030000
00000000
00000000
00000000
;
