#TITLE:SHADOWMAN;
#SUBTITLE:;
#ARTIST:BUNBUN;
#TITLETRANSLIT:;
#SUBTITLETRANSLIT:;
#ARTISTTRANSLIT:;
#CREDIT:;
#BANNER:SHADOWMAN.png;
#BACKGROUND:SHADOWMAN-bg.png;
#LYRICSPATH:;
#CDTITLE:mm3.png;
#MUSIC:SHADOWMAN.mp3;
#OFFSET:-3.020;
#SAMPLESTART:32.360;
#SAMPLELENGTH:12.500;
#SELECTABLE:YES;
#BPMS:0.000=163.480;
#STOPS:;
#BGCHANGES:;
// cache tags:
#FIRSTBEAT:0.000;
#LASTBEAT:319.000;
#SONGFILENAME:Songs/zelda et megaman/SHADOWMAN/SHADOWMAN.sm;
#HASMUSIC:1;
#HASBANNER:1;
#MUSICLENGTH:132.296;
// end cache tags

//---------------dance-single - ----------------
#NOTES:
     dance-single:
     :
     Easy:
     5:
     0.299,0.301,0.015,0.000,0.000,275.000,2.000,0.000,0.000,0.000:
1000
1000
1000
0000
,
0001
0001
0001
0000
,
1000
1000
1000
0000
,
0001
0001
0001
0000
,
0000
0010
0000
0010
,
0000
0100
0000
0010
,
0000
0010
0000
0100
,
0000
0010
0010
0100
,
0010
0010
0001
0000
,
0010
0010
0001
0000
,
0100
0000
0100
0000
,
1000
0100
0100
0000
,
0001
0010
0010
0001
,
0010
0010
0100
0000
,
1000
0100
0100
1000
,
0100
0100
0010
0001
,
0100
0000
0100
0000
,
0001
0100
0100
0001
,
0010
0010
0100
0010
,
0010
0100
1000
0000
,
0100
1000
0100
1000
,
0100
0100
1000
0001
,
0100
0001
0100
0001
,
0100
0100
0001
1000
,
0100
0010
0100
1000
,
0100
0010
0100
0100
,
0010
0001
0010
0100
,
0010
0001
0010
0010
,
0100
1000
0100
0000
,
0010
0001
0010
0000
,
0001
0001
0010
0001
,
0001
0010
0100
0100
,
1000
0100
0010
0001
,
0100
0100
0010
0100
,
0001
0001
1000
0001
,
0001
1000
0100
1000
,
0010
0100
0010
0100
,
0001
0010
0100
1000
,
1001
0000
0000
0000
,
0100
0100
0100
0000
,
1000
1000
0100
0000
,
1000
1000
0100
0000
,
0001
0001
0100
0000
,
0001
0001
0100
0000
,
0000
1000
0100
0000
,
1000
0100
1000
0100
,
0000
0001
0100
0000
,
0001
0100
1000
0100
,
0001
0010
0010
0001
,
0010
0010
0001
0010
,
0100
0100
1000
0100
,
0100
1000
0100
0000
,
1000
0100
1000
0100
,
1000
0100
0100
0000
,
0001
0100
0001
0100
,
0001
0100
0100
0001
,
1000
0100
0010
0001
,
0010
0010
0100
0100
,
1000
0100
0010
0001
,
0100
0100
0010
0010
,
1000
0100
1000
0100
,
1000
0100
1000
0010
,
0100
0010
0100
0010
,
0100
0010
0100
0001
,
0010
0001
0010
0001
,
0010
0001
0010
0001
,
0100
1000
0100
0001
,
0100
1000
0100
0001
,
0010
0010
0100
0010
,
0010
0100
0010
0000
,
0100
0010
0001
0000
,
0010
0001
0010
0000
,
0001
0010
0100
1000
,
0100
0100
1000
0000
,
0100
1000
0100
0000
,
1000
0100
0010
0000
,
0001
0010
0100
1000
,
0001
0010
0100
1000
,
1001
0000
0000
0000
,
0100
0100
0100
0100
;

//---------------dance-single - ----------------
#NOTES:
     dance-single:
     :
     Medium:
     7:
     0.451,0.422,0.106,0.227,0.083,374.000,14.000,30.000,0.000,0.000:
0001
0000
0001
0000
0020
0000
0000
0030
,
0000
0010
0100
0010
0000
0000
0000
0000
,
0001
0000
0001
0000
0020
0000
0000
0030
,
0000
0010
0100
0010
0000
0000
0000
0000
,
0000
0000
0001
0000
0001
0100
0000
0000
,
0001
0100
0000
0100
0000
1000
0000
0000
,
0000
0000
0100
0000
0100
1000
0000
0000
,
2020
0000
3030
0202
0000
0000
0000
0303
,
0000
0000
0001
0000
0001
0010
0000
0000
,
0001
0010
0000
0010
0000
1000
0000
0000
,
0000
0000
0010
0000
0010
1000
0000
0000
,
2002
0000
3003
0220
0000
0000
0000
0330
,
0100
1000
0100
1000
0000
0010
0100
0010
,
1000
0100
1000
0200
0000
0000
0300
0000
,
0010
0001
0010
0001
0000
0100
0010
0200
,
0000
0000
0000
0000
0000
0000
0000
0300
,
0001
0100
0001
0100
0000
0010
0100
0010
,
1000
0000
1000
0000
0100
2000
0000
3000
,
0100
1000
0100
1000
0000
0010
0100
0020
,
0000
0000
0000
0000
0000
0000
0000
0030
,
0100
0010
0100
0010
0000
1000
0001
1000
,
0100
0010
0100
0010
0000
0100
0010
0000
,
0100
1000
0100
1000
0000
0010
0100
0020
,
0000
0000
1000
0030
1000
0010
0100
0000
,
0001
0010
0001
0010
0000
0100
1000
0100
,
0010
0000
0010
0000
0100
0010
0000
0000
,
0100
0010
0100
0010
0000
0001
1000
0200
,
0000
0000
1000
0300
1000
0001
0100
0000
,
0001
0100
0001
1000
0100
1000
0001
0100
,
0001
1000
0100
1000
0000
0000
0000
0000
,
0100
0000
0010
0000
0100
0000
0000
0000
0010
0000
0000
0010
0000
0000
0000
0100
,
0000
0000
0100
0000
1000
0000
0000
0000
1000
0000
0000
0100
0000
0000
0000
0000
,
1000
0000
0000
0000
0100
0000
0000
0000
0010
0000
0000
0000
0001
0000
0000
0100
,
0000
0100
0000
0000
0001
0000
0100
0000
1000
0000
0000
0000
1000
0000
0000
0000
,
0100
0000
0001
0000
0100
0000
0000
0000
1000
0000
0000
1000
0000
0000
0000
0001
,
0000
0000
0010
0000
0100
0000
0000
0000
1000
0000
0000
1000
0000
0000
0000
0000
,
0010
0000
0000
0000
0100
0000
0000
0000
0010
0000
0000
0000
0100
0000
0000
0001
,
0000
0001
0000
0000
0010
0000
0100
0000
0010
0000
0000
0000
0100
0000
0000
0000
,
2002
0000
0000
3003
,
0100
1100
0010
0011
,
0100
0000
0100
0000
2000
0000
0000
3000
,
0000
1000
0100
0001
0000
0000
0000
0000
,
0100
0000
0100
0000
0002
0000
0000
0003
,
0000
0001
0100
1000
0000
0000
1001
0000
,
0100
0000
1000
0000
1000
0100
0000
0000
,
1000
0100
0000
0100
0000
0001
0010
0000
,
0001
0000
0010
0000
0010
0001
0000
0000
,
0022
0000
0033
2200
0000
0000
3300
0000
,
1000
0000
0100
0000
0100
1000
0000
0000
,
1000
0100
0000
0100
0000
1000
0010
0000
,
0100
0000
0010
0000
0010
0001
0000
0000
,
0220
0000
0330
2002
0000
0000
0000
3003
,
0100
1000
0100
1000
0000
0010
0100
0010
,
1000
0100
1000
0100
0000
1000
0001
0000
,
0100
0001
0100
0001
0000
0010
0100
0010
,
0001
0000
0001
0000
0100
0010
0100
0000
,
0001
0010
0100
1000
0000
0100
1000
0100
,
0010
0000
0010
0000
0010
0100
1000
0000
,
0100
1000
0100
1000
0000
0010
0100
0010
,
0000
0000
0100
0000
0001
0100
0001
0000
,
0100
0001
0100
0000
0001
0100
1000
0000
,
0100
1000
0100
0000
1000
0000
0100
0000
,
1000
0100
1000
0000
0100
0001
0100
0000
,
0001
0100
1000
0000
0100
0000
0100
0000
,
0001
0010
0001
0000
0010
0001
0100
0000
,
0001
0100
0001
0000
0100
1000
0010
0000
,
1000
0010
1000
0000
0010
1000
0100
0000
,
1000
0100
0001
0100
1000
0100
0001
0000
,
0100
1000
0100
0010
0001
0010
0100
1000
,
0100
0010
0001
0010
0000
0000
0000
0000
,
0001
0000
1000
0000
0001
0000
0000
0000
0010
0000
0000
0100
0000
0000
0000
0100
,
0000
0000
1000
0000
0001
0000
1000
0000
0100
0000
0000
0010
0000
0000
0000
0010
,
0001
0000
0000
0000
0010
0000
0000
0000
0100
0000
0000
0000
1000
0000
0000
0100
,
0000
0100
0000
0000
1000
0000
0100
0000
1000
0000
0000
0000
0100
0000
0000
0000
,
1000
0000
0001
0000
1000
0000
0000
0000
0010
0000
0000
0100
0000
0000
0000
0100
,
0000
0000
0001
0000
1000
0000
0001
0000
0010
0000
0000
0100
0000
0000
0000
0100
,
1000
0000
0000
0000
0100
0000
0000
0000
0001
0000
0000
0000
0100
0000
0000
1000
,
0000
1000
0000
0000
0100
0000
1000
0000
0100
0000
0000
0000
0001
0000
0000
0000
,
0220
0000
0000
0000
0000
0000
0000
0330
,
1000
1000
0001
1001
;

//---------------dance-single - ----------------
#NOTES:
     dance-single:
     :
     Hard:
     9:
     0.587,0.543,0.265,0.181,0.132,485.000,35.000,24.000,0.000,0.000:
2000
0000
0200
3000
0020
0300
0000
0030
,
0000
0001
0010
0001
0000
0000
0000
0000
,
0020
0000
0200
0030
2000
0300
0000
3000
,
0000
0100
1000
0100
0000
1000
1000
0000
,
1200
0000
0001
0000
0301
0100
0000
0000
,
1000
0100
0000
0100
0000
0100
1001
0000
,
0201
0000
1000
0000
1300
0100
0000
0000
,
0101
0000
0000
1100
0000
0000
0000
0000
,
0210
0000
1000
0000
1300
0100
0000
0000
,
0001
0100
0000
0100
0000
0100
1001
0000
,
0120
0000
1000
0000
1030
0010
0000
0000
,
1010
0000
0000
0011
0000
0000
0000
0000
,
0010
0100
0001
0100
0000
0100
0001
0100
,
0010
1000
0001
1000
0000
0000
1001
0000
,
0100
1000
0010
1000
0000
1000
0010
1000
,
0100
0000
0010
0000
0100
1000
0001
1000
,
0100
0010
0001
0010
0000
0010
0001
0010
,
0100
0000
1001
0000
0100
0010
0100
0000
,
0001
0100
1000
0100
0000
0100
1000
0100
,
0001
0000
0001
0000
0100
0010
0100
0000
,
0001
0010
0100
0010
1000
0010
0100
0010
,
0001
0010
0100
0010
1000
0010
0001
1000
,
0001
0100
0010
0100
1000
0100
0010
0100
,
0001
0100
0010
0100
1000
0100
0001
1000
,
0001
0010
0100
0000
0010
0100
1000
0000
,
0100
1000
0100
0000
1000
0100
0010
0001
,
0100
0010
0100
0000
0010
0100
1000
0000
,
0100
1000
0100
0001
0010
0100
1000
0000
,
0100
0010
0001
0010
0100
0010
0001
0010
,
0100
0010
0001
2002
0000
0000
0000
3003
,
1000
0000
0100
0000
0001
0000
0100
0000
1000
0000
0000
0010
0000
0000
0000
0010
,
0000
0000
1000
0000
0100
0000
0001
0000
0100
0000
0000
1000
0000
0000
0000
1000
,
0100
0000
0000
0000
1100
0000
0000
0000
0011
0000
0000
0000
1100
0000
0000
0010
,
0000
0010
0000
0000
0100
0000
0001
0000
0100
0000
0000
0000
1001
0000
0000
0000
,
0010
0000
0001
0000
0010
0000
0100
0000
1000
0000
0000
0010
0000
0000
0000
0010
,
0000
0000
0100
0000
1000
0000
0100
0000
0010
0000
0000
0001
0000
0000
0000
0001
,
0010
0000
0000
0000
0110
0000
0000
0000
1001
0000
0000
0000
0110
0000
0000
1000
,
0000
1000
0000
0000
0100
0000
0001
0000
0100
0000
0000
0000
1001
0000
0000
0000
,
0100
0000
0010
0000
1000
0000
0100
0000
0000
0010
0000
0100
0000
1000
0000
0010
,
0100
1001
0100
1001
,
0100
1000
0200
0000
1300
0100
0002
0000
,
0003
0100
1000
0100
0000
1000
1000
0000
,
0010
0100
0020
0000
0031
0010
0200
0000
,
0300
0001
0100
0001
0000
0010
0010
0100
,
0020
0000
0001
0000
0031
0010
0000
0010
,
0100
1000
0000
1000
0000
1000
0010
0100
,
0020
0000
1000
0000
1030
0010
0000
0010
,
0001
0010
1000
0010
0000
0000
1001
0000
,
0100
1000
0200
0000
1300
0100
0020
0000
,
0130
0010
0100
1000
0010
0100
0010
1000
,
0001
0010
0002
0000
0013
0001
0020
0000
,
0130
0010
0001
0100
0010
1000
0010
0100
,
0001
0010
0100
0010
0000
0010
0100
0010
,
0001
0100
1000
0100
0001
1000
0001
0000
,
0100
0010
1000
0010
0000
0010
1000
0010
,
0100
0001
0010
0100
1000
0100
0010
0001
,
0100
1000
0100
0010
0000
0010
0100
0001
,
0100
0010
1000
0000
0010
1000
0100
0000
,
1000
0100
1000
0010
0000
0010
1000
0100
,
1000
0010
0100
0010
1000
0100
1000
0000
,
0100
1000
0001
1000
0010
1000
0001
1000
,
0100
1000
0010
1000
0001
1000
0100
0100
,
0010
0001
1000
0001
0100
0001
1000
0001
,
0010
0001
1000
0001
0010
0001
0100
0100
,
0010
1000
0100
0010
0001
0100
0010
1000
,
0001
1000
0100
0010
0001
0100
0010
1000
,
0100
0001
0100
1000
0010
0100
0010
1000
,
0100
0001
0100
1000
0100
0010
0001
0000
,
0010
0000
0001
0000
0010
0000
0100
1000
0100
0000
1000
0000
0100
1000
0100
0000
,
0010
0001
0010
0220
0000
0000
0000
0330
,
0100
0000
1000
0000
0001
0000
1000
0000
0100
0000
0000
0010
0000
0000
0000
0010
,
0000
0000
0100
0000
1000
0000
0001
0000
1000
0000
0000
0110
0000
0000
0000
0001
,
0010
0000
0000
0000
0011
0000
0000
0000
0100
0000
0000
0000
1100
0000
0000
1000
,
0000
0001
0000
0000
0100
0000
0010
0000
0100
0000
0000
0000
1001
0000
0000
0000
,
0100
1000
0100
0000
1000
0000
0100
0000
0010
0000
0000
0001
0000
0000
0000
0001
,
0000
0000
0010
0000
0100
0000
1000
0000
0100
0000
0000
1001
0000
0000
0000
0100
,
0001
0000
0000
0000
0101
0000
0000
0000
1000
0000
0000
0000
1100
0000
0000
0001
,
0000
1000
0000
0000
0100
0000
1000
0000
0100
0000
0000
0000
1001
0000
0000
0000
,
0100
0000
0010
0000
1000
0000
0100
0000
0000
0010
0000
0100
0000
1000
0000
0010
,
0100
1001
0100
1001
;

//---------------dance-single - ----------------
#NOTES:
     dance-single:
     :
     Challenge:
     10:
     0.639,0.603,0.310,0.000,0.227,551.000,41.000,0.000,0.000,0.000:
0100
0000
1000
0000
0100
0001
0000
0000
0100
0000
1000
0000
0100
0000
0000
0000
,
1000
0100
0010
0000
0100
0010
0001
0000
,
0010
0000
0001
0000
0010
1000
0000
0000
0010
0000
0001
0000
0010
0000
0000
0000
,
0001
0010
1000
0010
0001
0010
1000
0000
,
0010
0001
0010
0000
0001
0010
0100
0000
,
0010
0100
1000
0100
0010
0100
1000
0010
,
0100
0001
0100
0000
0001
0100
1000
0000
,
0100
1000
0100
0010
0100
1000
0100
0000
,
0001
0100
0001
0000
0100
0001
0100
0000
,
0001
0100
1000
0000
0100
1000
0100
0000
,
1000
0100
0001
0100
1000
0100
0001
0000
,
0100
0010
0100
0010
0100
0000
1001
0000
,
0100
1000
0100
0001
0000
0100
0001
0100
,
1000
0001
0000
0000
0000
0000
0000
0000
0100
0000
0000
0000
0000
0000
0000
0000
0001
0000
0000
0000
0000
0000
0000
0000
0100
0000
0000
0000
0000
0000
0000
0000
0000
0000
0000
0000
0000
0000
0000
0000
0000
0000
0000
0000
0000
0000
0000
0000
1001
0000
0000
0000
0000
0000
0000
0000
0000
0000
0000
0000
0000
0000
0000
0000
,
0010
1000
0010
0001
0000
0010
1000
0010
,
0001
0010
0100
1000
,
0100
1000
0100
0001
0000
0100
0010
0100
,
1000
0001
0000
0000
0000
0000
0000
0000
0000
0000
0000
0000
0000
0000
0000
0000
0001
1000
0000
0000
0000
0000
0000
0000
0000
0000
0000
0000
0000
0000
0000
0000
0100
0000
0000
0000
0000
0000
0000
0000
0010
0000
0000
0000
0000
0000
0000
0000
0100
0000
0000
0000
0000
0000
0000
0000
0000
0000
0000
0000
0000
0000
0000
0000
,
0010
1000
0010
0001
0000
0010
1000
0010
,
0001
0010
0100
1000
,
0100
0001
0010
0100
1000
0010
0001
0010
,
0100
0001
0010
0100
1000
0010
0100
1000
,
0100
0010
0001
0010
0100
0001
0010
0100
,
1000
0010
0100
1000
0100
0010
0001
0010
,
0100
0001
0100
0010
1000
0010
0100
1000
,
0100
0010
1000
0100
0010
0001
0100
0010
,
0001
0010
0100
1000
0100
0001
0100
1000
,
0100
0001
0010
1000
0010
0001
0010
1000
,
0010
0001
0010
0000
0100
0000
0010
0001
0010
0000
0100
0000
0010
0001
0010
0000
,
0100
1000
0100
1000
0100
0000
0010
0000
,
0100
1000
0100
0000
1000
0000
0100
0000
0010
0000
0000
0011
0000
0000
0000
1100
,
0000
0000
0100
0000
1000
0000
0100
0000
1000
0000
0000
0110
0000
0000
0000
0001
,
0010
0000
0000
0000
0011
0000
0000
0000
1001
0000
0000
0000
1100
0000
0000
0100
,
0000
0100
0000
0000
1000
0000
0100
0000
0001
0000
0000
0000
0101
0000
0000
0000
,
1000
0100
1000
0000
0100
0000
1000
0000
0001
0000
0000
0101
0000
0000
0000
1100
,
0000
0000
1000
0000
0100
0000
0001
0000
0100
0000
0000
0101
0000
0000
0000
1000
,
0100
0000
0000
0000
1100
0000
0000
0000
1001
0000
0000
0000
0011
0000
0000
0010
,
0000
0010
0000
0000
0001
0000
0010
0000
0001
0000
0000
0000
0110
0000
0000
0000
,
1000
0100
0010
0001
0100
0010
1000
0100
0000
1000
0000
0100
0000
0010
0000
0001
,
0010
0011
0110
1100
,
0100
0000
0010
0000
0001
1000
0000
0000
0001
0000
0010
0000
0100
0000
0000
0000
,
1000
0100
0010
0100
1000
0100
0010
0000
,
0100
0000
0010
0000
0001
1000
0000
0000
0001
0000
0010
0000
0100
0000
0000
0000
,
1000
0100
0001
0100
0010
0100
0001
0100
,
1000
0000
0110
0000
0110
1000
0001
0000
,
0110
0000
0110
0000
0001
1000
0001
1000
,
0001
0110
1000
0110
,
0001
0010
0001
0100
0001
0010
0001
0000
,
0010
0001
0010
0000
0001
0010
0100
0000
,
0010
0100
1000
0000
0100
1000
0100
0000
,
1000
0100
0001
0000
0100
0001
0100
0000
,
0001
0100
1000
0100
0001
0100
1000
0000
,
0100
1000
0100
0001
0000
0100
0001
0100
,
1000
0001
0000
0000
0000
0000
0000
0000
0100
0000
0000
0000
0000
0000
0000
0000
0001
0000
0000
0000
0000
0000
0000
0000
0100
0000
0000
0000
0000
0000
0000
0000
1000
0000
0000
0000
0000
0000
0000
0000
0000
0000
0000
0000
0000
0000
0000
0000
0110
0000
0000
0000
0000
0000
0000
0000
0000
0000
0000
0000
0000
0000
0000
0000
,
0001
0010
1000
0010
0000
1000
0010
0001
,
0010
1000
0010
0000
1000
0010
0001
0000
,
0010
0001
0010
0100
0000
1000
0100
0010
,
0100
1000
0000
0000
0000
0000
0000
0000
0000
0000
0000
0000
0000
0000
0000
0000
0010
0001
0000
0000
0000
0000
0000
0000
0000
0000
0000
0000
0000
0000
0000
0000
0010
0000
0000
0000
0000
0000
0000
0000
0100
0000
0000
0000
0000
0000
0000
0000
1000
0000
0000
0000
0000
0000
0000
0000
0100
0000
0000
0000
0000
0000
0000
0000
,
0010
0001
0010
0100
0000
0010
0100
1000
,
0100
0010
0100
1000
0100
0010
0100
0000
,
1000
0100
0010
0100
1000
0010
0001
0010
,
0100
0001
0010
0100
0010
0001
0100
1000
,
0100
0001
0010
0001
0100
1000
0100
0010
,
1000
0100
1000
0010
0001
0010
0100
1000
,
0100
0001
0010
1000
0010
0100
0010
1000
,
0010
0100
0010
1000
0010
0001
0100
1000
,
0100
0001
0100
0010
0100
0001
0100
0010
,
0100
0001
0100
1000
0100
0001
0010
0100
,
1000
0001
1000
0000
0100
0000
1000
0001
1000
0000
0100
0000
1000
0001
1000
0000
,
0100
0010
0001
0010
0001
0010
0001
0000
,
0010
0001
0010
0000
0001
0000
0010
0000
0100
0000
0000
1100
0000
0000
0000
0011
,
0000
0000
0010
0000
0001
0000
0010
0000
0100
0000
0000
1100
0000
0000
0000
1000
,
0100
0000
0000
0000
1001
0000
0000
0000
0100
0000
0000
0000
1001
0000
0000
0100
,
0000
0100
0000
0000
0001
0000
0100
0000
1000
0000
0000
0000
0110
0000
0000
0000
,
0001
1000
0001
0000
0010
0000
0100
0000
1000
0000
0000
1100
0000
0000
0000
0011
,
0000
0000
0001
0000
0010
0000
0100
0000
1000
0000
0000
1001
0000
0000
0000
0100
,
0010
0000
0000
0000
1001
0000
0000
0000
0010
0000
0000
0000
1001
0000
0000
0010
,
0000
0010
0000
0000
0001
0000
0010
0000
0001
0000
0000
0000
0110
0000
0000
0000
,
0001
0010
0100
1000
0010
0100
0001
0010
0000
0100
0000
1000
0000
0100
0000
0010
,
0001
0011
0110
1100
;

//---------------dance-double - ----------------
#NOTES:
     dance-double:
     :
     Hard:
     9:
     0.531,0.482,0.166,0.204,0.091,443.000,22.000,27.000,0.000,0.000:
00200000
00320000
00032000
00003000
,
00000000
00010000
00001000
00000100
00000000
00000000
00000000
00000000
,
00002000
00003200
00000302
00000003
,
00000000
00000100
00000001
00000100
00000000
00000000
00001001
00000000
,
00000200
00000000
00001000
00000000
00001300
00000100
00000000
00000000
,
00000010
00001000
00000000
00001000
00000000
00001000
00010000
00000000
,
02000000
00000000
00100000
00000000
03100000
01000000
00000000
00000000
,
22000000
00000000
33000000
00220000
00000000
00000000
00330000
00000000
,
02000000
00000000
00010000
00000000
03010000
01000000
00000000
00000000
,
00100000
00010000
00000000
00010000
00000000
00010000
00001000
00000000
,
00000200
00000000
00000001
00000000
00000301
00000100
00000000
00000000
,
00002200
00000000
00003300
00022000
00000000
00000000
00000000
00033000
,
00100000
10000000
00100000
00010000
00000000
00010000
00001000
00010000
,
00100000
10000000
00100000
00020000
00000000
00000000
00031000
00000000
,
00000100
00000001
00000100
00001000
00000000
00001000
00000100
00000002
,
00000000
00000000
00000103
00000000
00000010
00000100
00000010
00000000
,
00000100
00000001
00000100
00001000
00000000
00001000
00000100
00000001
,
00000100
00000000
00001001
00000000
00000100
00001000
00000100
00000000
,
00001000
00000100
00000010
00000001
00000000
00000001
00000010
00000100
,
00001000
00000000
00001000
00000000
00000100
00001000
00000100
00000000
,
00001000
00000100
00000010
00000000
00000100
00000010
00000001
00000000
,
00000010
00000001
00000100
00000000
00000001
00000100
00001000
00000000
,
00000100
00001000
00010000
00000000
00001000
00010000
00100000
00000000
,
00010000
00100000
10000000
00000000
00100000
10000000
01000000
00000000
,
10000000
01000000
00010000
01000000
10000000
01000000
00010000
00000000
,
01000000
00010000
00001000
00010000
01000000
00010000
00001000
00000000
,
00010000
00001000
00000100
00001000
00010000
00001000
00000100
00000000
,
00001000
00000100
00000001
00000100
00001000
00000100
00000001
00000000
,
00000010
00000100
00001000
00000010
00000100
00000001
00000010
00000100
,
00001000
00000010
00000100
00002002
00000000
00000000
00003003
00000000
,
00000100
00000000
00000010
00000000
00001000
00000000
00000010
00000000
00000100
00000000
00000000
00000001
00000000
00000000
00000000
00000001
,
00000000
00000000
00000100
00000000
00001000
00000000
00010000
00000000
00100000
00000000
00000000
10000000
00000000
00000000
00000000
10000000
,
00100000
00000000
00000000
00000000
00010000
00000000
00000000
00000000
00100000
00000000
00000000
00000000
00010000
00000000
00000000
00001000
,
00000000
00001000
00000000
00000000
00000100
00000000
00000001
00000000
00000100
00000000
00000000
00000000
00001001
00000000
00000000
00000000
,
00000100
00000000
00001000
00000000
00000010
00000000
00001000
00000000
00000100
00000000
00000000
00010000
00000000
00000000
00000000
00010000
,
00000000
00000000
00001000
00000000
00100000
00000000
00001000
00000000
00100000
00000000
00000000
10010000
00000000
00000000
00000000
01000000
,
10000000
00000000
00000000
00000000
01000000
00000000
00000000
00000000
00100000
00000000
00000000
00000000
00010000
00000000
00000000
00100000
,
00000000
00100000
00000000
00000000
00001000
00000000
00010000
00000000
00001000
00000000
00000000
00000000
00110000
00000000
00000000
00000000
,
00001000
00000100
00001000
00000100
00000001
00000100
00000001
00000000
,
00000010
00000010
00000100
00000100
,
00001000
00001000
00000200
00000000
,
00000300
00001000
00000100
00000010
00000000
00000010
00000100
00000000
,
00001000
00001000
00000200
00000000
,
00000000
00001300
00000100
00000010
00000000
00000010
00000100
00001000
,
00000100
00000000
00001000
00000000
00001000
00000100
00000001
00000000
,
00000100
00000001
00000100
00001000
00000000
00001000
00000100
00000000
,
00011000
00000000
00100000
00000000
00100000
00010000
00000000
00100000
,
00010000
00100000
01000000
00100000
00000000
00000000
10010000
00000000
,
01000000
00000000
01000000
00000000
10000000
01000000
00010000
00000000
,
00010000
00001000
00000100
00000000
00000100
00000001
00001000
00000001
,
00000100
00000100
00000001
00000100
,
00000100
00001000
00010000
00100000
00000000
00000000
10010000
00000000
,
01000000
00010000
01000000
10000000
00000000
10000000
01000000
00010000
,
00001000
00010000
01000000
20000000
00000000
00000000
31000000
00000000
,
00010000
00001000
00000100
00000010
00000000
00000010
00000100
00001000
,
00010000
00000000
00010000
00000000
00001000
00000100
00001000
00000000
,
00000100
00000001
00000100
00001000
00000000
00001000
00010000
00100000
,
10000000
00000000
10100000
00000000
00010000
00100000
00010000
00000000
,
00100000
01000000
10000000
01000000
00100000
01000000
10000000
01000000
,
00100000
00000000
00100000
00000000
01000000
10000000
01000000
00000000
,
10000000
01000000
00100000
00000000
01000000
00100000
00010000
00000000
,
00100000
00010000
01000000
00100000
00010000
00001000
00000100
00000000
,
00001000
00000100
00000010
00000000
00000100
00000010
00001000
00000000
,
00000010
00001000
00000100
00000010
00001000
00010000
00100000
00000000
,
00010000
00100000
10000000
00100000
00010000
00100000
10000000
00000000
,
00100000
00010000
00001000
00010000
00100000
00010000
00001000
00000000
,
00000100
00001000
00000100
00000000
00001000
00000100
00000001
00000000
,
00000100
00000001
00000100
00001000
00010000
01000000
10000000
01000000
,
00010000
00000100
00010000
00001000
00100000
00001000
00010000
00000100
,
00010000
00001000
00100000
00022000
00000000
00000000
00033000
00000000
,
00100000
00000000
00010000
00000000
10000000
00000000
00010000
00000000
00100000
00000000
00000000
01000000
00000000
00000000
00000000
01000000
,
00000000
00000000
10000000
00000000
00010000
00000000
10000000
00000000
01000000
00000000
00000000
10010000
00000000
00000000
00000000
00010000
,
00100000
00000000
00000000
00000000
00001000
00000000
00000000
00000000
00010000
00000000
00000000
00000000
00000100
00000000
00000000
00001000
,
00000000
00001000
00000000
00000000
00000100
00000000
00001000
00000000
00000100
00000000
00000000
00000000
00001001
00000000
00000000
00000000
,
00000100
00000000
00000010
00000000
00001000
00000000
00000010
00000000
00000100
00000000
00000000
00001000
00000000
00000000
00000000
00001000
,
00000000
00000000
00010000
00000000
00100000
00000000
01000000
00000000
10000000
00000000
00000000
10010000
00000000
00000000
00000000
00010000
,
00100000
00000000
00000000
00000000
00100000
00000000
00000000
00000000
01000000
00000000
00000000
00000000
01000000
00000000
00000000
10000000
,
00000000
10000000
00000000
00000000
01000000
00000000
10000000
00000000
01000000
00000000
00000000
00000000
10010000
00000000
00000000
00000000
,
01000000
00010000
01000000
10000000
01000000
00010000
01000000
10000000
,
01000000
10010000
00011000
00001001
;
