#TITLE:Aggressive 201;
#SUBTITLE:- Original Mix -;
#ARTIST:sun3;
#TITLETRANSLIT:;
#SUBTITLETRANSLIT:;
#ARTISTTRANSLIT:;
#CREDIT:Zeph;
#BANNER:../Zeppelin_bn.png;
#BACKGROUND:../bg_Zeppelin.png;
#LYRICSPATH:;
#CDTITLE:../cdtitle_ZAiA.png;
#MUSIC:sun3 - Aggressive 201 -Original Mix-.ogg;
#OFFSET:-0.275;
#SAMPLESTART:118.580;
#SAMPLELENGTH:24.060;
#SELECTABLE:YES;
#BPMS:0.000=165.330;
#STOPS:;
#BGCHANGES:;
// cache tags:
#FIRSTBEAT:8.000;
#LASTBEAT:748.000;
#SONGFILENAME:Songs/Cirque du Zeppelin/Aggressive 201 -Original Mix- - [Zaia]/Aggressive 201 -Original Mix-.sm;
#HASMUSIC:1;
#HASBANNER:1;
#MUSICLENGTH:280.556;
// end cache tags

//---------------dance-single - 16-12/3/100----------------
#NOTES:
     dance-single:
     16-12/3/100:
     Challenge:
     15:
     1.000,1.000,0.089,0.061,1.000,2498.000,25.000,17.000,0.000,0.000:
0000
0000
0000
0000
,
0000
0000
0000
0000
,
1000
0000
0001
0000
0010
0000
0001
0000
0100
0000
0001
0000
1000
0100
0010
0000
,
0100
0000
1000
0000
0010
0000
0100
0000
0001
0000
1000
0000
0001
0010
0100
0000
,
1000
0000
0001
0000
0100
0000
0001
0000
0010
0000
0001
0000
1000
0010
0100
0000
,
0010
0000
1000
0000
0100
0000
0010
0000
0001
0000
0100
0000
0001
1000
0010
1000
,
0001
0000
0010
0000
0001
0000
1000
0000
0010
0000
0100
0000
0010
0000
1000
0001
,
0010
0000
0100
0000
0010
0000
0001
0000
1000
0000
0010
0000
0100
0000
0010
1000
,
0001
0000
0100
0000
0001
0000
1000
0000
0100
0000
0010
0000
0100
0000
1000
0001
,
0100
0000
0010
0000
0100
0000
0001
0000
1000
0000
0100
0000
0010
0100
1000
0001
,
1000
0100
0010
0001
0100
0000
0010
1000
0000
0001
0100
0000
0001
0000
0010
0000
,
0100
1000
0010
1000
0001
0000
0100
0001
0000
1000
0001
0000
0010
0000
0100
0000
,
1000
0001
0100
0001
1000
0000
0010
0100
0000
0010
1000
0000
0001
0000
0010
0000
,
0100
1000
0010
1000
0001
0000
0100
0000
0010
1000
0000
0001
0000
0000
1000
0000
,
1001
0001
0010
0001
0010
0001
0010
0001
,
1001
0000
0000
1000
0000
0000
0010
0000
0000
1000
0000
0000
0010
0000
0000
1000
0000
0000
0010
0000
0000
1000
0001
1000
,
0010
0100
0001
1000
0010
0100
0001
1000
0100
0010
0001
1000
0100
0010
0001
1000
,
0010
0000
0100
0000
0010
0000
0100
0000
0000
0001
0000
0000
0010
0000
0100
0000
0010
0000
0100
0000
0000
1000
0000
0000
0001
0000
0000
0100
0000
0000
0001
0000
0000
1000
0000
0000
0001
0000
0000
0000
0000
0000
0000
0000
0000
0000
0000
0000
,
1000
0100
0010
0001
1000
0001
0100
0001
0010
0100
1000
0001
1000
0010
0100
0010
,
0100
0001
0010
0100
1000
0001
0100
0010
0100
0001
1000
0100
1000
0001
0100
0010
,
1000
0100
0010
0001
1000
0001
0010
0001
0100
0010
1000
0001
1000
0100
0010
0100
,
0010
0001
0100
0010
1000
0001
0010
0100
0010
0001
0100
0010
0100
0001
1000
0100
,
0010
0001
0100
0010
1000
0001
1000
0100
1000
0010
0100
0001
1000
0001
0010
0100
,
0010
0100
1000
0010
0100
0001
1000
0100
0010
0100
1000
0001
0100
0001
1000
0100
,
0010
0001
0100
0010
1000
0001
1000
0010
1000
0100
0010
0001
1000
0001
0100
0010
,
0100
0010
1000
0100
0010
0001
0100
0010
1000
0001
1000
0001
0010
0100
1000
0100
,
1000
0001
0010
0100
1000
0001
1000
0010
1000
0100
0010
0001
1000
0001
0100
0010
,
0100
0010
1000
0100
0010
0001
1000
0010
0100
0010
1000
0001
0010
0001
1000
0010
,
0100
0001
0010
0100
1000
0001
1000
0100
1000
0010
0100
0001
1000
0001
0010
0100
,
0010
0100
1000
0010
0100
0001
1000
0100
0010
0100
1000
0010
0100
0010
1000
0001
,
0010
0100
1000
0010
0100
0001
1000
0001
0010
0001
0100
0010
1000
0001
1000
0100
,
0010
0100
0010
0001
0100
0010
1000
0001
0010
0100
0010
0001
1000
0010
1000
0001
,
0100
0010
1000
0001
0010
0001
1000
0001
0010
0100
1000
0001
1000
0010
1000
0001
,
0010
0100
1000
0010
1000
0001
0100
0001
0010
0100
1000
0001
0100
0000
0000
0000
,
0001
0010
0100
1000
0001
1000
0010
1000
0100
0010
0001
1000
0001
0100
0010
0100
,
0010
1000
0100
0010
0001
1000
0010
0100
0010
1000
0001
0010
0001
1000
0010
0100
,
0001
0010
0100
1000
0001
1000
0100
1000
0010
0100
0001
1000
0001
0010
0100
0010
,
0100
1000
0010
0100
0001
1000
0100
0010
0100
1000
0010
0100
0010
1000
0001
0010
,
0100
1000
0010
0100
0001
1000
0001
0010
0001
0100
0010
1000
0001
1000
0100
0010
,
0100
0010
0001
0100
0010
1000
0001
0010
0100
0010
0001
1000
0010
1000
0001
0010
,
0100
1000
0010
0100
0001
1000
0001
0100
0001
0010
0100
1000
0001
1000
0010
0100
,
0010
0100
0001
0010
0100
1000
0010
0100
0001
1000
0001
1000
0100
0010
0001
0010
,
0001
1000
0100
0010
0001
1000
0001
0100
0001
0010
0100
1000
0001
1000
0010
0100
,
0010
0100
0001
0010
0100
1000
0001
0100
0010
0100
0001
1000
0100
1000
0001
0100
,
0010
1000
0100
0010
0001
1000
0001
0010
0001
0100
0010
1000
0001
1000
0100
0010
,
0100
0010
0001
0100
0010
1000
0001
0010
0100
0010
0001
0100
0010
0100
0001
1000
,
0100
0000
0000
0010
0000
0000
0100
0000
0000
1000
0000
0000
0001
0000
0000
0100
0000
0000
0010
0000
0000
1000
0010
1000
,
0001
0000
0100
0000
0001
0000
0010
0000
0100
0000
1000
0000
0001
0000
0100
0010
,
1000
0000
0000
0100
0000
0000
1000
0000
0000
0001
0000
0000
0010
0000
0000
0100
0000
0000
1000
0000
0000
0001
0000
0000
0010
0000
0000
0001
0000
0000
0100
0000
0000
0010
0000
0000
1000
0000
0000
0100
0000
0000
1000
0000
0001
0000
1000
0000
,
0010
0000
0100
0000
0001
0000
1000
0100
1000
0001
0100
0010
4000
0000
0000
0000
,
3002
0000
0000
0000
,
0203
0000
0320
0000
,
2030
0000
0000
0000
,
3002
0000
0023
0000
,
0230
0000
0000
0000
,
2300
0000
3020
0000
,
0230
0000
0000
0000
,
0302
0000
2003
0000
,
3010
0100
0000
0000
0001
0000
0000
1000
0000
0000
0100
0000
0000
0010
0000
0000
,
0001
1000
0000
0000
0010
0000
0000
0100
0000
0000
0010
0000
0000
1000
0000
0000
,
0001
0010
0000
0000
0100
0000
0000
0010
0000
0000
0001
0000
0000
1000
0000
0000
,
0010
1000
0000
0000
0001
0000
0000
1000
0000
0000
0100
0000
0000
0010
0000
0000
,
0100
1000
0000
0000
0001
0000
0000
0100
0000
0000
0001
0000
0000
0010
0000
0000
,
0100
0010
0000
0000
0001
0000
0000
1000
0000
0000
0010
0000
0000
0100
0000
0000
,
0002
0000
0000
0000
,
1003
0000
0100
0000
0010
0000
0000
0100
1000
0001
0100
0000
0040
0000
0000
0000
,
1030
0001
0100
0001
1000
0001
0010
0001
,
1000
0010
1000
0001
1000
0100
0010
0100
,
1000
0010
0100
0001
0100
0010
1000
0001
,
0010
0100
0010
0001
0010
0100
1000
0001
,
0100
0010
0100
0010
1000
0001
1000
0100
0010
0100
1000
0001
1000
0010
0100
0001
,
0100
0010
1000
0001
0010
0100
1000
0001
1000
0001
0010
0100
0010
0001
1000
0010
,
0100
0010
1000
0100
1000
0001
0010
0001
0100
0010
0100
0001
1000
0001
0010
0100
,
1000
0000
0000
0000
0000
0000
0001
0000
0000
0000
0000
0000
0100
0000
0000
0000
0000
0000
0000
0000
0000
0010
0000
0000
1000
0000
0000
0010
0000
0000
0100
0000
0000
0000
0000
0000
0040
0000
0000
0000
0000
0000
1030
0000
0001
0000
1000
0000
,
0100
0000
0000
0010
0000
0000
0000
0000
0000
0000
0000
0000
0011
0000
0000
0000
0000
0000
0000
0000
0000
1001
0000
0000
0000
0000
0000
0000
0000
0000
0101
0000
0000
0000
0000
0000
0000
0000
0000
0000
0000
0000
0100
0000
0001
0000
0100
0000
,
0010
1000
0000
0000
1010
0000
0000
1001
0000
0000
0011
0000
0000
0000
0010
0100
,
1000
0000
0000
0001
0000
0000
0000
0000
0000
0000
0000
0000
1001
0000
0000
0000
0000
0000
0000
0000
0000
0110
0000
0000
0000
0000
0000
0000
0000
0000
1001
0000
0000
0000
0000
0000
0000
0000
0000
0000
0000
0000
1000
0000
0010
0000
1000
0000
,
0001
0010
0000
0000
0110
0000
0000
1100
0000
0000
1001
0000
0000
0000
1000
0010
,
0100
0000
0000
0001
0000
0000
0000
0000
0000
0000
0000
0000
0101
0000
0000
0000
0000
0000
0000
0000
0000
1001
0000
0000
0000
0000
0000
0000
0000
0000
1100
0000
0000
0000
0000
0000
0000
0000
0000
0000
0000
0000
0100
0000
0010
0000
0100
0000
,
1000
0001
0000
0000
1001
0000
0000
1100
0000
0000
0011
0000
0000
0000
0010
0001
,
0100
0010
1000
0001
0100
0010
1000
0001
0010
0100
1000
0001
0010
0100
1000
0001
,
0100
0010
1000
0001
0020
0230
2300
3004
,
0103
0010
1000
0100
0010
0001
1000
0001
0100
0001
0010
0100
0010
0001
1000
0010
,
1000
0100
1000
0001
0100
0010
0100
0001
1000
0001
0010
0100
1000
0001
1000
0010
,
0100
0001
0010
0100
0010
0001
1000
0001
0100
0010
0100
0001
1000
0001
0010
0100
,
1000
0010
1000
0001
0100
0001
1000
0100
0010
0001
1000
0010
0100
0001
0010
0001
,
1000
0010
0100
0001
1000
0001
0100
0010
1000
0100
0010
0100
0010
0001
1000
0001
,
0100
0010
1000
0001
0010
0100
1000
0001
0010
0100
0010
0001
1000
0010
0100
0010
,
1000
0100
1000
0001
0010
0001
1000
0100
1000
0001
1000
0010
0100
0001
1000
0001
,
0010
0001
0100
0010
1000
0001
1000
0100
0010
0001
0010
0001
1000
0001
1000
0010
,
0100
0001
1000
0100
0010
0001
1000
0001
0010
0001
0100
0010
0100
0001
1000
0100
,
1000
0010
1000
0001
0010
0100
0010
0001
1000
0001
0100
0010
1000
0001
1000
0100
,
0010
0001
0100
0010
0100
0001
1000
0001
0010
0100
0010
0001
1000
0001
0100
0010
,
1000
0100
1000
0001
0010
0001
1000
0010
0100
0001
1000
0100
0010
0001
0100
0001
,
1000
0100
0010
0001
1000
0001
0010
0100
1000
0010
0100
0010
0100
0001
1000
0001
,
0010
0100
1000
0001
0100
0010
1000
0001
0100
0010
0100
0001
1000
0100
0010
0100
,
1000
0010
1000
0001
0100
0001
1000
0010
1000
0001
1000
0100
0010
0001
1000
0001
,
0100
0001
0010
0100
1000
0001
1000
0010
0100
0001
0100
0001
1000
0001
1000
0100
,
0010
0001
0100
0001
0010
0100
1000
0001
1000
0010
1000
0100
0010
0100
1000
0001
,
0100
0001
0010
0001
1000
0010
0100
0010
1000
0001
1000
0100
0010
0001
1000
0001
,
0100
0010
1000
0100
0010
0100
1000
0001
1000
0010
0100
0010
1000
0001
1000
0100
,
0010
0001
0100
0001
1000
0010
1000
0001
0010
0100
1000
0001
0100
0010
1000
0100
,
1000
0001
0100
0010
1000
0001
1000
0010
0100
0001
0010
0100
0010
0100
1000
0001
,
1000
0010
0100
0001
1000
0100
0010
0001
1000
0100
0010
0100
1000
0001
0100
0010
,
0100
0001
0010
0001
1000
0100
1000
0001
0010
0001
1000
0001
0100
0010
1000
0001
,
1000
0100
1000
0010
0100
0001
1000
0001
0010
0100
1000
0100
1000
0001
1000
0001
,
0100
0010
1000
0001
0010
0100
1000
0001
1000
0100
1000
0010
0100
0010
1000
0001
,
0010
0001
0100
0001
1000
0100
0010
0100
1000
0001
1000
0010
0100
0001
1000
0001
,
0010
0100
1000
0010
0100
0010
1000
0001
1000
0100
0010
0100
1000
0001
1000
0010
,
0100
0001
0010
0001
1000
0100
1000
0001
0100
0010
1000
0001
0010
0100
1000
0010
,
1000
0001
0010
0100
1000
0001
1000
0100
0010
0001
0100
0010
0100
0010
1000
0001
,
1000
0100
0010
0001
1000
0010
0100
0001
1000
0010
0100
0010
1000
0001
0010
0100
,
0010
0001
0100
0001
1000
0010
1000
0001
0100
0001
1000
0001
0010
0100
1000
0001
,
1000
0010
1000
0100
0010
0001
1000
0001
0100
0010
1000
0010
1000
0001
1000
0001
,
0010
0100
1000
0001
1000
0010
0100
0010
1000
0001
1000
0100
1000
0001
0010
0001
,
0100
0010
0100
0001
1000
0001
0010
0001
1000
0010
1000
0001
0100
0001
0010
0001
,
1000
0100
0010
0100
1000
0001
0010
0001
1000
0001
0100
0010
0100
0001
1000
0001
,
0010
0100
1000
0010
1000
0001
0100
0001
1000
0001
0010
0100
1000
0001
0100
0001
,
0100
0010
1000
0001
1000
0100
0010
0100
1000
0001
1000
0010
1000
0001
0100
0001
,
0010
0100
0010
0001
1000
0001
0100
0001
1000
0100
1000
0001
0010
0001
0100
0001
,
1000
0010
0100
0010
1000
0001
0100
0001
1000
0001
0010
0100
0010
0001
1000
0001
,
0100
0010
1000
0100
1000
0001
0010
0001
1000
0001
0100
0010
1000
0001
0010
0100
,
1000
0010
0100
0001
1000
0001
0010
0100
0010
0001
1000
0001
0100
0001
1000
0010
,
1000
0100
0010
0100
1000
0001
1000
0010
1000
0001
0010
0001
1000
0100
1000
0010
,
1000
0001
0100
0010
0100
0001
1000
0010
1000
0001
1000
0100
0010
0100
1000
0001
,
1000
0010
0100
0001
0010
0001
1000
0100
1000
0001
1000
0010
0100
0001
1000
0100
,
1000
0100
0010
0001
1000
0001
0100
0010
0100
0001
1000
0001
0010
0001
1000
0100
,
1000
0010
0100
0010
1000
0001
1000
0100
1000
0001
0100
0001
1000
0010
1000
0100
,
1000
0001
0010
0100
0010
0001
1000
0100
1000
0001
1000
0010
0100
0010
1000
0001
,
1000
0100
0010
0001
0100
0001
1000
0010
1000
0001
1000
0100
0010
0001
1000
0010
,
0100
0001
0010
0001
1000
0001
0100
0010
0100
0001
1000
0001
0010
0001
1000
0100
,
1000
0010
0100
0010
1000
0001
1000
0100
1000
0001
0100
0001
1000
0010
1000
0100
,
1000
0001
0010
0100
0010
0001
1000
0100
1000
0001
1000
0010
0100
0010
1000
0001
,
1000
0100
0010
0001
0100
0001
1000
0010
1000
0001
1000
0100
0010
0001
1000
0010
,
1000
0010
0100
0001
1000
0001
0010
0100
0010
0001
1000
0001
0100
0001
1000
0010
,
1000
0100
0010
0100
1000
0001
1000
0010
1000
0001
0010
0001
1000
0100
1000
0010
,
1000
0001
0100
0010
0100
0001
1000
0010
1000
0001
1000
0100
0010
0100
1000
0001
,
1000
0010
0100
0001
0010
0001
1000
0100
1000
0001
1000
0010
0100
0001
1000
0100
,
0010
0001
0100
0010
1000
0001
1000
0100
0010
0100
1000
0001
1000
0010
1000
0001
,
0100
0001
0010
0100
0010
0001
1000
0001
0100
0001
1000
0100
1000
0001
0010
0001
,
0100
0001
1000
0010
0100
0010
1000
0001
0100
0001
1000
0001
0010
0100
0010
0001
,
1000
0001
0100
0010
1000
0100
1000
0001
0010
0001
1000
0001
0100
0010
1000
0001
,
0010
0001
0010
0100
1000
0001
1000
0010
0100
0010
1000
0001
1000
0100
1000
0001
,
0010
0001
0100
0010
0100
0001
1000
0001
0010
0001
1000
0010
1000
0001
0100
0001
,
0010
0001
1000
0100
0010
0100
1000
0001
0010
0001
1000
0001
0100
0010
0100
0001
,
1000
0001
0010
0100
1000
0010
1000
0001
0100
0001
1000
0001
0010
0100
1000
0001
,
0100
0001
1000
0100
1000
0001
0010
0100
1000
0001
1000
0010
0100
0010
1000
0001
,
1000
0100
0010
0100
1000
0001
1000
0001
0100
0010
1000
0010
0100
0001
1000
0100
,
1000
0001
0010
0001
1000
0001
0100
0010
0100
0001
1000
0001
0010
0100
0010
0100
,
1000
0001
0100
0010
1000
0001
0010
0001
1000
0100
0010
0100
1000
0001
1000
0010
,
0100
0001
1000
0001
0010
0100
1000
0001
1000
0010
1000
0001
0100
0010
0100
0001
,
1000
0010
1000
0001
0010
0100
0010
0001
1000
0010
1000
0001
0010
0100
1000
0001
,
1000
0010
0100
0001
1000
0001
0010
0100
0010
0001
1000
0001
0100
0010
0100
0010
,
1000
0001
0010
0100
1000
0001
0100
0001
1000
0010
0100
0010
1000
0001
1000
0100
,
0010
0001
1000
0010
1000
0001
0100
0010
1000
0001
1000
0100
0010
0100
1000
0001
,
1000
0010
0100
0010
1000
0001
1000
0001
0010
0100
1000
0100
0010
0001
1000
0010
,
1000
0001
0100
0001
1000
0001
0010
0100
0010
0001
1000
0001
0100
0010
0100
0010
,
1000
0001
0010
0100
1000
0001
0100
0001
0010
0100
1000
0010
1000
0001
0100
0010
,
1000
0100
0010
0001
1000
0001
0100
0001
0010
0100
1000
0001
1000
0010
0100
0010
,
0100
0001
0010
0100
1000
0001
0100
0010
0100
0001
1000
0100
1000
0001
0100
0010
,
1000
0100
0010
0001
1000
0001
0100
0001
0100
0010
1000
0001
1000
0100
0010
0100
,
0010
0001
0100
0010
1000
0001
0010
0100
0010
0001
0100
0010
0100
0001
1000
0100
,
1000
0010
0100
0001
1000
0001
0010
0001
0100
0010
1000
0001
1000
0100
0010
0100
,
0010
0001
0100
0010
1000
0001
0010
0100
0010
0001
1000
0010
1000
0001
0010
0100
,
1000
0010
0100
0001
1000
0001
0100
0001
0010
0100
1000
0001
1000
0010
0100
0010
,
0100
0001
0010
0100
1000
0001
0100
0010
0100
0001
0010
0100
0010
0001
1000
0010
,
0100
0001
0010
0100
1000
0001
1000
0010
1000
0100
0010
0001
1000
0001
0100
0010
,
0100
0010
1000
0100
0010
0001
1000
0010
0100
0010
1000
0001
0010
0001
1000
0010
,
0100
0001
0010
0100
1000
0001
1000
0100
1000
0010
0100
0001
1000
0001
0010
0100
,
0010
0100
1000
0010
0100
0001
0010
0100
1000
0001
1000
0001
0100
0010
1000
0010
,
1000
0001
0100
0010
1000
0001
1000
0100
1000
0010
0100
0001
1000
0001
0010
0100
,
0010
0100
1000
0010
0100
0001
1000
0100
0010
0100
1000
0001
0100
0001
1000
0100
,
0010
0001
0100
0010
1000
0001
1000
0010
1000
0100
0010
0001
1000
0001
0100
0010
,
0100
0010
1000
0100
0010
0001
1000
0010
0100
0010
1000
0100
0010
0100
1000
0001
,
0100
0010
1000
0100
0010
0001
1000
0001
0100
0001
0010
0100
1000
0001
1000
0010
,
0100
0010
0100
0001
0010
0100
1000
0001
0100
0010
0100
0001
1000
0100
1000
0001
,
0010
0100
1000
0001
0100
0001
1000
0001
0100
0010
1000
0001
1000
0100
1000
0001
,
0100
0010
1000
0100
1000
0001
0010
0001
0100
0010
1000
0001
0010
0001
1000
0001
,
1000
0001
0010
0100
1000
0001
0100
0010
1000
0001
1000
0100
0010
0100
1000
0001
,
1000
0010
0100
0010
1000
0001
1000
0001
0010
0100
1000
0100
0010
0001
1000
0010
,
1000
0001
0100
0001
1000
0001
0010
0100
0010
0001
1000
0001
0100
0010
0100
0010
,
1000
0001
0010
0100
1000
0001
0100
0001
1000
0010
0100
0010
1000
0001
1000
0100
,
0010
0001
0000
1000
0000
0010
0000
0100
,
0000
0001
0000
0010
0000
0001
0000
1000
,
0100
0010
0001
0100
0010
1000
0100
0010
,
0100
1000
0001
0000
0100
0000
0010
0100
0001
1000
0001
0010
0400
0000
0000
0000
,
2300
0000
0000
0000
,
3000
0000
0000
0000
;
