#TITLE:Xepher;
#SUBTITLE:;
#ARTIST:Tatsh;
#TITLETRANSLIT:;
#SUBTITLETRANSLIT:;
#ARTISTTRANSLIT:;
#CREDIT:;
#BANNER:xepher-bn.png;
#BACKGROUND:xepher-bg.png;
#LYRICSPATH:;
#CDTITLE:!b00mbaTitle.png;
#MUSIC:Tatsh - Xepher.mp3;
#OFFSET:0.160;
#SAMPLESTART:92.930;
#SAMPLELENGTH:12.000;
#SELECTABLE:YES;
#BPMS:0.000=170.000;
#STOPS:;
#BGCHANGES:;
// cache tags:
#FIRSTBEAT:2.000;
#LASTBEAT:336.000;
#SONGFILENAME:Songs/Community Keyboard Megapack - Volume 3/(b00mbat0wer) Xepher/Xepher.sm;
#HASMUSIC:1;
#HASBANNER:1;
#MUSICLENGTH:121.808;
// end cache tags

//---------------dance-single - ----------------
#NOTES:
     dance-single:
     :
     Challenge:
     12:
     1.000,1.000,0.919,0.123,1.000,986.000,112.000,15.000,0.000,1.000:  // measure 1
0000
0000
0000
0000
0000
0000
0000
0000
0020
0000
0000
0000
0000
0000
0000
0030
,  // measure 2
0001
0010
0100
1000
0010
0100
0001
1000
0100
0010
0001
1000
,  // measure 3
0001
0100
0010
1000
0001
0100
0001
0010
0100
1000
0010
0100
,  // measure 4
0001
1000
0100
1000
0001
1000
0100
0010
0100
1000
0100
0010
,  // measure 5
0001
0100
0001
0010
0001
0100
0010
1000
0001
0100
0010
1000
,  // measure 6
0001
0010
0100
1000
0010
0100
0001
1000
0100
0010
0001
1000
,  // measure 7
0010
0100
0001
0100
0010
1000
0001
0010
0001
1000
0001
1000
,  // measure 8
0100
1000
0010
1000
0010
0100
0010
1000
0001
0100
0001
1000
,  // measure 9
0100
0010
0001
1000
0001
0100
0010
0100
0001
0100
0010
1000
,  // measure 10
1001
0100
1000
0010
0100
0001
1000
0100
0010
0001
1000
0010
,  // measure 11
0100
0001
1000
0010
0100
1000
0010
0100
0001
1000
0010
1000
,  // measure 12
0100
0010
0001
1000
0001
0100
0010
1000
0001
1000
0100
0010
,  // measure 13
1000
0100
0010
0001
0100
0010
0001
0010
0001
0100
0001
0100
,  // measure 14
0010
0100
0001
0100
0010
1000
0010
0100
0001
0100
0001
1000
,  // measure 15
0001
0010
0001
1000
0100
1000
0001
0010
0100
1000
0010
0100
,  // measure 16
0001
0100
0010
1000
0001
1000
0010
1000
0001
1000
0100
0010
,  // measure 17
0001
1000
0001
0100
0010
1000
0001
0010
0100
1000
0001
0100
,  // measure 18
1000
0010
0100
0010
0001
1000
0001
0010
0001
0100
0010
1000
,  // measure 19
0200
0000
0000
0000
,  // measure 20
0000
0000
0000
0300
0000
0000
0000
0000
,  // measure 21
0001
0010
0100
0001
0010
0100
0001
0010
0100
0001
0010
0100
1001
0000
0000
0000
,  // measure 22
0100
0010
0001
0100
0010
0001
0100
0010
0001
0100
0010
0001
1100
0000
1100
0000
,  // measure 23
0010
0100
1000
0010
0100
1000
0010
0100
1000
0010
0100
1000
0011
0011
0011
0000
,  // measure 24
1000
0100
0010
0001
1000
0100
0010
0001
0010
0100
1000
0100
0010
0001
0100
0010
,  // measure 25
1000
0100
0010
1000
0100
0010
1000
0100
0010
1000
0100
0010
1001
0000
0000
0000
,  // measure 26
0010
0100
1000
0010
0100
1000
0010
0100
1000
0010
0100
1000
0011
0000
0011
0000
,  // measure 27
0001
0010
0100
0001
0010
0100
0001
0010
0100
0001
0010
0100
1001
0000
0000
0000
,  // measure 28
0010
0000
1001
0000
0010
0000
1001
0000
0010
1000
0010
0100
0010
1000
0010
0100
,  // measure 29
0011
0000
1000
0000
0011
0000
1000
0000
0011
0000
0001
0010
0000
0010
0100
0000
,  // measure 30
1100
0000
0001
0000
1100
0000
0001
0000
0110
0000
0010
0100
1000
0000
0100
0000
,  // measure 31
1001
0000
0100
0000
1001
0000
0100
0000
1001
0000
1000
0010
0000
0010
0001
0000
,  // measure 32
1100
0000
0001
0000
1100
0000
0001
0000
1000
0100
0010
0001
0000
0100
0010
0000
,  // measure 33
0101
0000
0010
0000
0101
0000
0010
0000
0101
0000
0100
1000
0000
1000
0001
0000
,  // measure 34
0110
0000
0001
0000
0110
0000
0001
0000
1000
0000
0010
0100
0000
0100
0010
0000
,  // measure 35
1001
0000
1100
0000
1001
0000
0100
0001
0000
0001
0010
0000
0101
0000
1100
0000
,  // measure 36
0110
1001
0011
1010
0101
0000
1001
0000
,  // measure 37
1100
1100
1100
0010
0101
0101
0101
0011
,  // measure 38
0011
0000
0011
0100
0011
1000
0011
0100
0011
1000
0011
0100
0011
1000
0011
0100
,  // measure 39
0012
0000
0000
0000
0000
0000
0000
0000
2003
0000
0000
0000
3020
0000
0000
0030
,  // measure 40
1001
0010
0100
0001
0010
0100
1000
0100
0010
0001
1000
0100
1000
0100
0010
0001
,  // measure 41
0100
0010
1000
0001
0100
0010
1000
0100
0010
0001
0010
0001
0010
0100
0010
0100
,  // measure 42
1000
0001
0010
0100
1001
0010
0100
0010
1000
0100
0010
0100
1001
0010
0100
0010
,  // measure 43
1000
0100
0010
0001
0010
0100
1000
0100
0010
0001
0100
0010
1000
0001
0100
0010
,  // measure 44
1000
0001
1000
0001
0100
0010
0100
0010
1000
0100
0010
0100
1000
0001
0010
0100
,  // measure 45
1000
0100
0010
0001
0100
0010
1000
0010
0100
0001
0010
0100
1000
0010
0100
0001
,  // measure 46
0100
0010
0100
0001
0010
0100
1000
0100
0010
0001
1000
0100
0010
0001
0010
0100
,  // measure 47
1000
0001
0010
0100
1000
0010
0100
0001
1000
0010
0100
0001
0010
0100
1000
0100
,  // measure 48
0010
0001
1000
0001
0010
0100
1000
0010
1000
0001
1000
0100
0010
0100
1000
0010
,  // measure 49
0100
0001
0100
0010
1001
0100
0010
0001
0010
0100
1000
0100
1001
0010
0100
1000
,  // measure 50
0110
1000
0100
0010
1000
0100
0010
1000
0100
0010
1000
0100
1001
0000
0000
0000
,  // measure 51
0001
0010
0100
0001
0010
0100
0001
0010
0100
0001
0010
0100
0011
0000
0011
0000
,  // measure 52
0100
0010
0001
0100
0010
0001
0100
0010
0001
0100
0010
0001
0110
0110
0110
0000
,  // measure 53
1000
0100
0010
0001
1000
0010
0100
0001
1000
0100
0010
0001
0010
0100
1000
0100
,  // measure 54
0010
0100
1000
0010
0100
1000
0010
0100
1000
0010
0100
1000
0101
0000
0000
0000
,  // measure 55
0100
0010
0001
0100
0010
0001
0100
0010
0001
0100
0010
0001
0110
0000
0110
0000
,  // measure 56
0001
0010
0100
0001
0010
0100
0001
0010
0100
0001
0010
0100
1001
0000
0000
0000
,  // measure 57
0010
0000
1001
0000
0010
0000
1001
0000
0010
1000
0010
0100
0010
1000
0010
0100
,  // measure 58
2001
3200
0320
0032
,  // measure 59
0003
0000
0010
0100
0010
0010
0100
0010
,  // measure 60
2000
3200
0320
0032
,  // measure 61
0103
0000
0100
0010
0010
1000
0100
0000
,  // measure 62
0101
0010
1001
0100
0011
1000
0110
0001
,  // measure 63
1010
0100
1001
0010
0011
1000
1001
0100
,  // measure 64
1010
0001
0110
1000
0101
0010
1001
0100
,  // measure 65
0101
0010
1010
0100
1001
1000
0101
0010
,  // measure 66
1001
0100
1000
0010
1000
0100
0010
0001
1000
0100
0010
0001
0010
0100
1000
0001
,  // measure 67
0110
1000
0001
0100
0010
1000
0100
0010
0001
0010
0100
1000
0010
0100
0001
0010
,  // measure 68
0100
1000
0001
1000
0100
0010
0100
1000
0001
0010
0100
1000
0100
0010
0001
0100
,  // measure 69
0010
1000
0001
0100
0010
1000
0001
0010
0100
1000
0001
0100
0010
1000
0100
0010
,  // measure 70
0001
1000
0100
0010
1001
0010
0001
0010
0100
1000
0100
0010
1001
0100
0010
1000
,  // measure 71
0001
0100
0010
1000
0100
0010
0001
1000
0100
0010
0001
0010
0100
1000
0010
0100
,  // measure 72
0001
0010
0100
1000
0100
0010
0100
1000
0100
1000
0100
0010
0001
0100
0010
1000
,  // measure 73
0010
0100
1000
0001
1000
0100
0010
0001
1000
0001
0010
0100
1000
0001
1000
0010
,  // measure 74
0100
0010
1000
0001
0100
0010
1000
0100
0010
0001
1000
0100
0010
0001
0010
0100
,  // measure 75
1000
0001
0010
0100
1001
0010
0100
0001
1000
0010
0100
0010
1001
0100
1000
0100
,  // measure 76
0010
0001
0100
0010
1001
0001
0010
0100
1000
0010
0100
0001
1001
0100
1000
0100
,  // measure 77
0020
0000
0000
0000
0000
0000
0000
0000
1032
0000
0000
0000
1000
0000
0000
0003
,  // measure 78
0100
0010
0001
0010
0100
0000
0001
1000
0000
0001
1000
0000
0110
0000
0110
0000
,  // measure 79
0001
1000
0100
0010
0001
0000
0010
0001
0000
0010
0001
0000
1100
0000
1100
0000
,  // measure 80
0001
0100
0010
0100
0001
0000
1000
0100
0000
1000
0100
0000
1001
0000
1001
0000
,  // measure 81
0001
0010
0100
1000
0100
0000
0010
0001
0000
0010
0001
0000
1100
0000
1100
0000
,  // measure 82
0010
0100
0010
0100
0010
0000
0100
0010
0000
0010
0100
0010
1001
0000
0011
0000
,  // measure 83
0000
0000
0000
0000
,  // measure 84
1001
0100
0010
0001
1000
0100
0010
0001
1000
0100
0010
0001
0010
0100
1000
0100
,  // measure 85
0011
0000
0000
0000
;
