#TITLE:Starlight;
#SUBTITLE:;
#ARTIST:Flux Pavilion;
#TITLETRANSLIT:;
#SUBTITLETRANSLIT:;
#ARTISTTRANSLIT:;
#CREDIT:;
#BANNER:../Wubstream - ban.png;
#BACKGROUND:../Wubstream - bg.png;
#LYRICSPATH:;
#CDTITLE:;
#MUSIC:Flux Pavilion - Starlight.ogg;
#OFFSET:-0.264;
#SAMPLESTART:93.776;
#SAMPLELENGTH:12.000;
#SELECTABLE:YES;
#BPMS:0.000=143.000;
#STOPS:;
#BGCHANGES:;
// cache tags:
#FIRSTBEAT:13.000;
#LASTBEAT:488.667;
#SONGFILENAME:Songs/Wubstream/Starlight - [Rynker]/starlight.sm;
#HASMUSIC:1;
#HASBANNER:1;
#MUSICLENGTH:209.647;
// end cache tags

//---------------dance-single - Rynker----------------
#NOTES:
     dance-single:
     Rynker:
     Challenge:
     15:
     0.998,1.000,0.043,0.477,1.000,1355.000,9.000,100.000,0.000,0.000:

0000
0000
0000
0000
,
0000
0000
0000
0000
,
0000
0000
0000
0000
,
0000
0000
0000
0001
0100
0010
0100
0001
1000
0100
0010
0001
,
0010
0100
1000
0001
0100
0010
1000
0010
0100
0001
1000
0100
,
0010
0001
0010
0100
1000
0001
0100
0010
0100
0001
0010
0100
,
0010
0001
0100
0010
1000
0001
0100
0001
1000
0100
0010
0100
,
1000
0001
0100
0010
0100
0001
1000
0100
0010
0001
0000
0000
,
0000
1000
0001
0100
,
0010
0100
0001
0010
,
0100
1000
0000
0001
,
0000
0100
0000
0010
,
0000
1000
0001
0010
,
0100
1000
0010
0100
,
0001
2000
3000
0100
,
0000
1000
0000
0001
,
0000
0000
0000
0000
0200
0300
0000
0000
0020
0030
0000
0000
2000
3000
0000
0000
,
0002
0003
0000
0000
0020
0030
0000
0000
0200
0300
0000
0000
2000
3000
0000
0000
,
0002
0003
0000
0000
0200
0300
0000
0000
0000
0000
0000
0000
0000
0000
0000
0000
,
0000
0000
0000
0001
0100
0010
1000
0100
0010
0001
1000
0001
,
0100
0010
0100
0001
1000
0100
0010
0001
0010
0100
1000
0001
,
0100
0010
0100
0001
0010
0100
1000
0100
0010
0100
1000
0010
,
0100
0001
0010
0100
1000
0010
0100
0001
0100
0010
1000
0100
,
0010
0001
0010
0100
1000
0010
0100
0001
1000
0001
0000
0000
,
0000
0000
2000
3000
0200
0300
0020
0030
,
0002
0003
2000
3000
0002
0003
0020
0030
,
0200
0000
0000
0300
0000
0000
1000
0001
1000
0010
0100
0010
1000
0001
0100
0010
0100
0001
1000
0001
0010
0100
1000
0100
,
0010
0001
1000
0010
0100
0010
1000
0100
0010
0001
1000
0100
0010
0001
1000
0010
1000
0001
0100
0010
0100
0001
1000
0001
,
0010
0100
0010
0001
1000
0100
2000
0000
0000
3000
0000
0000
0002
0000
0000
0003
0000
0000
0200
0000
0000
0300
0000
0000
,
0020
0030
2000
3000
0200
0300
0020
0030
,
0002
0000
0000
0003
0000
0000
1000
0010
0100
0001
0100
0010
1000
0001
0010
0100
1000
0100
0010
0001
1000
0010
0100
0001
,
0100
0010
1000
0001
0010
0001
0100
0010
1000
0001
0010
0100
1000
0100
0010
0001
1000
0001
0100
0010
0100
0001
1000
0010
,
0100
0001
0100
0010
1000
0001
2000
0000
0000
3000
0000
0000
0002
0000
0000
0003
0000
0000
0020
0000
0000
0030
0000
0000
,
0200
0300
2000
3000
0020
0030
0200
0300
,
0002
0000
0000
0003
0000
0000
1000
0010
0100
0001
1000
0100
0010
0001
0010
0100
1000
0001
0100
0010
0100
0001
1000
0010
,
0100
0001
1000
0100
0010
0001
0100
0010
1000
0100
1000
0001
0010
0100
1000
0001
0100
0010
0100
0001
1000
0100
0010
0100
,
1000
0001
0100
0010
0100
0001
2000
0000
0000
3000
0000
0000
0200
0000
0000
0300
0000
0000
0020
0000
0000
0030
0000
0000
,
0002
0003
0020
0030
0200
0300
2000
3000
,
0002
0000
0000
0003
0000
0000
0100
0010
1000
0010
0100
0001
1000
0100
0010
0001
0010
0100
1000
0001
0010
0100
1000
0001
,
0100
0010
0100
0001
1000
0010
0100
0001
0010
0100
0010
0001
1000
0001
0100
0010
0100
0001
1000
0000
0000
0000
0000
0000
,
0000
0000
0000
0000
0000
0000
0001
0100
0010
0100
0001
1000
0100
0010
0001
0010
0100
1000
0001
0000
0000
0000
0000
0000
,
1000
0000
0000
0000
0001
0000
1000
0010
0100
0001
1000
0100
0010
0001
0010
0100
1000
0010
0100
0000
0000
0000
0000
0000
,
0001
0000
0000
0000
0010
0000
0100
0000
0000
0000
1000
0000
0001
0000
0000
0000
0000
0000
1000
0010
0100
0010
1000
0001
,
0010
0100
1000
0100
0010
0001
1000
0100
0010
0001
1000
0001
0100
0010
1000
0100
0010
0001
1000
0000
0000
0000
0000
0000
,
0001
0000
0000
0000
0100
0000
0010
1000
0010
0100
0001
0010
0100
1000
0100
0010
0001
1000
0010
0000
0000
0000
0000
0000
,
1000
0000
0000
0000
0001
0000
0010
0100
1000
0100
0010
0001
1000
0001
0100
0010
0100
0001
1000
0000
0000
0000
0000
0000
,
0001
0000
0000
0000
0100
0000
0010
0000
0000
0000
1000
0000
0001
0000
0000
0000
0000
0000
0010
0100
1000
0100
0010
0001
,
0100
0010
0100
0001
1000
0100
0010
0001
1000
0010
0100
0001
1000
0100
0010
0001
0010
0100
1000
0000
0000
0000
0000
0000
,
0001
0000
0000
0000
0010
0000
0100
1000
0100
0010
0001
1000
0010
0100
0001
0010
0100
1000
0001
0000
0000
0000
0000
0000
,
1000
0000
0000
0000
0001
0000
0100
0001
0010
0100
1000
0010
0100
0001
1000
0010
0100
0001
1000
0000
0000
0000
0000
0000
,
0001
0000
0000
0000
1000
0000
0100
0000
0000
0000
0010
0000
0001
0000
0000
0000
0000
0000
1000
0100
0010
0001
0100
0010
,
0100
0001
1000
0010
1000
0100
0010
0001
0100
0010
0100
0001
1000
0100
0010
0001
0010
0100
1000
0000
0000
0000
0000
0000
,
0001
0000
0000
0000
0100
0000
0001
1000
0100
0010
0001
0010
0100
1000
0001
0100
0010
0100
0001
0000
0000
0000
0000
0000
,
1000
0000
0000
0000
0010
0000
0100
0001
1000
0100
0010
0001
0010
0100
1000
0001
0100
0010
1000
0000
0000
0000
0000
0000
,
0001
0000
0010
0100
0000
1000
0002
0000
0000
0003
0000
0000
,
0000
0000
0000
1000
,
0000
0000
0002
0003
0200
0300
0020
0030
,
2000
3000
0200
0300
0020
0030
0002
0003
,
2000
0000
0000
3000
0000
0000
0001
0100
0010
0100
0001
1000
0010
0100
0001
1000
0100
0010
0001
0010
0100
1000
0001
0100
,
0010
0100
0001
1000
0100
0010
0001
0100
0010
1000
0100
0010
0100
1000
0001
0100
0010
0100
0001
1000
0100
0010
0001
0010
,
0100
0000
0000
0000
1000
0000
0002
0000
0000
0003
0000
0000
2000
0000
0000
3000
0000
0000
0200
0000
0000
0300
0000
0000
,
0020
0030
0002
0003
0200
0300
0020
0030
,
2000
0000
0000
3000
0001
0000
1000
0010
0100
0001
1000
0100
0010
0001
0010
0100
1000
0001
0100
0010
0100
0001
1000
0010
,
0100
0001
1000
0100
0010
0001
0100
0010
1000
0001
0100
0010
0100
0001
1000
0100
0010
0100
1000
0001
0100
0010
1000
0001
,
0010
0001
1000
0010
1000
0001
0200
0000
0000
0300
0000
0000
0002
0000
0000
0003
0000
0000
2000
0000
0000
3000
0000
0000
,
0200
0300
0020
0030
0002
0003
2000
3000
,
0200
0000
0000
0300
1000
0000
0001
1000
0001
0010
0100
1000
0001
1000
0010
0100
0010
1000
0001
0100
0010
1000
0001
0100
,
0010
1000
0001
0100
0001
0010
0100
1000
0010
0100
0010
1000
0100
0010
0001
0010
0100
1000
0001
1000
0010
0100
0010
1000
,
0001
0100
0010
1000
0001
0010
0200
0000
0000
0300
0000
0000
2000
0000
0000
3000
0000
0000
0020
0000
0000
0030
0000
0000
,
0200
0300
0002
0003
0020
0030
0200
0300
,
2000
0000
0000
3000
0001
0000
1000
0010
0100
0001
1000
0100
0010
0100
1000
0001
0010
0100
1000
0001
0100
0010
0100
0001
,
1000
0100
0010
0001
1000
0010
1000
0100
0010
0001
1000
0001
0010
0100
0010
0001
1000
0001
1000
0000
0000
0000
0000
0000
,
0000
0000
0000
0001
0000
0001
0000
0000
0000
1000
0000
1000
,
0000
0000
0000
0010
0000
0010
0000
0000
0000
0100
0000
0100
,
0001
0000
0001
1000
0000
1000
0000
0000
0000
0100
0000
0100
,
0000
0000
0000
1000
0000
1000
0000
0000
0000
0001
0000
0001
,
0100
0000
0100
0010
0000
0010
0000
0000
0000
1000
0000
1000
,
0000
0000
0000
0001
0000
0001
0000
0000
0000
0010
0000
0010
,
0100
0000
0100
1000
0000
1000
0000
0000
0000
0001
0000
0001
,
0000
0000
0000
0100
0000
0100
0000
0000
0000
0010
0000
0010
,
1000
0000
1000
0001
0000
0001
0000
0000
0000
1001
0000
1000
,
0000
0000
0000
1001
0000
0001
0000
0000
0000
0101
0000
0100
,
0010
0000
0010
1000
0000
1000
0000
0000
0000
1100
0000
1000
,
0000
0000
0000
0011
0000
0001
0000
0000
0000
1001
0000
1000
,
0010
0000
0100
0001
0000
0001
0000
0000
0000
1010
0000
0010
,
0000
0000
0000
1001
0000
1000
0000
0000
0000
1100
0000
0100
,
0010
0000
0001
1000
0001
0010
0100
1000
0010
0100
0001
1000
,
0100
0000
0010
0000
0001
0000
1000
0010
0100
0001
0010
0100
1000
0010
0100
0001
0010
0001
1000
0000
0000
0000
0000
0000
,
0000
0000
0000
0000
0000
0000
0001
0100
0010
1000
0010
0100
0001
1000
0100
0010
0001
0010
0100
0000
0000
0000
0000
0000
,
1000
0000
0000
0000
0001
0000
0100
0010
0100
0001
1000
0100
0010
0001
0010
0100
1000
0001
0100
0000
0000
0000
0000
0000
,
0001
0000
0000
0000
1000
0000
0100
0010
0001
0010
0100
1000
0001
0100
0010
0100
0001
1000
0010
0100
0001
0100
0001
1000
,
0100
0010
0001
0010
0100
1000
0001
1000
0100
0010
0001
0010
0100
1000
0001
1000
0001
0010
0100
0000
0000
0000
0000
0000
,
1000
0000
0000
0000
0001
0000
0100
0010
1000
0010
0100
0001
1000
0100
0010
0001
0010
0100
1000
0000
0000
0000
0000
0000
,
0001
0000
0000
0000
0100
0000
0010
1000
0010
0100
0001
1000
0100
0010
0001
0010
0100
1000
0001
0000
0000
0000
0000
0000
,
1000
0000
0000
0000
0001
0000
0100
0010
1000
0010
0100
0001
1000
0100
0010
0001
0010
0100
1000
0001
0100
0001
1000
0010
,
1000
0001
0010
0100
1000
0100
0010
0001
1000
0100
0010
0001
1000
0001
0100
0010
0100
0001
1000
0010
1000
0001
1000
0010
,
1000
0001
0010
0001
1000
0001
0010
0001
1000
0010
0100
0001
0010
0100
1000
0100
0010
0001
0100
0000
0000
0000
0000
0000
,
0001
0000
0000
0000
1000
0000
0010
0100
0001
1000
0100
0010
0001
0010
0100
1000
0010
0100
0001
0000
0000
0000
0000
0000
,
1000
0000
0000
0000
0001
0000
0100
0010
1000
0010
0100
0001
1000
0100
0010
0001
0010
0100
1000
0001
1000
0010
0100
0010
,
1000
0001
0010
0100
1000
0100
0010
0001
0100
0010
1000
0010
0100
0001
1000
0100
0010
0001
1000
0000
0000
0000
0000
0000
,
0001
0000
0000
0000
0100
0000
0010
1000
0010
0100
0001
1000
0100
0010
0001
0010
0100
1000
0001
0000
0000
0000
0000
0000
,
1000
0000
0000
0000
0001
0000
0100
0010
1000
0010
0100
0001
1000
0100
0010
0001
0010
0100
1000
0000
0000
0000
0000
0000
,
0001
0000
0100
0001
0000
1000
0100
0000
0000
2000
0000
0000
,
0000
0000
0000
3001
,
0000
1000
0100
0010
,
0001
0100
0010
1000
,
0100
0000
0000
0000
0000
0000
0010
0001
1000
0100
0010
0001
0010
0100
1000
0001
0100
0010
0100
0001
1000
0010
0100
0001
,
1000
0100
0010
0001
0010
0100
1000
0010
0100
0001
0100
0010
1000
0001
0010
0100
0010
0001
1000
0100
0010
0100
1000
0001
,
0100
0010
0100
0001
1000
0100
2000
0000
0000
3000
0000
0000
0002
0000
0000
0003
0000
0000
0200
0000
0000
0300
0000
0000
,
0020
0030
2000
3000
0002
0003
0020
0030
,
0200
0000
0000
0300
1000
0000
0001
0010
0100
1000
0100
0010
0001
1000
0010
1000
0001
0100
0010
1000
0001
0010
0001
1000
,
0010
0100
0001
1000
0100
1000
0010
0100
0001
0010
0001
1000
0100
0010
0001
1000
0010
0100
0010
1000
0001
0010
0100
1000
,
0001
0100
0010
1000
0001
1000
0002
0000
0000
0003
0000
0000
0020
0000
0000
0030
0000
0000
0200
0000
0000
0300
0000
0000
,
2000
3000
0002
0003
0200
0300
0020
0030
,
2000
0000
0000
3000
0001
0000
1000
0100
0010
0001
0010
0100
1000
0001
0100
0010
0100
0001
1000
0100
0010
0001
0010
0100
,
1000
0001
0100
0010
1000
0010
0100
0001
1000
0100
0010
0001
0010
0100
1000
0001
0100
0010
0100
0001
1000
0100
0010
0001
,
0010
0100
1000
0001
0100
0010
2000
0000
0000
3000
0000
0000
0002
0000
0000
0003
0000
0000
0020
0000
0000
0030
0000
0000
,
0200
0300
2000
3000
0002
0003
0200
0300
,
0020
0000
0000
0030
0000
0000
1000
0100
0010
0001
0010
0100
1000
0100
0010
0001
1000
0001
1000
0100
0010
0001
0010
0100
,
1000
0001
0100
0010
1000
0001
0010
0100
1000
0010
0100
0001
1000
0010
0100
0001
1000
0010
0100
0001
1000
0010
0100
0001
,
0010
0100
1000
0001
0100
0010
1000
0000
0000
0000
0000
0000
0000
0000
0000
0000
0000
0000
0000
0000
0000
0000
0000
0000
;

//---------------dance-single - Rynker----------------
#NOTES:
     dance-single:
     Rynker:
     Hard:
     11:
     0.780,0.932,0.043,0.477,1.000,1036.000,9.000,100.000,1.000,0.000:


0000
0000
0000
0000
,
0000
0000
0000
0000
,
0000
0000
0000
0000
,
0000
0000
0000
0001
0100
0010
0100
0001
1000
0100
0010
0001
,
0010
0100
1000
0001
0100
0010
1000
0010
0100
0001
1000
0100
,
0010
0001
0010
0100
1000
0001
0100
0010
0100
0001
0010
0100
,
0010
0001
0100
0010
1000
0100
0010
0001
1000
0100
0010
0100
,
1000
0001
0100
0010
0100
0001
1000
0100
0010
0001
0000
0000
,
0000
1000
0001
0100
,
0010
0100
0001
0010
,
0100
1000
0000
0001
,
0000
0100
0000
0010
,
0000
1000
0001
0010
,
0100
1000
0010
0100
,
0001
2000
3000
0100
,
0000
1000
0000
0001
,
0000
0000
0000
0000
0200
0300
0000
0000
0020
0030
0000
0000
2000
3000
0000
0000
,
0002
0003
0000
0000
0020
0030
0000
0000
0200
0300
0000
0000
2000
3000
0000
0000
,
0002
0003
0000
0000
0200
0300
0000
0000
0000
0000
0000
0000
0000
0000
0000
0000
,
0000
0000
0000
0001
0100
0010
1000
0100
0010
0001
1000
0001
,
0100
0010
0100
0001
1000
0100
0010
0001
0010
0100
1000
0001
,
0100
0010
0100
0001
0010
0100
1000
0100
0010
0100
1000
0010
,
0100
0001
0010
0100
1000
0010
0100
0001
0100
0010
1000
0100
,
0010
0001
0010
0100
1000
0010
0100
0001
1000
0001
0000
0000
,
0000
0000
2000
3000
0200
0300
0020
0030
,
0002
0003
2000
3000
0002
0003
0020
0030
,
0200
0000
0300
0000
1000
0001
0100
0010
0100
0001
0010
0100
1000
0100
0010
0001
,
1000
0001
0100
0010
0100
0001
1000
0010
0100
0001
0010
0100
1000
0100
0010
0001
,
1000
0001
0100
0010
2000
0000
3000
0000
0002
0000
0003
0000
0200
0000
0300
0000
,
0020
0030
2000
3000
0200
0300
0020
0030
,
0002
0000
0003
0000
1000
0001
0100
0010
0100
0001
1000
0100
1000
0001
0010
0100
,
1000
0010
0100
0001
0100
0010
1000
0001
0010
0100
1000
0001
0010
0100
1000
0001
,
0100
0010
1000
0001
2000
0000
3000
0000
0002
0000
0003
0000
0020
0000
0030
0000
,
0200
0300
2000
3000
0020
0030
0200
0300
,
0002
0000
0003
0000
1000
0001
0100
0010
0100
0001
0010
0100
1000
0010
0100
0010
,
1000
0100
0010
0001
1000
0001
0100
0010
0100
0001
1000
0100
1000
0001
0010
0100
,
0010
0001
1000
0001
2000
0000
3000
0000
0200
0000
0300
0000
0020
0000
0030
0000
,
0002
0003
0020
0030
0200
0300
2000
3000
,
0002
0000
0003
0000
1000
0010
0100
0010
1000
0001
0010
0100
1000
0001
0100
0010
,
0100
0001
1000
0100
1000
0001
0010
0100
0010
0001
1000
0001
1000
0000
0000
0000
,
0000
0000
0000
0000
0001
0100
0010
0100
0001
1000
0010
0100
0001
0000
0000
0000
,
1000
0000
0000
0000
0000
0000
0000
0000
0001
0000
0000
0000
1000
0000
0000
0010
0000
0000
0100
0000
0000
0001
0000
0000
0100
0000
0000
0010
0000
0000
1000
0000
0000
0001
0000
0000
1000
0000
0000
0000
0000
0000
0000
0000
0000
0000
0000
0000
,
0001
0000
0000
0000
0000
0000
0000
0000
0010
0000
0000
0000
0100
0000
0000
0000
0000
0000
0000
0000
1000
0000
0000
0000
0001
0000
0000
0000
0000
0000
0000
0000
0000
0000
0000
0000
1000
0000
0000
0010
0000
0000
0100
0000
0000
0010
0000
0000
,
1000
0001
0010
0100
0010
0001
1000
0100
1000
0001
0100
0010
1000
0000
0000
0000
,
0001
0000
0000
0000
0000
0000
0000
0000
0100
0000
0000
0000
0010
0000
0000
1000
0000
0000
0010
0000
0000
0100
0000
0000
0001
0000
0000
1000
0000
0000
0100
0000
0000
1000
0000
0000
0010
0000
0000
0000
0000
0000
0000
0000
0000
0000
0000
0000
,
1000
0000
0000
0000
0000
0000
0000
0000
0001
0000
0000
0000
1000
0000
0000
0001
0000
0000
0100
0000
0000
0010
0000
0000
0100
0000
0000
0001
0000
0000
1000
0000
0000
0100
0000
0000
1000
0000
0000
0000
0000
0000
0000
0000
0000
0000
0000
0000
,
0001
0000
0000
0000
0000
0000
0000
0000
0100
0000
0000
0000
0010
0000
0000
0000
0000
0000
0000
0000
1000
0000
0000
0000
0001
0000
0000
0000
0000
0000
0000
0000
0000
0000
0000
0000
0100
0000
0000
0010
0000
0000
0100
0000
0000
0001
0000
0000
,
1000
0100
1000
0001
0010
0100
0010
0001
0100
0010
1000
0001
1000
0000
0000
0000
,
0001
0000
0000
0000
0000
0000
0000
0000
0010
0000
0000
0000
0100
0000
0000
1000
0000
0000
0100
0000
0000
0010
0000
0000
0001
0000
0000
1000
0000
0000
0001
0000
0000
1000
0000
0000
0010
0000
0000
0000
0000
0000
0000
0000
0000
0000
0000
0000
,
1000
0000
0000
0000
0000
0000
0000
0000
0001
0000
0000
0000
0100
0000
0000
0010
0000
0000
0100
0000
0000
0001
0000
0000
1000
0000
0000
0100
0000
0000
0010
0000
0000
0001
0000
0000
1000
0000
0000
0000
0000
0000
0000
0000
0000
0000
0000
0000
,
0001
0000
0000
0000
0000
0000
0000
0000
1000
0000
0000
0000
0100
0000
0000
0000
0000
0000
0000
0000
0010
0000
0000
0000
0001
0000
0000
0000
0000
0000
0000
0000
0000
0000
0000
0000
1000
0000
0000
0100
0000
0000
0010
0000
0000
0001
0000
0000
,
0010
0100
1000
0010
0100
0001
0100
0010
1000
0001
0010
0100
1000
0000
0000
0000
,
0001
0000
0000
0000
0000
0000
0000
0000
0100
0000
0000
0000
0001
0000
0000
0100
0000
0000
0010
0000
0000
0100
0000
0000
0001
0000
0000
1000
0000
0000
0100
0000
0000
1000
0000
0000
0001
0000
0000
0000
0000
0000
0000
0000
0000
0000
0000
0000
,
1000
0000
0000
0000
0000
0000
0000
0000
0010
0000
0000
0000
0100
0000
0000
0001
0000
0000
1000
0000
0000
0001
0000
0000
0010
0000
0000
0100
0000
0000
1000
0000
0000
0001
0000
0000
1000
0000
0000
0000
0000
0000
0000
0000
0000
0000
0000
0000
,
0001
0000
0010
0100
0000
1000
0002
0000
0000
0003
0000
0000
,
0000
0000
0000
1000
,
0000
0000
0002
0003
0200
0300
0020
0030
,
2000
3000
0200
0300
0020
0030
0002
0003
,
2000
0000
3000
0000
0100
0010
0001
0010
0100
1000
0001
0100
0010
1000
0100
0010
,
0001
1000
0100
1000
0001
0100
0001
1000
0010
0100
0001
1000
0100
1000
0001
0010
,
0100
0000
0000
0000
1000
0000
0002
0000
0000
0003
0000
0000
2000
0000
0000
3000
0000
0000
0200
0000
0000
0300
0000
0000
,
0020
0030
0002
0003
0200
0300
0020
0030
,
2000
0000
0000
0000
0000
0000
3000
0000
0001
0000
0000
0000
0100
0000
0000
0010
0000
0000
0100
0000
0000
0001
0000
0000
1000
0000
0000
0100
0000
0000
1000
0000
0000
0001
0000
0000
0010
0000
0000
0100
0000
0000
1000
0000
0000
0010
0000
0000
,
0100
0001
0100
0010
1000
0100
1000
0001
0010
0100
1000
0001
0100
0010
0100
0001
,
1000
0100
1000
0001
0200
0000
0300
0000
0002
0000
0003
0000
2000
0000
3000
0000
,
0200
0300
0020
0030
0002
0003
2000
3000
,
0200
0000
0300
0000
0010
0001
0010
0100
1000
0001
0100
0010
0100
0001
1000
0100
,
1000
0001
0010
0100
1000
0001
0100
0010
1000
0010
0100
0001
1000
0100
1000
0001
,
0010
0100
1000
0001
0020
0000
0030
0000
0002
0000
0003
0000
0200
0000
0300
0000
,
0020
0030
2000
3000
0200
0300
0020
0030
,
0002
0000
0003
0000
1000
0100
1000
0001
0010
0100
0010
0001
1000
0001
0100
0010
,
0100
0001
1000
0010
0100
0001
1000
0100
1000
0001
0010
0100
1000
0000
0000
0000
,
0000
0000
0000
0001
0000
0001
0000
0000
0000
1000
0000
1000
,
0000
0000
0000
0010
0000
0010
0000
0000
0000
0100
0000
0100
,
0001
0000
0001
1000
0000
1000
0000
0000
0000
0100
0000
0100
,
0000
0000
0000
1000
0000
1000
0000
0000
0000
0001
0000
0001
,
0100
0000
0100
0010
0000
0010
0000
0000
0000
1000
0000
1000
,
0000
0000
0000
0001
0000
0001
0000
0000
0000
0010
0000
0010
,
0100
0000
0100
1000
0000
1000
0000
0000
0000
0001
0000
0001
,
0000
0000
0000
0100
0000
0100
0000
0000
0000
0010
0000
0010
,
1000
0000
1000
0001
0000
0001
0000
0000
0000
1001
0000
1000
,
0000
0000
0000
1001
0000
0001
0000
0000
0000
0101
0000
0100
,
0010
0000
0010
1000
0000
1000
0000
0000
0000
1100
0000
1000
,
0000
0000
0000
0011
0000
0001
0000
0000
0000
1001
0000
1000
,
0010
0000
0100
0001
0000
0001
0000
0000
0000
1010
0000
0010
,
0000
0000
0000
1001
0000
1000
0000
0000
0000
1100
0000
0100
,
0010
0000
0001
1000
0001
0010
0100
1000
0010
0100
0001
1000
,
0100
0000
0000
0000
0010
0000
0000
0000
0001
0000
0000
0000
0100
0000
0000
0001
0000
0000
0100
0000
0000
0010
0000
0000
1000
0000
0000
0001
0000
0000
0010
0000
0000
0100
0000
0000
1000
0000
0000
0000
0000
0000
0000
0000
0000
0000
0000
0000
,
0000
0000
0000
0000
0001
0100
0001
0100
0010
1000
0001
1000
0000
0000
0000
0000
,
1000
0000
0000
0000
0000
0000
0000
0000
0001
0000
0000
0000
0100
0000
0000
0010
0000
0000
0100
0000
0000
0001
0000
0000
1000
0000
0000
0100
0000
0000
1000
0000
0000
0001
0000
0000
0010
0000
0000
0000
0000
0000
0000
0000
0000
0000
0000
0000
,
0001
0000
0000
0000
0000
0000
0000
0000
1000
0000
0000
0000
0100
0000
0000
0010
0000
0000
0001
0000
0000
0010
0000
0000
0100
0000
0000
1000
0000
0000
0001
0000
0000
0100
0000
0000
0010
0000
0000
1000
0000
0000
0100
0000
0000
1000
0000
0000
,
0001
0010
0100
1000
0010
1000
0100
0010
0001
0100
0001
0010
0100
0000
0000
0000
,
1000
0000
0000
0000
0000
0000
0000
0000
0001
0000
0000
0000
0100
0000
0000
0010
0000
0000
0100
0000
0000
0001
0000
0000
1000
0000
0000
0100
0000
0000
1000
0000
0000
0001
0000
0000
1000
0000
0000
0000
0000
0000
0000
0000
0000
0000
0000
0000
,
0001
0000
0000
0000
0000
0000
0000
0000
0100
0000
0000
0000
0001
0000
0000
0100
0000
0000
0010
0000
0000
0100
0000
0000
0001
0000
0000
1000
0000
0000
0100
0000
0000
1000
0000
0000
0001
0000
0000
0000
0000
0000
0000
0000
0000
0000
0000
0000
,
1000
0000
0000
0000
0000
0000
0000
0000
0001
0000
0000
0000
0100
0000
0000
0010
0000
0000
0100
0000
0000
0001
0000
0000
1000
0000
0000
0100
0000
0000
1000
0000
0000
0001
0000
0000
0010
0000
0000
0100
0000
0000
0010
0000
0000
0001
0000
0000
,
1000
0001
0100
0010
0100
0001
1000
0100
1000
0001
0010
0100
0010
0001
1000
0001
,
0100
0010
0100
0001
1000
0100
1000
0001
0010
0100
1000
0001
0100
0000
0000
0000
,
0001
0000
0000
0000
0000
0000
0000
0000
1000
0000
0000
0000
0001
0000
0000
0100
0000
0000
0010
0000
0000
0100
0000
0000
0001
0000
0000
1000
0000
0000
0100
0000
0000
1000
0000
0000
0001
0000
0000
0000
0000
0000
0000
0000
0000
0000
0000
0000
,
1000
0000
0000
0000
0000
0000
0000
0000
0001
0000
0000
0000
0100
0000
0000
0010
0000
0000
0100
0000
0000
0001
0000
0000
1000
0000
0000
0100
0000
0000
1000
0000
0000
0001
0000
0000
0010
0000
0000
0100
0000
0000
0010
0000
0000
0001
0000
0000
,
1000
0001
0100
0010
0100
0001
0010
0100
1000
0010
0100
0001
1000
0000
0000
0000
,
0001
0000
0000
0000
0000
0000
0000
0000
0100
0000
0000
0000
0010
0000
0000
0100
0000
0000
0001
0000
0000
1000
0000
0000
0100
0000
0000
1000
0000
0000
0001
0000
0000
0010
0000
0000
0100
0000
0000
0000
0000
0000
0000
0000
0000
0000
0000
0000
,
1000
0000
0000
0000
0000
0000
0000
0000
0001
0000
0000
0000
0100
0000
0000
0010
0000
0000
0100
0000
0000
0001
0000
0000
0010
0000
0000
0100
0000
0000
1000
0000
0000
0001
0000
0000
1000
0000
0000
0000
0000
0000
0000
0000
0000
0000
0000
0000
,
0001
0000
0100
0001
0000
1000
0100
0000
0000
2000
0000
0000
,
0000
0000
0000
3001
,
0000
1000
0100
0010
,
0001
0100
0010
1000
,
0100
0000
0000
0000
1000
0001
0100
0010
0100
0001
1000
0100
0010
0001
0010
0100
,
1000
0001
1000
0001
0100
0010
0100
0001
1000
0100
1000
0001
0010
0100
1000
0001
,
1000
0001
0100
0010
2000
0000
3000
0000
0002
0000
0003
0000
0200
0000
0300
0000
,
0020
0030
2000
3000
0002
0003
0020
0030
,
0200
0000
0300
0000
1000
0001
0100
0001
1000
0010
1000
0001
0010
0100
1000
0100
,
1000
0001
0100
0010
0100
0001
0010
0100
1000
0001
0100
0001
0100
0010
1000
0010
,
0100
0001
1000
0100
2000
0000
3000
0000
0200
0000
0300
0000
0020
0000
0030
0000
,
0002
0003
2000
3000
0020
0030
0200
0300
,
0002
0000
0003
0000
1000
0100
0010
0001
0010
0100
1000
0001
0100
0001
1000
0010
,
0100
0001
1000
0100
0010
0001
0010
0100
1000
0010
0100
0001
0100
0010
1000
0100
,
0010
0001
1000
0001
2000
0000
3000
0000
0002
0000
0003
0000
0020
0000
0030
0000
,
0200
0300
2000
3000
0002
0003
0200
0300
,
0020
0000
0030
0000
0100
0001
1000
0100
0010
0001
0010
0100
1000
0001
0100
0010
,
1000
0100
0010
0001
0010
0100
1000
0010
0100
0001
0100
0010
1000
0100
0010
0001
,
1000
0001
0100
0010
1000
0000
0000
0000
0000
0000
0000
0000
0000
0000
0000
0000
,
0000
0000
0000
0000
,
0000
0000
M000
0000
0000
0000
0000
0000
0000
0000
0000
0000
;

//---------------dance-single - Rynker----------------
#NOTES:
     dance-single:
     Rynker:
     Medium:
     7:
     0.460,0.728,0.043,0.696,0.386,520.000,9.000,146.000,1.000,0.000:


0000
0000
0000
0000
,
0000
0000
0000
0000
,
0000
0000
0000
0000
,
0000
0000
0000
0001
0100
0010
0100
0001
1000
0100
0010
0001
,
0010
0100
1000
0001
0100
0010
1000
0010
0100
0001
1000
0100
,
0010
0001
0010
0100
1000
0001
0100
0010
0100
0001
0010
0100
,
0010
0001
0100
0010
1000
0100
0010
0001
1000
0100
0010
0100
,
1000
0001
0100
0010
0100
0001
1000
0100
0010
0001
0000
0000
,
0000
1000
0001
0100
,
0010
0100
0001
0010
,
0100
1000
0000
0001
,
0000
0100
0000
0010
,
0000
1000
0001
0010
,
0100
1000
0010
0100
,
0001
2000
3000
0100
,
0000
1000
0000
0001
,
0000
0000
0000
0000
0200
0300
0000
0000
0020
0030
0000
0000
2000
3000
0000
0000
,
0002
0003
0000
0000
0020
0030
0000
0000
0200
0300
0000
0000
2000
3000
0000
0000
,
0002
0003
0000
0000
0200
0300
0000
0000
0000
0000
0000
0000
0000
0000
0000
0000
,
0000
0000
0000
0001
0100
0010
1000
0100
0010
0001
1000
0001
,
0100
0010
0100
0001
1000
0100
0010
0001
0010
0100
1000
0001
,
0100
0010
0100
0001
0010
0100
1000
0100
0010
0100
1000
0010
,
0100
0001
0010
0100
1000
0010
0100
0001
0100
0010
1000
0100
,
0010
0001
0010
0100
1000
0010
0100
0001
1000
0001
0000
0000
,
0000
0000
2000
3000
0200
0300
0020
0030
,
0002
0003
2000
3000
0002
0003
0020
0030
,
0200
0300
2000
0000
0000
0000
0001
0000
,
0100
0000
3100
0020
0000
0000
0000
0000
0000
0100
0000
0000
,
0031
0000
2000
3000
0002
0003
0200
0300
,
0020
0030
2000
3000
0200
0300
0020
0030
,
0002
0003
2000
0000
0000
0000
0010
0000
,
0000
3002
0000
0000
,
1000
0000
2003
3000
0002
0003
0020
0030
,
0200
0300
2000
3000
0020
0030
0200
0300
,
0002
0003
2000
0000
0000
0000
0100
0000
,
0001
3000
0001
0200
0000
0000
0000
0000
0000
0001
0000
0300
,
0001
0000
2000
3000
0200
0300
0020
0030
,
0002
0003
0020
0030
0200
0300
2000
3000
,
0002
0003
2000
0000
0000
0000
0100
0000
,
3001
0000
0001
0200
0000
0000
0000
0000
0000
0310
0000
0000
,
0000
2000
0000
3001
,
0001
0000
1000
0020
0000
0000
0000
0000
0000
1030
0000
0000
,
0001
0000
0010
0100
0000
1000
0002
0000
0000
2003
0000
0000
,
0000
0000
3001
0100
0000
0001
0100
0000
0000
0001
0000
0000
,
1000
0000
0100
0020
0000
0000
0000
0000
0000
0031
0000
0000
,
1000
0000
0001
2000
0000
0000
0000
0000
0000
0001
0000
0000
,
3001
0000
0100
0010
0000
1000
0001
0000
0000
0200
0000
0000
,
0300
0000
0001
0100
0000
0000
0001
0000
0000
1000
0000
0000
,
0001
0000
0010
0200
0000
0000
0000
0000
0000
1300
0000
0000
,
1000
0000
0001
0200
0000
0000
0000
0000
0000
0301
0000
0000
,
0001
0000
1000
0100
0000
0010
0001
0000
0000
0002
0000
0000
,
0000
0000
1003
0100
0000
0000
1000
0000
0000
1000
0000
0000
,
0001
0000
0100
0002
0000
0000
0000
0000
0000
1003
0000
0000
,
1000
0000
0010
0200
0000
0000
0000
0000
0000
0301
0000
0000
,
0001
0000
0010
0100
0000
1000
0002
0000
0000
0003
0000
0000
,
0000
0000
0000
1000
,
0000
0000
0002
0003
0200
0300
0020
0030
,
2000
3000
0200
0300
0020
0030
0002
0003
,
2000
0000
0000
3000
0000
0000
0002
0000
0000
0000
0000
0000
0000
0000
0000
0000
0000
0000
0010
0000
0000
0000
0003
0000
,
1000
0000
1000
0200
0000
0000
0000
0000
0000
0010
0000
0000
,
0300
0000
0000
0000
1000
0000
0002
0000
0000
0003
0000
0000
2000
0000
0000
3000
0000
0000
0200
0000
0000
0300
0000
0000
,
0020
0030
0002
0003
0200
0300
0020
0030
,
2000
3000
0002
0000
0000
0000
0100
0000
,
0000
0000
0000
1003
,
0100
0000
0020
0030
0002
0003
2000
3000
,
0200
0300
0020
0030
0002
0003
2000
3000
,
0200
0300
2000
0000
0000
0000
0010
3000
,
0001
0000
0001
0200
0000
0000
0000
0000
0000
0001
0300
0000
,
0001
0000
0020
0030
0002
0003
0200
0300
,
0020
0030
2000
3000
0200
0300
0020
0030
,
0002
0003
2000
0000
0000
0000
0000
0000
,
0000
0000
3000
1000
,
0000
0000
0000
0001
0000
0001
0000
0000
0000
1000
0000
1000
,
0000
0000
0000
0010
0000
0010
0000
0000
0000
0100
0000
0100
,
0001
0000
0001
1000
0000
1000
0000
0000
0000
0100
0000
0100
,
0000
0000
0000
1000
0000
1000
0000
0000
0000
0001
0000
0001
,
0100
0000
0100
0010
0000
0010
0000
0000
0000
1000
0000
1000
,
0000
0000
0000
0001
0000
0001
0000
0000
0000
0010
0000
0010
,
0100
0000
0100
1000
0000
1000
0000
0000
0000
0001
0000
0001
,
0000
0000
0000
0100
0000
0100
0000
0000
0000
0010
0000
0010
,
1000
0000
1000
0001
0000
0001
0000
0000
0000
1001
0000
1000
,
0000
0000
0000
1001
0000
0001
0000
0000
0000
0101
0000
0100
,
0010
0000
0010
1000
0000
1000
0000
0000
0000
1100
0000
1000
,
0000
0000
0000
0011
0000
0001
0000
0000
0000
1001
0000
1000
,
0010
0000
0100
0001
0000
0001
0000
0000
0000
1010
0000
0010
,
0000
0000
0000
1001
0000
1000
0000
0000
0000
1100
0000
0100
,
0010
0000
0001
1000
0001
0010
0100
1000
0010
0100
0001
1000
,
0100
0000
0000
0000
0010
0000
0000
0000
0001
0000
0000
0000
0100
0000
0000
0001
0000
0000
0100
0000
0000
0010
0000
0000
1000
0000
0000
0001
0000
0000
0010
0000
0000
0100
0000
0000
1000
0000
0000
0000
0000
0000
0000
0000
0000
0000
0000
0000
,
0000
0002
0000
1003
,
1000
0000
0001
2000
0000
0000
0000
0000
0000
3100
0000
0000
,
0010
0000
0001
1000
0000
0001
0100
0000
0000
0020
0000
0000
,
0000
2030
0000
3100
,
1000
0000
0001
2000
0000
0000
0000
0000
0000
3001
0000
0000
,
0001
0000
0100
0002
0000
0000
0000
0000
0000
1003
0000
0000
,
1000
0000
0001
1000
0000
0001
0100
0000
0000
0002
0000
0000
,
0000
0000
0000
1000
0000
0000
0000
0000
0000
1003
0000
0001
,
1000
0000
0100
2000
0000
0000
0000
0000
0000
3001
0000
0000
,
0001
0000
1000
0002
0000
0000
0000
0000
0000
1003
0000
0000
,
1000
0000
0001
0100
0000
0001
0020
0000
0000
0000
0000
0000
,
0001
0000
0000
0000
0000
0030
0000
0000
0000
0001
0000
0000
,
0001
0000
1000
0200
0000
0000
0000
0000
0000
1300
0000
0000
,
1000
0000
0001
0020
0000
0000
0000
0000
0000
0031
0000
0000
,
0001
0000
0100
0001
0000
1000
0100
0000
0000
2000
0000
0000
,
0000
0000
0000
3001
,
0000
1000
0100
0010
,
0001
0100
0010
1000
,
0100
2000
0000
0001
,
0001
3000
0001
0200
0000
0000
0000
0000
0000
0001
0000
0000
,
0300
0000
0002
0003
2000
3000
0020
0030
,
0200
0300
0002
0003
2000
3000
0200
0300
,
0020
0030
0002
0000
0000
0000
1000
0000
,
0000
2003
0000
3001
,
1000
0000
0002
0003
0020
0030
0200
0300
,
2000
3000
0002
0003
0200
0300
0020
0030
,
2000
3000
0002
0000
0000
0000
1000
0000
,
0000
2003
0000
0010
,
3001
0000
0002
0003
2000
3000
0200
0300
,
0020
0030
0002
0003
2000
3000
0020
0030
,
0200
0300
0002
0000
0000
0000
0000
0000
,
0000
2003
0000
0000
,
0000
0000
3000
0000
0000
0000
0000
0000
0000
0000
0000
0000
,
0000
0000
0000
0000
,
0000
0000
M000
0000
0000
0000
0000
0000
0000
0000
0000
0000
;
