#TITLE:Gas Pedal;
#SUBTITLE:Sexuality Violation;
#ARTIST:Sage The Gemini (feat. IamSu);
#TITLETRANSLIT:;
#SUBTITLETRANSLIT:;
#ARTISTTRANSLIT:;
#CREDIT:;
#BANNER:Gas Pedal-bn.png;
#BACKGROUND:Gas Pedal-bg.png;
#LYRICSPATH:;
#CDTITLE:;
#MUSIC:Gas Pedal.ogg;
#OFFSET:0.008;
#SAMPLESTART:100.568;
#SAMPLELENGTH:19.250;
#SELECTABLE:YES;
#DISPLAYBPM:210.000;
#BPMS:0.000=210.000;
#STOPS:;
#BGCHANGES:;
// cache tags:
#FIRSTBEAT:26.250;
#LASTBEAT:448.500;
#SONGFILENAME:Songs/Sexuality Violation 2/Gas Pedal - [teejusb]/Gas Pedal.sm;
#HASMUSIC:1;
#HASBANNER:1;
#MUSICLENGTH:139.485;
// end cache tags

//---------------dance-single - teejusb----------------
#NOTES:
     dance-single:
     teejusb:
     Challenge:
     12:
     0.771,1.000,0.022,0.222,0.548,712.000,3.000,31.000,12.000,0.000:

0000
0000
0000
0000
,
0000
0000
0000
0000
,
0000
0000
0000
0000
,
0000
0000
0000
0000
,
0000
0000
0000
0000
,
0000
0000
0000
0000
,
0000
0000
0000
0000
0000
0000
0000
0000
0004
0003
4000
3000
0004
0003
4000
3000
,
0200
0000
0300
0000
2000
0000
3000
0000
0002
0000
0000
0003
0000
0000
0000
0000
,
0000
0000
0100
0001
0000
0000
0000
0000
,
0020
0000
0030
0100
1000
0000
0000
0000
,
0001
1000
0001
1000
0001
1000
0001
0100
,
0020
0000
0030
0100
0001
M000
0000
00M0
,
00M0
0000
1000
0001
1000
0001
0010
0100
,
0020
0000
0030
0000
0000
0000
0001
0000
2000
0000
0000
3000
0001
0000
0000
0000
,
0000
0000
1000
0100
0000
0000
0000
0000
,
0020
0000
0000
0030
0000
0000
0100
0000
2000
0000
3000
0000
0000
0000
0000
0000
,
1000
0100
1000
0100
0010
0001
0010
0100
1000
0001
1000
0010
1000
0000
0000
0000
,
0001
0100
0001
0100
0010
1000
0010
0100
0001
1000
0001
1000
0100
0000
0000
0000
,
0010
0001
0010
0001
1000
0100
0010
0100
1000
0001
0100
0010
0100
0000
0000
0000
,
0001
0100
0001
0100
0010
1000
0001
0010
0100
1000
0001
1000
0100
0000
0000
0000
,
1000
0100
1000
0100
0010
0001
1000
0100
0010
0001
1000
0001
0100
0000
0000
0000
,
0010
1000
0010
1000
0001
0100
0010
1000
0001
0010
0100
1000
0001
0000
0000
0000
,
1000
0100
1000
0100
0010
0001
0010
0100
1000
0001
0100
0010
1000
0000
0000
0000
,
0001
0100
0001
0100
0010
1000
0001
1000
0100
0010
0100
1000
0001
0000
0000
0000
,
0000
0000
1000
0000
0001
0100
0010
1000
,
0001
0010
0100
1000
0001
0000
1000
0000
,
0000
0000
0001
0010
0001
1000
0010
0100
,
0001
1000
0100
0010
0100
0000
1000
0000
,
0000
0000
0001
1000
0100
0000
0010
0000
,
0000
0100
0000
0000
1000
0000
0001
0000
,
0000
0100
0010
0100
0001
0000
1000
0000
,
0001
0000
1000
0100
1000
0000
0001
0000
,
2002
3003
0000
0000
1000
0000
0100
0000
1000
0000
1000
0000
0000
0000
0000
0000
,
0001
0010
0001
0001
1000
1000
0000
0000
,
0010
0010
0100
0100
0002
0003
1000
0100
,
0020
0030
0100
1000
0001
0001
0000
1000
,
0010
0010
0100
0000
0100
0000
0001
1000
,
0100
0000
0010
0100
0000
0000
1000
0000
,
0001
0000
0100
0000
0010
0000
1000
0010
,
0100
0000
0001
0100
0000
0000
0001
0000
,
0000
0000
1000
0000
1000
0000
0010
0010
,
1000
0001
1000
0100
0000
0000
0000
1000
,
0100
1000
0000
0001
0000
0000
0100
0000
,
0010
0100
0000
0001
0000
1000
0000
0000
,
0100
1000
0001
1000
0100
0000
0010
0100
,
1000
0001
1000
0010
0000
0000
0100
0001
,
1000
0000
0001
0000
1000
0000
0001
0000
0000
0010
0000
0000
0100
0000
0000
0010
0000
0000
0100
0000
0000
1000
0000
0000
,
0001
1000
0001
0100
0000
0010
0200
0300
,
0100
0001
1000
0001
0000
0000
0010
0000
,
0100
1000
0001
0100
0001
0000
0010
0100
,
0010
0100
1000
0100
0010
0001
0100
0010
,
0100
0010
1000
0010
0100
0001
1000
0001
,
2002
3003
0000
0000
1000
0000
1000
0000
0001
0000
0001
0000
0010
0000
0100
0000
,
1000
0000
0000
0100
0000
0000
1000
0100
,
1000
0000
0010
0000
0100
0000
0000
0001
0000
0000
1000
0000
0100
0000
0100
0000
,
0010
0000
0000
0100
0000
0000
1000
0000
,
0000
0000
0001
1000
0000
0000
0000
0000
,
0020
0000
0030
0100
0001
0000
0000
0000
,
1000
0001
1000
0001
1000
0001
1000
0100
,
0020
0000
0030
0100
1000
000M
0000
00M0
,
00M0
0000
0001
1000
0010
0100
0010
1000
,
0002
0000
0003
0010
0100
0000
1000
0000
,
0000
0000
0001
1000
0000
0000
0000
0000
,
0020
0000
0030
0100
0002
0003
0000
0000
,
1000
0010
1000
0010
0100
0001
1000
0001
0010
0001
0010
0100
1000
0000
0000
0000
,
0001
0010
0001
0010
0100
0010
0100
1000
0001
0100
0010
0100
0001
0000
0000
0000
,
1000
0001
0100
0010
0100
0010
1000
0001
0010
0100
1000
0100
0010
0000
0000
0000
,
0100
1000
0001
0010
0100
0010
0100
1000
0001
0100
0010
0100
0001
0000
0000
0000
,
0100
0010
0100
0001
1000
0010
0100
0001
1000
0100
0010
0100
1000
0000
0000
0000
,
0100
0010
0100
1000
0001
1000
0010
0100
0010
1000
0001
0100
0010
0000
0000
0000
,
0100
0001
0100
0001
1000
0010
1000
0001
0010
0100
1000
0100
1000
0000
0000
0000
,
0001
0010
0001
0010
0100
1000
0100
0010
0100
1000
0001
0100
0010
0000
0000
0000
,
0000
0000
0100
0010
1000
0001
1000
0100
,
0010
0100
1000
0000
0001
0010
0100
0000
,
2000
0000
3000
0001
1000
1000
0010
0100
,
0010
1000
0001
0000
0010
0100
1000
0000
,
0001
0001
2000
0000
3100
0010
0100
1000
,
0001
1000
0100
0000
0010
0100
1000
0001
,
0100
0000
0010
0000
0100
0000
0000
0001
0000
0000
0100
0000
0010
0000
0100
0000
,
0001
0000
0000
0000
0001
0000
0000
0000
1000
0000
0000
0000
0002
0000
0000
0003
,
0000
0000
2000
3000
0100
0010
0100
1000
,
0001
0100
0010
0100
0010
0010
1000
0100
,
0020
0000
0000
0030
0010
0000
0100
0000
1000
0000
0001
0000
0010
0000
0100
0000
,
1000
0001
0100
0000
0010
0100
0001
1000
,
0001
1000
0001
0000
1000
0000
0100
0010
,
0100
1000
0001
0000
1000
0010
0100
0010
,
1000
0000
1000
0000
0001
0000
0000
1000
0000
0000
0100
0000
0010
0000
0100
0000
,
1000
0001
10M0
0000
00M0
0000
00M0
0000
,
0000
0000
0001
0100
0000
0000
0000
0000
,
0002
0000
0003
1000
0100
0000
0000
0000
,
1000
0001
1000
0001
1000
0001
1000
0100
,
0020
0000
0030
0100
1000
0000
000M
0000
,
00M0
00M0
0001
1000
0001
0100
0010
0100
,
0002
0000
0003
1000
0001
0000
1000
0000
,
0000
0000
0100
0010
0000
0000
0000
0000
,
0002
0000
0003
1000
0200
0300
0000
0000
,
1000
0100
1000
0010
0100
0010
0100
0001
0010
0001
1000
0001
0100
0000
0000
0000
,
0001
0100
0001
1000
0010
0100
0001
0010
0001
0010
0100
1000
0001
0000
0000
0000
,
0010
0100
1000
0001
1000
0001
0010
0100
1000
0010
0100
0001
0100
0000
0000
0000
,
0001
0100
0001
1000
0010
0100
0001
0010
0100
1000
0100
0010
0100
0000
0000
0000
,
1000
0100
1000
0001
0010
0100
0010
0001
1000
0010
0100
0010
0100
0000
0000
0000
,
0001
0100
0001
1000
0010
0100
0001
0010
0100
1000
0100
0010
0100
0000
0000
0000
,
1000
0100
1000
0100
1000
0010
0100
0001
1000
0001
0100
0010
0100
0000
0000
0000
,
0001
0100
0001
0100
0001
0010
0001
0010
0100
1000
0001
1000
0100
0000
0000
0000
,
1000
0100
0100
1000
,
0010
0010
0100
0001
,
1000
1000
0001
1000
,
0010
0010
0100
0100
,
0001
0010
0010
0001
,
1000
1000
0100
0100
,
0010
0100
0100
1000
,
0004
0000
0000
0003
4000
0000
0000
3000
,
4004
3003
0000
0000
0000
0000
0000
0000
;

//---------------dance-single - teejusb + Gazebo----------------
#NOTES:
     dance-single:
     teejusb + Gazebo:
     Hard:
     10:
     0.697,0.844,0.022,0.222,0.548,640.000,3.000,31.000,12.000,0.000:
0000
0000
0000
0000
,
0000
0000
0000
0000
,
0000
0000
0000
0000
,
0000
0000
0000
0000
,
0000
0000
0000
0000
,
0000
0000
0000
0000
,
0000
0000
0000
0000
0000
0000
0000
0000
0004
0003
4000
3000
0004
0003
4000
3000
,
0200
0000
0300
0000
2000
0000
3000
0000
0002
0000
0000
0003
0000
0000
0000
0000
,
0000
0000
0100
0001
0000
0000
0000
0000
,
0020
0000
0030
0100
1000
0000
0000
0000
,
0001
1000
0001
1000
0001
1000
0001
0100
,
0020
0000
0030
0100
0001
M000
0000
00M0
,
00M0
0000
1000
0001
1000
0001
0010
0100
,
0020
0000
0030
0000
0000
0000
0001
0000
2000
0000
0000
3000
0001
0000
0000
0000
,
0000
0000
1000
0100
0000
0000
0000
0000
,
0020
0000
0000
0030
0000
0000
0100
0000
2000
0000
3000
0000
0000
0000
0000
0000
,
1000
0001
1000
0100
0010
0001
1000
0010
0100
0001
0000
0000
,
1000
0010
1000
0001
0100
0001
0010
0100
1000
0001
0000
0000
,
0010
0001
0010
0100
1000
0001
0100
0010
1000
0001
0000
0000
,
1000
0010
1000
0001
0100
0001
1000
0001
0010
0100
0000
0000
,
1000
0100
1000
0001
1000
0010
0100
0001
1000
0001
0000
0000
,
0100
0010
0100
0001
0010
0100
1000
0001
0010
0001
0000
0000
,
1000
0010
0100
0010
1000
0001
1000
0100
0010
0001
0000
0000
,
1000
0100
0010
0100
1000
0001
0100
0001
1000
0001
0000
0000
,
0000
0000
1000
0000
0001
0100
0010
1000
,
0001
0010
0100
1000
0001
0000
1000
0000
,
0000
0000
0001
0010
0001
1000
0010
0100
,
0001
1000
0100
0010
0100
0000
1000
0000
,
0000
0000
0001
1000
0100
0000
0010
0000
,
0000
0100
0000
0000
1000
0000
0001
0000
,
0000
0100
0010
0100
0001
0000
1000
0000
,
0001
0000
1000
0100
1000
0000
0001
0000
,
2002
3003
0000
0000
1000
0000
0100
0000
1000
0000
1000
0000
0000
0000
0000
0000
,
0001
0010
0001
0001
1000
1000
0000
0000
,
0010
0010
0100
0100
0002
0003
1000
0100
,
0020
0030
0100
1000
0001
0001
0000
1000
,
0010
0010
0100
0000
0100
0000
0001
1000
,
0100
0000
0010
0100
0000
0000
1000
0000
,
0001
0000
0100
0000
0010
0000
1000
0010
,
0100
0000
0001
0100
0000
0000
0001
0000
,
0000
0000
1000
0000
1000
0000
0010
0010
,
1000
0001
1000
0100
0000
0000
0000
1000
,
0100
1000
0000
0001
0000
0000
0100
0000
,
0010
0100
0000
0001
0000
1000
0000
0000
,
0100
1000
0001
1000
0100
0000
0010
0100
,
1000
0001
1000
0010
0000
0000
0100
0001
,
1000
0000
0001
0000
1000
0000
0001
0000
0000
0010
0000
0000
0100
0000
0000
0010
0000
0000
0100
0000
0000
1000
0000
0000
,
0001
1000
0001
0100
0000
0010
0200
0300
,
0100
0001
1000
0001
0000
0000
0010
0000
,
0100
1000
0001
0100
0001
0000
0010
0100
,
0010
0100
1000
0100
0010
0001
0100
0010
,
0100
0010
1000
0010
0100
0001
1000
0001
,
2002
3003
0000
0000
1000
0000
1000
0000
0001
0000
0001
0000
0010
0000
0100
0000
,
1000
0000
0000
0100
0000
0000
1000
0100
,
1000
0000
0010
0000
0100
0000
0000
0001
0000
0000
1000
0000
0100
0000
0100
0000
,
0010
0000
0000
0100
0000
0000
1000
0000
,
0000
0000
0001
1000
0000
0000
0000
0000
,
0020
0000
0030
0100
0001
0000
0000
0000
,
1000
0001
1000
0001
1000
0001
1000
0100
,
0020
0000
0030
0100
1000
000M
0000
00M0
,
00M0
0000
0001
1000
0010
0100
0010
1000
,
0002
0000
0003
0010
0100
0000
1000
0000
,
0000
0000
0001
1000
0000
0000
0000
0000
,
0020
0000
0030
0100
0002
0003
0000
0000
,
1000
0001
1000
0100
0010
0001
1000
0010
0100
0001
0000
0000
,
1000
0010
1000
0001
0100
0001
0010
0100
1000
0001
0000
0000
,
0010
0001
0010
0100
1000
0001
0100
0010
1000
0001
0000
0000
,
1000
0010
1000
0001
0100
0001
1000
0001
0010
0100
0000
0000
,
1000
0100
1000
0001
1000
0010
0100
0001
1000
0001
0000
0000
,
0100
0010
0100
0001
0010
0100
1000
0001
0010
0001
0000
0000
,
1000
0010
0100
0010
1000
0001
1000
0100
0010
0001
0000
0000
,
1000
0100
0010
0100
1000
0001
0100
0001
1000
0001
0000
0000
,
0000
0000
0100
0010
1000
0001
1000
0100
,
0010
0100
1000
0000
0001
0010
0100
0000
,
2000
0000
3000
0001
1000
1000
0010
0100
,
0010
1000
0001
0000
0010
0100
1000
0000
,
0001
0001
2000
0000
3100
0010
0100
1000
,
0001
1000
0100
0000
0010
0100
1000
0001
,
0100
0000
0010
0000
0100
0000
0000
0001
0000
0000
0100
0000
0010
0000
0100
0000
,
0001
0000
0000
0000
0001
0000
0000
0000
1000
0000
0000
0000
0002
0000
0000
0003
,
0000
0000
2000
3000
0100
0010
0100
1000
,
0001
0100
0010
0100
0010
0010
1000
0100
,
0020
0000
0000
0030
0010
0000
0100
0000
1000
0000
0001
0000
0010
0000
0100
0000
,
1000
0001
0100
0000
0010
0100
0001
1000
,
0001
1000
0001
0000
1000
0000
0100
0010
,
0100
1000
0001
0000
1000
0010
0100
0010
,
1000
0000
1000
0000
0001
0000
0000
1000
0000
0000
0100
0000
0010
0000
0100
0000
,
1000
0001
10M0
0000
00M0
0000
00M0
0000
,
0000
0000
0001
0100
0000
0000
0000
0000
,
0002
0000
0003
1000
0100
0000
0000
0000
,
1000
0001
1000
0001
1000
0001
1000
0100
,
0020
0000
0030
0100
1000
0000
000M
0000
,
00M0
00M0
0001
1000
0001
0100
0010
0100
,
0002
0000
0003
1000
0001
0000
1000
0000
,
0000
0000
0100
0010
0000
0000
0000
0000
,
0002
0000
0003
1000
0200
0300
0000
0000
,
1000
0001
1000
0010
0100
0001
1000
0100
0010
0001
0000
0000
,
1000
0100
1000
0001
0010
0001
0100
0010
1000
0001
0000
0000
,
0100
0001
0100
0010
1000
0001
0010
0100
1000
0001
0000
0000
,
1000
0100
1000
0001
0010
0001
1000
0001
0100
0010
0000
0000
,
1000
0010
1000
0001
1000
0100
0010
0001
1000
0001
0000
0000
,
0010
0100
0010
0001
0100
0010
1000
0001
0100
0001
0000
0000
,
1000
0100
0010
0100
1000
0001
1000
0010
0100
0001
0000
0000
,
1000
0010
0100
0010
1000
0001
0010
0001
1000
0001
0000
0000
,
1000
0100
0100
1000
,
0010
0010
0100
0001
,
1000
1000
0001
1000
,
0010
0010
0100
0100
,
0001
0010
0010
0001
,
1000
1000
0100
0100
,
0010
0100
0100
1000
,
0004
0000
0000
0003
4000
0000
0000
3000
,
4004
3003
0000
0000
0000
0000
0000
0000
;
