#TITLE:Supernova;
#SUBTITLE:Astronomy (2006);
#ARTIST:Dragonland;
#TITLETRANSLIT:;
#SUBTITLETRANSLIT:;
#ARTISTTRANSLIT:;
#CREDIT:Dog_E;
#BANNER:banner.PNG;
#BACKGROUND:BG.PNG;
#LYRICSPATH:;
#CDTITLE:DogETitle.PNG;
#MUSIC:01_dragonland-supernova-amrc.mp3;
#OFFSET:-1.704;
#SAMPLESTART:98.560;
#SAMPLELENGTH:26.120;
#SELECTABLE:YES;
#BPMS:0.000=226.000;
#STOPS:;
#BGCHANGES:;
// cache tags:
#FIRSTBEAT:92.000;
#LASTBEAT:1134.000;
#SONGFILENAME:Songs/Astronomic Metal Collection/Supernova (Dog_E)/01_dragonland-supernova-amrc.sm;
#HASMUSIC:1;
#HASBANNER:1;
#MUSICLENGTH:309.373;
// end cache tags

//---------------dance-single - Blank----------------
#NOTES:
     dance-single:
     Blank:
     Hard:
     12:
     1.000,1.000,1.000,0.960,0.168,1369.000,514.000,297.000,7.000,149.000:
0000
0000
0000
0000
,
0000
0000
0000
0000
,
0000
0000
0000
0000
,
0000
0000
0000
0000
,
0000
0000
0000
0000
,
0000
0000
0000
0000
,
0000
0000
0000
0000
,
0000
0000
0000
0000
,
0000
0000
0000
0000
,
0000
0000
0000
0000
,
0000
0000
0000
0000
,
0000
0000
0000
0000
,
0000
0000
0000
0000
,
0000
0000
0000
0000
,
0000
0000
0000
0000
,
0000
0000
0000
0000
,
0000
0000
0000
0000
,
0000
0000
0000
0000
,
0000
0000
0000
0000
,
0000
0000
0000
0000
,
0000
0000
0000
0000
,
0000
0000
0000
0000
,
0000
0000
0000
0000
,
1000
0000
0000
0000
0000
0000
0000
0000
0000
0000
0000
0000
0000
0000
0000
0000
0000
0000
0000
0000
0000
0000
0000
0000
0000
0000
0000
0000
0000
0000
0000
0000
0000
0000
0000
0000
0000
0000
0000
0000
0010
0000
0000
0000
0000
0000
0000
0000
0000
0000
0000
0000
0000
0000
0000
0000
0000
0000
0000
0000
0000
0000
0000
0000
0000
0000
0000
0000
0000
0000
0000
0000
0000
0000
0000
0000
0000
0000
0000
0000
0000
0000
0000
0000
0000
0000
0000
0000
0000
0000
0100
0000
0000
0000
0000
0000
0000
0000
0000
0000
0000
0000
0000
0000
0000
0000
0000
0000
0000
0000
0000
0000
0000
0000
0000
0000
0000
0000
0000
0000
0001
0000
0000
0000
0000
0000
0000
0000
0000
0000
0000
0000
0000
0000
0000
0000
0000
0000
0000
0000
0000
0000
0000
0000
0000
0000
0000
0000
0000
0000
0000
0000
0000
0000
0000
0000
0000
0000
0000
0000
0000
0000
0000
0000
0000
0000
0000
0000
0000
0000
0000
0000
0000
0000
0000
0000
0000
0000
0000
0000
0000
0000
0000
0000
0000
0000
0000
0000
0000
0000
0000
0000
,
2002
3003
0000
0000
1001
0000
0110
0000
1001
0000
0110
0000
1001
0000
0010
0000
,
1100
0000
0000
0001
0000
0000
0110
0000
0000
0000
0000
0000
2000
0000
0000
3002
0000
0000
1003
0000
0100
0000
0010
0000
,
0001
1000
0001
0010
0000
0000
0000
0000
0000
0000
0000
0000
,
1010
0000
1010
0101
1010
0101
1010
0001
,
0110
0000
1000
0000
0101
0000
0000
0000
0002
0003
0002
0003
0002
0003
0000
0000
,
0002
0003
0010
0000
0100
0000
1000
0000
,
1011
0000
0000
0000
1010
0000
1100
0000
1010
0000
1100
0000
1002
0003
0000
0000
,
0210
0300
0000
0000
2010
3000
0000
0000
0102
0003
0000
0000
1110
0000
0000
0000
,
1110
0000
0000
0000
0102
0003
0000
0000
1110
0000
0000
0000
1110
0000
0000
0000
,
1001
0000
0000
0000
0011
0000
0101
0000
0011
0000
0101
0000
0012
0003
0000
0000
,
0210
0300
0000
0000
1002
0003
0000
0000
0101
0000
0000
0000
1010
0000
0000
0000
,
0110
0222
1000
1333
,
0100
0000
0000
0000
0110
0000
0000
0000
0210
0300
0001
0000
1001
0000
0000
0000
,
0101
1011
1110
1110
,
1011
0000
0000
0000
1001
0000
0222
0000
0300
0000
0003
0000
1000
0030
0100
0000
,
0020
0030
0000
0001
0110
0000
1001
0000
,
0001
0000
0010
0000
0100
0000
1000
0000
0000
0000
0000
0000
0220
0000
0300
0000
0000
0000
0000
0000
0030
1000
0000
0000
,
0001
0100
1001
0000
1001
0000
0110
0000
,
1002
0000
0000
0003
1110
0000
0111
0111
,
0000
0000
1101
0000
0000
0000
1011
0000
2220
3330
0000
0000
0000
0000
0000
0000
,
0111
0000
1110
1110
0000
1101
0000
1011
,
0102
0000
0000
0000
0010
0000
2003
0100
,
0000
0010
0000
0010
3002
0000
0000
0000
,
1000
0000
2003
0010
0000
0010
0000
0001
,
3200
0000
0000
0000
0001
0000
0320
1000
,
0000
1000
0000
0100
0032
0000
1000
0000
,
1000
0000
0203
0000
0311
1100
0011
1100
,
0021
0000
0000
0000
1000
0000
0230
0001
,
0000
1000
0000
1000
0320
0000
0000
0000
,
0100
0000
0230
1000
0000
1000
0000
0010
,
0302
0000
0000
0000
0010
0000
2003
0100
,
0000
0100
0000
0001
3020
0000
0100
0000
,
0100
0032
1000
1000
,
0223
0000
0000
0000
0000
0330
1000
0000
,
0010
0000
1000
0000
0101
0101
0000
0000
,
1000
0000
0110
0110
0110
0101
1010
1001
,
0110
0110
0000
0000
0000
0110
0101
0101
,
0101
0000
0110
0000
1010
0000
0110
0000
2002
3000
0000
0000
0000
0000
0000
0000
,
0010
0000
0000
0000
2000
3000
0000
0000
0000
0000
0000
0000
0010
0000
0000
0000
,
0010
0000
0100
0000
1000
0003
0011
0011
,
0100
0020
2030
3100
0011
0011
0000
0000
,
0001
0000
1010
1010
1010
1010
0110
0101
,
1010
1010
0000
0000
0000
1100
1100
1100
,
1001
0110
1100
1001
0210
0000
0001
0000
,
0001
0000
0000
0000
0000
0000
1020
0000
0030
0000
0000
0000
0002
0003
0000
0000
0000
0000
0002
0003
0000
0000
0000
0000
,
2320
0000
0000
0000
0000
0000
0002
0003
0000
0000
0000
0000
3031
0000
0000
0000
0000
0000
0110
0000
0000
0000
0000
0000
,
1100
0000
0011
0000
0110
0110
0000
0000
,
0000
0000
1010
1010
1010
0101
0110
0011
,
1010
1010
0000
0000
0000
0101
0101
0101
,
1010
0110
1100
0110
2010
0000
0000
0000
,
0010
0000
0000
0000
0000
0000
0002
0003
0000
0000
0000
0000
0002
0003
0000
0000
0000
0000
0001
0000
0000
0000
0000
0000
,
0010
0000
0000
0000
0000
0000
0002
0003
0000
0000
0000
0000
0002
0003
0000
3000
0000
0000
0110
0000
0000
0110
0000
0000
,
2000
3001
0200
0310
0110
0110
0000
0000
,
0000
0000
1001
1001
1001
0011
1100
0110
,
1001
1001
0000
0000
0000
0011
0011
0011
,
0011
1100
0110
1001
1020
0000
0001
0000
,
1000
0000
0101
0000
1000
0000
0100
0030
,
1200
0000
1000
0000
0010
0000
0001
0300
,
0011
0110
1001
1001
,
0010
0100
0011
0000
0110
0000
1000
1000
,
0101
0000
0110
0110
1010
0110
0101
0000
,
1001
0001
0101
0001
1001
0000
1010
0000
,
0001
1000
0110
0000
0011
0000
1000
0001
,
0120
0000
2001
0000
0000
3030
0001
0001
,
0000
0110
0000
1001
0000
1010
0101
0000
,
0000
0000
1010
0000
1010
0000
0100
0001
,
0110
0000
0110
0000
0001
1000
0102
0000
,
0003
0000
1110
0000
1011
0111
0000
0111
,
0000
1101
1110
0000
0000
0000
0111
0000
,
1101
1110
0000
1110
0000
1011
0102
0000
,
0000
0000
1013
0000
2010
0110
0000
0101
,
3000
0011
1020
0000
0000
0000
0131
0000
,
0102
1010
0000
1100
0003
0011
0201
0000
,
0000
0000
0011
0000
0011
1010
0000
1001
,
0000
1010
0011
0300
0000
0000
1010
0000
,
1010
1100
0000
1001
0000
1100
0101
0000
,
0000
0000
0110
0000
0110
0101
0000
1010
,
0000
1100
0110
0000
0000
0000
0101
0000
,
0101
0011
0000
1010
0000
1001
0101
0000
,
0000
0000
1001
0000
1001
1010
0000
0110
,
0000
0101
1001
0000
0000
0000
0011
0000
,
0011
0110
1000
0100
0010
0001
2100
0000
,
0000
0000
0001
3000
0200
1000
0000
1000
,
0000
0301
0020
0000
0000
0000
1000
0030
,
0002
0100
0000
0100
0000
0013
2000
0000
,
0000
0000
0100
0000
0010
0001
0000
0001
,
0000
0001
0100
0000
3010
0000
0010
0000
,
1002
0000
0010
0000
1000
0003
0200
0000
,
0000
0000
0001
0300
0020
1000
0000
1000
,
0000
0031
2000
0000
0000
0000
0010
3000
,
0200
0001
0000
0001
0000
1300
0020
0000
,
0000
0000
0001
0000
0100
1000
0000
1000
,
0000
1000
0100
0000
0001
0000
1000
0000
,
0130
0000
0001
0100
0010
1000
0102
0000
,
0000
0000
0010
0000
2003
0100
0000
0010
,
0000
0010
3002
0000
0000
0000
1000
0000
,
2003
0010
0000
0010
0000
0001
3200
0000
,
0000
0000
0001
0000
0320
1000
0000
1000
,
0000
0100
0032
0000
1000
0000
1000
0000
,
0203
0000
0000
0000
0301
0000
1000
0000
0220
0330
0000
0000
0021
0000
0000
0000
,
0000
0000
1000
0000
0230
0001
0000
1000
,
0000
1000
0320
0000
0000
0000
0100
0000
,
0230
1000
0000
1000
0000
0010
0302
0000
,
0000
0000
0010
0000
2003
0100
0000
0100
,
0000
0001
3020
0000
0100
0000
0100
0000
,
0032
0000
1000
0000
1000
0000
0113
1000
,
00M1
M100
001M
1000
0M01
M010
010M
10M0
,
0001
0000
1000
0000
0000
0000
0000
0000
0200
0300
0002
0003
2000
3000
0002
0103
,
1000
0110
0000
0110
0000
0001
1001
1001
,
0000
0000
0010
0000
1100
1100
1100
1001
,
0110
0011
1100
1100
0000
0000
0000
1100
,
1001
0000
1001
0000
1001
0000
1100
0000
0110
0000
1100
0000
0022
0030
0000
0000
,
0000
0000
0000
0000
0100
0000
0000
0000
0020
0030
0000
0000
0000
0000
0000
0000
,
0100
0000
0100
0000
1000
0000
0010
0003
,
0101
0101
1000
0200
0320
1030
0101
0101
,
0000
0000
0001
0000
0110
0110
0110
0110
,
1100
1001
0110
0110
0000
0000
0000
1010
,
1010
1010
0011
1100
1010
0011
2100
0000
,
0001
0000
0000
0000
0000
0000
0001
0000
0000
0000
0000
0000
0210
0000
0300
0000
0000
0000
0002
0003
0000
0000
0000
0000
,
0002
0003
0000
0000
0000
0000
3220
0000
0000
0000
0000
0000
0002
0003
0000
0000
0000
0000
0331
0000
0000
0000
0000
0000
,
1100
0000
0000
0000
1010
0000
0000
0000
0101
0000
0000
0000
2000
3000
0000
0000
,
2000
3000
0000
0000
0100
0000
0000
0000
0020
0030
0000
0000
0020
0030
0000
0000
,
0200
0000
1301
1001
0110
0110
0011
0011
,
1100
0000
1100
0000
0110
0000
0110
0000
1001
0000
1001
0000
0222
0333
0000
0000
,
0111
0000
0000
0000
1001
0000
0001
0000
2220
3330
0000
0000
1011
0000
0000
0000
,
0110
0000
0100
0000
2002
3003
0000
0000
1001
0000
0000
0000
1001
0000
0000
0000
,
1001
0000
1001
0000
1001
0000
2200
3300
,
2200
3300
0010
1000
0202
0303
0202
0303
,
1001
0110
1010
0100
0010
0001
0010
0100
,
1001
0100
0010
0100
1000
0001
0110
0001
,
1000
0001
0010
0100
0011
1000
0100
0010
,
0001
1000
0102
0010
0100
1000
0010
0100
,
0010
0100
1000
0010
1000
0100
1000
0013
,
0100
1000
0100
0010
0101
0010
0100
1000
,
0100
0010
1001
0010
0100
1000
0010
0100
,
0011
1000
0001
0100
0010
0100
1001
0100
,
0010
0001
0100
0010
1100
0001
0010
0100
,
0010
0001
0110
0001
1000
0100
0010
0001
,
1100
0010
0001
0100
0010
1000
0101
0010
,
0100
0000
1000
0000
0010
0000
0100
0000
1001
0000
0100
0000
0002
0003
0020
0030
,
0200
0300
2000
3000
1002
0000
0000
0000
0023
0000
0000
0000
0230
0000
0000
0000
,
1300
0002
0000
0023
0000
0230
0320
0000
,
0230
0000
2300
0000
3100
0001
0000
0020
,
0000
0000
0230
0000
0320
0000
0000
0000
0000
0000
0000
0000
0032
0000
0000
0003
,
0200
0000
0000
0300
0020
0000
0000
0030
2000
0000
0000
3000
0020
0000
0000
0000
,
0000
0000
0030
0000
0002
0000
0000
0003
0020
0000
0000
0030
0200
0000
0000
0300
,
2000
0000
0000
3000
2000
0000
0000
0000
0000
0000
0000
0000
0001
0000
3000
0000
,
0200
0010
0000
0010
0000
0301
0020
0000
,
0000
0000
0100
0030
2000
0001
0000
0001
,
0000
3010
0200
0000
0000
0000
0001
0000
,
1000
0010
0000
0010
0000
0010
1000
0000
,
0001
0000
0010
0000
1300
0000
0001
0100
,
0010
1000
0001
0010
0001
0100
0010
1000
,
0100
1000
0010
0100
0001
0010
1000
0100
,
1000
0010
0100
0001
0100
0010
0100
0001
,
0010
0001
1000
0010
1000
0001
0100
0001
,
1000
0100
0010
0001
0010
0100
2000
3000
,
0100
0010
0001
0100
0010
0100
0001
0100
,
0010
1000
0101
0010
0100
1000
0100
0010
,
0100
1000
0001
0010
0100
0010
0001
1000
,
0001
0010
0100
0010
0001
1000
0100
1000
,
0010
0100
0011
0100
1000
0100
0010
0100
,
1000
0100
0010
0001
0100
0010
1000
0001
,
0010
0001
0100
0010
0100
0010
0100
0001
,
0010
0100
1002
0000
0000
0000
0000
0003
,
1000
0100
1000
0020
,
0000
0000
0000
0000
0000
0000
0030
0000
0000
0000
0000
0200
2300
0000
0000
0000
0000
3000
0020
0000
0000
0000
0030
0000
,
0200
0000
0300
0000
0000
0000
0002
0000
0000
0000
0000
0003
0020
0000
0000
0000
0000
0030
0002
0000
0000
0000
0000
0000
,
0000
0000
0000
0000
0000
0003
0001
0000
0000
0001
0000
0001
,
1000
0100
0010
0100
1000
0100
0010
0001
1000
0001
0010
0100
,
1000
0001
0100
0020
0000
0000
0000
0000
0000
0000
0000
0030
,
1200
0311
1200
0310
1200
0311
2010
0000
,
0000
3000
0100
0001
,
0100
0000
0220
0000
0000
0330
0000
0000
,
1000
0010
0100
0001
0100
0010
1000
0010
0100
0001
0100
0010
,
1000
0100
0010
0100
1000
0001
0100
0010
1000
0100
1000
0010
,
0100
0010
0100
0022
0000
0000
0000
0000
0000
0000
0000
0003
,
0000
0000
0000
0000
0000
0000
0000
0000
0000
0000
0000
0000
0000
0000
0000
0000
0030
0100
0020
0000
0000
0000
0000
0000
,
0000
0000
0000
0000
0000
0000
0000
0000
0000
0000
0000
0030
0001
0000
0000
0000
0000
0000
0100
0000
0000
0000
0000
0000
,
0010
0000
1002
0000
0000
0003
2001
0000
,
3010
0000
0000
0100
0000
0000
1000
0000
0000
0100
0000
0000
0010
0000
0000
0001
0000
0000
1000
0000
0100
0000
0010
0000
,
0001
0000
0010
0000
0100
0000
0010
0000
0001
0000
1000
0000
0001
0000
0010
0000
0100
0000
1010
0000
0000
0200
0000
0000
,
0312
1003
0110
0210
0000
0000
0000
0300
,
1000
0100
0010
0100
0010
0001
0100
0010
0100
0001
0000
0000
,
0020
0000
0000
0030
0000
0000
2000
0000
0000
0000
0000
0000
0000
0000
0000
0000
0000
0000
3000
0000
0000
0000
0000
0000
0001
0000
0000
0000
0010
0000
0000
0000
0100
0000
0000
0000
1000
0000
0000
0000
0010
0000
0000
0000
0100
0000
0000
0000
,
0001
0000
0100
0000
0010
0000
2000
0000
0000
0000
0000
0000
3001
0000
0000
0100
0000
0000
0010
0000
1000
0000
0100
0000
,
0010
0000
0001
0000
1000
0000
0001
0000
0000
0010
0000
0000
0100
0000
0000
1000
0000
0000
0220
0000
0000
0000
0000
0000
,
0000
0000
0000
0000
,
0330
0000
2200
3300
1010
0000
0001
0100
,
2020
3030
0110
0001
0100
0001
0210
0300
,
0002
0000
0003
0000
0002
0000
0023
0030
0000
0000
0000
0000
0000
0000
0000
0000
,
0000
0003
0120
0030
0120
0030
0120
0030
,
1200
0000
0300
0000
2100
0000
0000
3000
1002
0000
0003
0000
0210
0000
0000
0300
,
0002
0000
0000
0000
0000
0000
0003
0010
0002
0000
0000
0000
0000
0000
0003
0010
0002
0000
0000
0000
0000
0000
0003
0010
0002
0000
0000
0000
0000
0000
0003
0010
,
0002
0000
0000
0000
0000
0000
0000
0000
0000
0003
0000
0000
1000
0000
0000
0000
0100
0000
0000
0000
0010
0000
0000
0000
0100
0000
0000
0000
0010
0000
0000
0000
0001
0000
0000
0000
1000
0000
0000
0000
0001
0000
0000
0000
0010
0000
0000
0000
,
0100
1000
0010
0100
0001
1000
0001
0010
0001
0100
0010
1000
,
0100
1000
0010
0100
0001
0010
0001
0100
0010
0100
0010
0100
,
0001
0010
0100
1000
0001
0010
0100
0010
0100
1000
0001
1000
,
0100
0010
0001
0010
0100
0010
0100
0001
0010
2202
0000
0000
,
0000
0000
0000
0000
0000
0000
0000
0000
3303
2202
0000
3303
,
2202
0000
3303
0000
0000
0000
1001
0000
0000
0100
0000
0000
0010
0000
0000
0001
0000
0000
0010
0000
0000
0100
0000
0000
,
1000
0010
0100
0001
0010
0001
0100
0010
,
0100
0001
1000
0100
0010
0001
0010
0100
,
0010
0100
1001
0100
0010
0100
1000
0001
,
0100
0010
0100
0001
0010
0100
1000
0001
,
0100
0010
0100
0001
0010
0100
1000
0001
,
0100
0010
1100
0010
0001
0100
0010
0100
,
0010
0100
1000
0001
0100
0010
0001
0100
,
0010
1000
0100
0010
0100
1000
0001
0100
,
0001
1000
0011
1000
0100
1000
0010
0100
,
0010
1000
0001
0010
0001
0100
0010
0100
,
1000
0100
0010
0001
1000
0001
0010
0100
,
1000
0001
2200
3300
1100
0000
0001
0010
,
0202
0303
0101
0000
1000
0010
1001
0000
,
0101
1001
1001
1001
0101
0110
0110
1001
,
0110
0011
0220
0330
0110
0000
0001
1000
,
0022
0033
0011
1000
0001
0000
2022
3033
,
2022
0000
0000
0000
0000
0000
0000
3033
0101
0000
0101
0000
0000
0000
0110
0000
,
0000
1010
0000
1001
1110
0000
0000
0000
,
0022
0033
0011
0000
0001
1000
0220
0330
,
0110
0000
0000
0000
0000
0000
0000
0000
0000
0000
0000
0000
1200
0000
0000
0300
0000
0000
0002
0000
0000
0003
0000
0000
2220
3000
0300
0000
0030
0000
0000
0000
0000
0000
0000
0000
0000
0000
0000
0000
0000
0000
0000
0000
0000
0000
0000
0000
,
1110
0000
1000
0011
0000
0101
0000
0110
,
1110
0000
0000
0000
1011
0000
0100
1010
,
0000
0101
0000
0110
1011
0000
0000
0000
,
0111
0000
1000
0011
0000
0110
0000
1010
,
0111
0000
0000
0000
1101
0000
0010
0101
,
0000
0110
0000
0011
1101
0000
0000
0000
,
1110
0000
0011
0110
0000
1100
0000
0101
,
1110
0000
0000
0000
0111
0000
0101
0110
,
0000
1110
0000
1100
0111
0000
0000
0000
,
1110
0000
1110
0111
0000
1011
0000
1101
,
1110
0000
0000
0000
0000
0000
0000
0000
1100
0000
0000
0000
2022
3033
0000
0000
,
2202
3303
0000
0000
2220
3330
0000
0000
0222
0333
0000
0000
0000
0000
0000
0000
,
1000
0000
0100
0010
0000
0001
0000
0100
,
0010
0000
1000
0000
0001
0000
0100
0010
,
0000
0100
0000
1000
0022
0000
0000
0000
,
0000
0003
0002
0030
0023
0000
0230
0000
,
0320
0230
2300
3001
,
0100
0010
2200
3310
,
0001
0110
0001
1000
,
0011
0100
1000
1001
,
0100
0010
2002
0000
,
0100
0000
0010
0100
0000
0100
0000
0100
,
3013
0000
0110
0000
0110
0000
1000
0001
,
0110
0011
1100
0110
0102
0000
0000
0000
,
0110
0000
2003
0101
0000
0110
0000
0110
,
3002
0000
0000
0000
1100
0000
2003
0110
,
0000
0110
0000
0011
3200
0000
0000
0000
,
1001
0000
0320
1001
0000
1001
0000
1100
,
0032
1010
1010
0203
,
1301
0000
0210
0300
0021
0000
0000
0000
,
1100
0000
0230
0011
0000
1001
0000
1001
,
0320
0000
0000
0000
1100
0000
0230
1001
,
0000
1001
0000
1010
0302
0000
0000
0000
,
1100
0000
2003
0110
0000
0110
0000
0101
,
3020
1100
1100
0032
,
1010
1100
1113
0000
,
0111
0000
0111
1101
0000
1011
0000
1110
,
0111
0000
0000
0000
1110
0000
1110
1011
,
0000
1101
0000
0111
1110
0000
0000
0000
;
