#TITLE:Hometown Glory;
#SUBTITLE:(Instumental);
#ARTIST:ADELE;
#TITLETRANSLIT:;
#SUBTITLETRANSLIT:;
#ARTISTTRANSLIT:;
#CREDIT:;
#BANNER:;
#BACKGROUND:;
#LYRICSPATH:;
#CDTITLE:;
#MUSIC:Hometown Glory (instumental).mp3;
#OFFSET:0.000;
#SAMPLESTART:66.357;
#SAMPLELENGTH:5.000;
#SELECTABLE:YES;
#BPMS:0.000=90.400;
#STOPS:;
#BGCHANGES:;
// cache tags:
#FIRSTBEAT:2.000;
#LASTBEAT:130.000;
#SONGFILENAME:Songs/toune 5/HomeTown Glory (Instumental)/Homewotn Glory.sm;
#HASMUSIC:1;
#HASBANNER:0;
#MUSICLENGTH:85.995;
// end cache tags

//---------------dance-single - Challenge----------------
#NOTES:
     dance-single:
     Challenge:
     Challenge:
     12:
     0.865,0.775,0.023,0.116,1.000,509.000,2.000,10.000,0.000,1.000:
0000
0000
0000
0000
0000
0000
0000
0000
0100
0001
0100
0010
1000
0001
0100
0010
,
0100
0001
1000
0010
0100
0001
0100
0010
1000
0001
0100
0010
0100
0001
1000
0100
,
1000
0001
0100
0010
0100
0010
1000
0001
0100
0010
1000
0001
0100
0010
1000
0001
,
0100
0010
1000
0001
0100
0010
1000
0010
0100
0001
0100
0010
1000
0001
0100
0010
,
1000
0001
0100
0001
2000
0000
0001
0000
0001
0000
0001
0000
0001
0000
0001
0000
,
0001
0000
0001
0000
3201
0000
0001
0000
0001
0000
1000
0000
1000
1000
1000
0000
,
1000
0000
1000
0000
0320
0000
0001
0000
0001
0001
0001
0000
0001
0000
0100
0000
,
0100
0100
0100
0000
0032
0000
0100
0000
0100
0100
0100
0000
1000
0000
1000
1000
,
1000
0000
0100
0000
0103
0000
0001
1000
0010
0100
0001
1000
0100
1000
0000
0100
,
0001
1000
0010
0100
0001
0100
0000
0010
1000
0100
1000
0010
0100
0001
1000
0000
,
0100
1000
0010
0100
0001
0100
0010
0000
0001
1000
0010
0100
0001
1000
0001
0000
,
0100
0000
0010
0000
1000
0000
0001
0000
0100
0000
0010
0000
1000
0000
0010
0000
0000
0000
0100
0000
0001
0000
1000
0000
0010
1000
0100
1000
0001
0000
1000
0000
,
0001
0000
0100
0000
1000
0000
0010
0000
0100
0000
0001
1000
0001
1000
0001
0000
1000
0000
0010
0000
0100
0000
0001
0000
1000
0000
0001
1000
0001
0000
0010
0000
,
0100
0000
0010
0000
1000
0000
0001
0000
0100
0000
0010
0100
0010
0100
0010
0100
0010
0000
0000
0000
1000
0000
0100
0000
1000
0000
0100
0010
0100
0000
0001
0000
,
1000
0000
0000
0000
0001
0000
0100
0000
0010
0000
1000
0000
0001
0000
0100
0000
0010
0000
1000
0000
0001
0000
0100
0000
0010
0000
1000
0001
1000
0000
0001
0000
,
1000
0000
0001
0000
1000
0000
0000
0000
0100
0000
0010
0000
1000
0000
0001
0100
0001
0100
0001
0000
1000
0000
0000
0000
0010
0000
0100
0000
0001
0000
1000
0000
,
0100
1000
0010
0100
0001
0000
0000
0000
0100
0000
0010
0000
1000
0000
0001
0100
0010
1000
0100
0010
0001
0100
0001
0000
1000
0000
0001
0000
0100
0000
0010
0000
,
1000
0001
0100
0001
1000
0010
0100
0001
1000
0010
0100
0001
0100
0010
1000
0001
,
0100
0000
0010
2000
3000
0000
0001
0000
0100
0000
0010
0000
1000
0000
0001
0000
0100
0000
0020
0000
0000
0000
0100
0030
1000
0000
0001
0000
1000
0000
0200
0000
,
1000
0000
0310
0000
0001
0000
0200
0000
0010
0000
0310
0000
0001
0000
0100
0000
1000
0000
0010
0000
0100
0000
0001
1000
0001
1000
0001
0000
1000
0000
0001
0000
,
0100
0000
0010
0000
0100
1000
0100
1000
0100
0000
0000
0000
0100
0000
0010
0000
1000
0000
0001
0000
0100
0010
0100
0010
0100
0010
0100
0010
0100
0000
0000
0000
,
0001
0000
1000
0000
0010
0000
0100
0001
0100
0001
0100
0001
0100
0000
0000
0000
1000
0000
0010
0000
0100
0000
0001
1000
0001
1000
0001
1000
0001
0000
0000
0000
,
1000
0000
0100
0000
1000
0000
0010
0100
0001
0100
0001
0100
0001
0000
0000
0000
1000
0000
0010
0000
0100
0000
0001
0100
0010
1000
0010
0100
0001
0000
0000
0000
,
1000
0000
0100
0000
0010
0000
0100
0001
0100
0010
1000
0010
1000
0100
1000
0000
0000
0000
0001
0000
0100
0000
0001
0000
0100
0000
0010
0000
1000
0000
0001
0000
,
0000
0100
0010
1000
0001
0100
0010
1000
0000
0001
0100
0010
1000
0001
0100
0010
,
1000
0000
0001
1000
0010
0100
0001
1000
0010
0100
0001
0100
0010
0100
0010
0100
,
0010
0001
1000
0001
1000
0001
1000
0001
1000
0010
0100
0001
1000
0001
0100
0010
,
1000
0000
0001
0000
0100
0000
0010
0000
1000
0000
0001
0000
0100
0000
0010
1000
0001
0000
0100
0000
0010
0000
1000
0001
0100
0010
0100
0000
0001
0000
1000
0000
,
0001
0100
0000
0010
0100
0010
0000
1000
0000
0001
0100
0000
0010
2000
3000
0000
0001
0000
0100
0010
0000
1000
0000
0001
0000
0100
0000
0010
0000
1000
0000
0001
,
0000
0100
0000
0010
0000
1000
0000
0001
0000
0100
0000
0010
0000
1000
0000
0001
0000
0000
0100
0000
0010
0000
1000
0000
0001
0000
0100
0000
0010
0000
1000
0000
,
0001
0100
0010
1000
0010
0100
0010
0100
0002
0103
0010
0100
1000
0001
0100
0010
,
1000
0001
0100
0010
1000
0001
0100
0010
1000
0001
0100
0010
1000
0010
0100
0001
,
1000
0010
0100
0010
1000
0001
0100
0000
1001
0000
0000
0000
0000
0000
0000
0000
;
