#TITLE:Antimatter;
#SUBTITLE:Astronomy (2006);
#ARTIST:Dragonland;
#TITLETRANSLIT:;
#SUBTITLETRANSLIT:;
#ARTISTTRANSLIT:;
#CREDIT:;
#BANNER:Antimatter bn.jpg;
#BACKGROUND:Antimatter bg.jpg;
#LYRICSPATH:;
#CDTITLE:omegaspike_revival_cdtitle.png;
#MUSIC:05_dragonland-antimatter-amrc.mp3;
#OFFSET:2.040;
#SAMPLESTART:46.400;
#SAMPLELENGTH:12.000;
#SELECTABLE:YES;
#BPMS:0.000=111.010,33.750=55.505,35.250=111.010,328.250=55.510,329.750=111.030;
#STOPS:;
#BGCHANGES:;
// cache tags:
#FIRSTBEAT:4.000;
#LASTBEAT:334.875;
#SONGFILENAME:Songs/Astronomic Metal Collection 2/(OMEGAspike) Antimatter/05_dragonland-antimatter-amrc.sm;
#HASMUSIC:1;
#HASBANNER:1;
#MUSICLENGTH:180.720;
// end cache tags

//---------------dance-single - ----------------
#NOTES:
     dance-single:
     :
     Hard:
     10:
     0.921,0.996,1.000,0.094,0.645,746.000,402.000,17.000,0.000,1.000:
0000
0000
0000
0000
,
1000
0100
1000
0100
0010
0100
0010
0001
0000
1000
1010
0000
0110
0000
0101
0000
,
1001
0000
0110
0000
0101
0000
1000
0100
0000
0001
0101
0000
0110
0000
1010
0000
,
1001
0000
0110
0000
1010
0000
0001
0010
0000
1000
1010
0000
0110
0000
0101
0000
,
1001
0000
0110
0000
0101
0000
1000
0100
0000
0001
0101
0000
0110
0000
1010
0000
,
1001
0000
0110
0000
1010
0100
0001
0010
0000
1000
1010
0000
0110
0000
0101
0000
,
1001
0000
0110
0000
0101
0000
1000
0100
0000
0001
0101
0000
0110
0000
1010
0000
,
1001
0000
0110
0000
1010
0000
0001
0010
0000
1000
1010
0000
0110
0000
0101
0000
,
1001
0000
0000
0000
0110
0000
0000
0000
0101
0000
0010
0000
1000
0000
0100
0000
0000
0001
0000
0001
0000
0001
0000
0001
0000
0001
0000
0010
0100
0000
1000
0000
,
0100
0010
0000
0001
0011
0000
0110
0000
1100
0000
0110
0000
0011
0000
0100
1000
,
0100
0001
1000
0000
0011
0000
1000
0000
0101
0000
0010
0000
1100
0010
0000
0100
,
1010
0000
1001
0000
0110
0000
1010
0000
0110
0000
0101
0000
1001
0000
0110
1000
,
0001
0100
0020
0000
1000
0000
2030
0000
0100
0000
3200
0000
0010
0000
0320
0000
,
0001
0000
0031
0000
1001
0000
0101
0000
1010
0000
0110
0000
1010
0000
1100
0010
,
0100
0001
1000
0000
0110
0000
0001
0000
1010
0000
0100
0000
1001
0010
0000
0010
,
1100
0000
0001
0000
1001
0000
0100
0000
1010
0000
0100
0000
1001
0010
0000
1000
,
0011
0000
1000
0000
0110
0000
0001
0000
1010
0000
0001
0000
0100
1000
0100
0010
,
0001
0010
2200
0000
0000
0000
0000
0000
0000
0000
0000
0000
0000
3300
0110
0011
,
0110
1100
0101
0000
0000
0001
0110
0000
0000
0000
1010
0000
0000
0100
0011
0000
,
0000
0000
1001
0000
0000
0010
1100
0000
0000
0000
0101
0000
0000
0001
1010
0000
,
0000
0000
1010
0000
0000
0100
1001
0000
0000
0000
0011
0000
0000
0010
0101
0000
,
0000
0000
1001
0000
0000
0010
1100
0000
0000
0000
0011
0000
0000
0100
1010
0000
,
0000
0000
1001
0001
0001
0001
0011
0010
0010
0010
0110
0110
0110
0110
1100
1100
,
1100
1100
0000
1000
1010
0000
0110
0000
0101
0000
1001
0000
0110
0000
0101
0000
,
1000
0100
0000
0001
0101
0000
0110
0000
1010
0000
1001
0000
0110
0000
1010
0000
,
0001
0010
0000
1000
1010
0000
0110
0000
0101
0000
1001
0000
0110
0000
0101
0000
,
1000
0100
0000
0001
0101
0000
0110
0000
1010
0000
1001
0000
0110
0000
1010
0100
,
0001
0010
0000
1000
1010
0000
0110
0000
0101
0000
1001
0000
0110
0000
0101
0000
,
1000
0100
0000
0001
0101
0000
0110
0000
1010
0000
1001
0000
0110
0000
1010
0000
,
0001
0010
0000
1000
1010
0000
0110
0000
0101
0000
1001
0000
0110
0000
0101
0000
,
1000
0100
0000
0001
0101
0000
0110
0000
1010
0000
1001
0000
0110
0000
1100
0010
,
0100
0011
0000
0000
1001
0000
0100
0010
0101
0000
1000
0000
0011
1000
0000
0001
,
1100
0000
0010
0000
0101
0000
1000
0001
1100
0000
0010
0000
0101
1000
0000
0001
,
0110
0000
1001
0000
0011
0000
0100
0001
1010
0000
0100
0000
1001
0010
0000
1000
,
0110
0000
1001
0000
1100
0000
0010
0100
1001
0000
0100
0000
0011
1000
0000
0010
,
1001
0000
1001
0000
0100
0000
0001
0010
1100
0000
0011
0000
1010
0200
0000
0010
,
0010
0000
0310
0000
1001
0000
0100
0000
1010
0000
0001
0000
0110
1000
0000
0001
,
0110
0000
1001
0000
0011
0000
0100
0000
1001
0000
0010
0000
1100
0010
0000
0100
,
0011
0000
1001
0000
0110
0000
1000
0000
0110
0000
0011
0101
0110
1010
0011
0101
,
0110
1010
0001
0000
0000
0000
0110
0000
0000
0000
1000
0000
0000
0000
0011
0000
,
0000
1000
0000
0110
0000
0001
0000
1100
,
0100
0010
0101
0000
0000
0000
1010
0000
0000
0000
0100
0000
0000
0000
0011
0000
,
0000
1000
0000
0110
0000
0001
0000
1001
,
0100
0010
1100
0000
0000
0000
0110
0000
0000
0100
0010
0001
0100
0000
1010
0000
,
0000
0000
1100
0000
0000
0000
0110
0000
0000
0000
0011
0011
0011
0011
0110
0110
,
0110
0110
0000
0001
0101
0000
0110
0000
1010
0000
1001
0000
0110
0000
1010
0000
,
0001
0010
0000
1000
1010
0000
0110
0000
0101
0000
1001
0000
0110
0000
0101
0000
,
1000
0100
0000
0001
0101
0000
0110
0000
1010
0000
1001
0000
0110
0000
1010
0000
,
0001
0010
0000
1000
1010
0000
0110
0000
0101
0000
1001
0000
0110
0000
0101
0010
,
1000
0100
0000
0001
0101
0000
0110
0000
1010
0000
1001
0000
0110
0000
1010
0000
,
0001
0010
0000
1000
1010
0000
0110
0000
0101
0000
1001
0000
0110
0000
0101
0000
,
1000
0100
0000
0001
0101
0000
0110
0000
1010
0000
1001
0000
0110
0000
1010
0000
,
0001
0010
0000
1000
1010
0000
0110
0000
0101
0000
1001
0000
0110
0000
0011
0100
,
0010
1100
0000
1100
0110
0000
0011
0000
0101
0000
0110
0000
1010
0000
1001
0000
,
0101
0110
0000
0110
1010
0000
1001
0000
1100
0000
0110
0000
0011
0000
0101
0000
,
1010
1100
0000
0110
0011
0000
0101
0000
0011
0000
1001
0000
0110
0000
1100
0000
,
0110
0011
0000
0110
1100
0000
0110
0000
0011
0000
0101
0000
1010
0000
0100
1000
,
0100
0011
0000
0110
1100
0000
0110
0000
0011
0000
0101
0000
0110
0000
0010
0001
,
0010
1100
0000
0110
0011
0000
0110
0000
1010
0000
1001
0000
0101
0000
0001
0010
,
0100
1100
0000
0011
1100
0000
1001
0000
0110
0000
1010
0000
0101
0000
0010
0100
,
1000
1100
0000
0110
0011
0000
0110
0000
1010
0000
0110
0000
0101
0010
1000
0001
,
0100
0010
0002
0000
0000
0000
0000
0000
0000
0000
0000
0000
0000
0000
0103
1000
,
0100
0010
0001
0000
0100
0000
0010
0000
1000
0000
0200
0000
0000
0000
0000
0000
,
0000
0300
0010
0002
0000
0000
0000
0000
0000
0000
0000
0000
0000
0000
0013
0100
,
1000
0000
0000
0000
0000
0000
0000
0000
0000
0000
0000
0000
0001
0000
0000
0000
0000
0000
0000
0000
0000
0000
0000
0000
0100
0000
0000
0000
0000
0000
0000
0000
0010
0000
0000
0000
0000
0000
0000
0000
1000
0000
0000
0000
0000
0000
0000
0000
0001
0000
0000
0000
0000
0000
0000
0000
0100
0000
0000
0000
0000
0000
0000
0000
0001
0000
0000
0000
0000
0000
0000
0000
1000
0000
0000
0000
0000
0000
0000
0000
0100
0000
0000
0000
0000
0000
0000
0000
0010
0000
0000
0000
0000
0000
0000
0000
0001
0000
0000
0000
0000
0000
0000
0000
1000
0000
0000
0000
0000
0000
0000
0000
0001
0000
0000
0000
0000
0000
0000
0000
0010
0000
0000
0000
0000
0000
0100
0000
0000
0000
0000
0000
1000
0000
0000
0000
0000
0000
0100
0000
0000
0000
0000
0000
0010
0000
0000
0000
0000
0000
0000
0000
0001
0000
0000
0000
0000
0000
0000
0000
0100
0000
0000
0000
0000
0000
0000
0000
0001
0000
0000
0000
0000
0000
0000
0000
1000
0000
0000
0000
0000
0000
0000
0000
0001
0000
0000
0000
0000
0000
0000
0000
,
0100
0000
0000
0000
0000
0000
0000
0000
0010
0000
0000
0000
0000
0000
0000
0000
1000
0000
0000
0000
0000
0000
0000
0000
0001
0000
0000
0000
0000
0000
0010
0000
0000
0000
0000
0000
0100
0000
0000
0000
0000
0000
0000
0000
0000
0000
0000
0000
1000
0000
0000
0000
0000
0000
0000
0000
0000
0000
0000
0000
0001
0000
0000
0000
0000
0000
0000
0000
0000
0000
0000
0000
1000
0000
0000
0000
0000
0000
0000
0000
0000
0000
0000
0000
0001
0000
0000
0000
0000
0000
0000
0000
0000
0000
0000
0000
0100
0000
0000
0000
0000
0000
0000
0000
0000
0000
0000
0000
0001
0000
0000
0000
0000
0000
0000
0000
0000
0000
0000
0000
1000
0000
0000
0000
0000
0000
0000
0000
0000
0000
0000
0000
0001
0000
0000
0000
0000
0000
0000
0000
0000
0000
0000
0000
1000
0000
0000
0000
0000
0000
0000
0000
0000
0000
0000
0000
0001
0000
0000
0000
0000
0000
0000
0000
0000
0000
0000
0000
0100
0000
0000
0000
0000
0000
0000
0000
0000
0000
0000
0000
0001
0000
0000
0000
0000
0000
0000
0000
0000
0000
0000
0000
,
1000
0001
0010
1000
0100
1000
0100
1000
0010
1000
0100
1000
0100
1000
0010
1000
,
0100
1000
0002
0000
0000
0000
0000
0000
0000
0000
0000
0000
0000
0000
0000
0000
,
0013
0100
0010
0200
0000
0000
0000
0000
0000
0000
0000
0000
0000
0000
0000
2300
0000
0000
0000
0000
0000
3020
0000
0000
,
0000
0000
0230
0000
0000
0000
0000
0000
0000
0000
0000
0000
0000
0000
0311
0011
,
0100
1000
1010
0000
0000
1000
0110
0000
0000
0000
0101
0000
0000
0010
1100
0000
,
0000
0000
1001
0000
0000
0100
0011
0000
0000
0000
1010
0000
0000
1000
0101
0000
,
0000
0000
0101
0000
0000
0010
1001
0000
0000
0000
1100
0000
0000
0100
1010
0000
,
0000
0000
1001
0000
0000
0100
0011
0000
0000
0000
1100
0000
0000
0010
0101
0000
,
0000
0000
1001
1000
1000
1000
1100
0100
0100
0100
0110
0110
0110
0110
0011
0011
,
0011
0011
0000
0001
0101
0000
0110
0000
1010
0000
1001
0000
0110
0000
1010
0000
,
0001
0010
0000
1000
1010
0000
0110
0000
0101
0000
1001
0000
0110
0000
0101
0000
,
1000
0100
0000
0001
0101
0000
0110
0000
1010
0000
1001
0000
0110
0000
1010
0000
,
0001
0010
0000
1000
1010
0000
0110
0000
0101
0000
1001
0000
0110
0000
0101
0010
,
1000
0100
0000
0001
0101
0000
0110
0000
1010
0000
1001
0000
0110
0000
1010
0000
,
0001
0010
0000
1000
1010
0000
0110
0000
0101
0000
1001
0000
0110
0000
0101
0000
,
1000
0100
0000
0001
0101
0000
0110
0000
1010
0000
1001
0000
0110
0000
1010
0000
,
0001
0000
0010
0000
0000
1000
0000
1000
0000
1000
0000
1000
0000
1000
0000
0100
0011
0000
0110
0000
1100
0000
0022
0000
0000
0000
0000
0000
0000
0000
0000
0000
,
0000
0000
0000
0000
0000
0000
0000
0000
0000
0000
0000
0033
0000
0000
0000
0000
;

//---------------dance-single - ----------------
#NOTES:
     dance-single:
     :
     Challenge:
     11:
     1.000,1.000,1.000,1.000,1.000,1161.000,513.000,279.000,193.000,90.000:
0000
0000
0000
0000
,
0011
0110
1100
1100
0011
0110
1100
0210
00M0
1300
0021
1030
0021
1030
0021
1030
,
0021
0000
1030
0000
0021
0000
1030
0000
0021
0000
1030
0000
0021
0030
0210
0000
00M0
0000
1300
0000
0021
0000
1030
0000
0021
0000
1030
0000
0021
0000
1030
0000
,
0021
1030
0021
1030
0021
1030
0021
1230
M000
1300
0102
1003
0102
1003
0102
1003
,
0102
1003
0102
1003
0102
1003
0102
1023
M000
1030
0210
1300
0210
1300
0210
1300
,
0210
1300
0210
1300
0010
0100
0011
1200
M000
1300
0102
1003
0102
1003
0102
1003
,
0102
1003
0102
1003
0102
1003
0102
1023
M000
1030
0102
1003
0102
1003
0102
1003
,
0102
1003
0102
1003
0102
1003
0102
0213
00M0
1300
0021
1030
0021
1030
0021
1030
,
0021
0000
0000
0000
0000
0000
0000
0000
0000
0000
0000
0000
1030
0000
0000
0000
0000
0000
0000
0000
0000
0000
0000
0000
0021
0000
0000
0000
0000
0000
0000
0000
0000
0000
0000
0000
1030
0000
0000
0000
0000
0000
0000
0000
0000
0000
0000
0000
0010
0000
0000
0000
0000
0000
0000
0000
0000
0000
0000
0000
0100
0000
0000
0000
0000
0000
0000
0000
0000
0000
0000
0000
0011
0000
0000
0000
0000
0000
0000
0000
0000
0000
0000
0000
2100
0000
0000
0000
0000
0000
0000
0000
0000
0000
0000
0000
30M0
0000
0000
0000
0000
0000
0002
0000
0000
0000
0000
0000
00M3
0000
0000
0000
0000
0000
0002
0000
0000
0000
0000
0000
00M3
0000
0000
0000
0000
0000
0002
0000
0000
0000
0000
0000
00M3
0000
0000
0000
0000
0000
0002
0000
0000
0000
0000
0000
00M3
0000
0000
0000
0000
0000
0002
0000
0000
0000
0000
0000
1003
0000
0000
0000
0010
0000
0000
0000
0100
0000
0000
0000
0011
0000
0000
0000
0000
0000
0000
0000
0000
0000
0000
0000
0101
0000
0000
0000
0000
0000
0000
0000
0000
0000
0000
0000
,
0011
1200
M000
1300
0011
0000
0110
0000
1010
0000
0110
0000
0011
0000
2000
3020
,
1230
M302
0023
0030
1001
0000
0100
0000
1001
0000
0010
0000
1100
0010
2000
3200
,
1320
M032
0223
0330
0011
0000
0110
0000
1010
0000
0101
0000
1010
0100
2000
3200
,
1320
M032
0213
0300
0011
0000
0100
0000
1010
0000
0100
0000
1010
0001
00M0
0100
,
0011
0000
1001
0000
0110
0000
1010
0000
1001
0000
0101
0000
0011
0000
2000
3200
,
1320
M032
0113
0000
1001
0000
0010
0000
0101
0000
0010
0000
1100
0010
M000
0100
,
0011
0000
1001
0000
0101
0000
0010
0000
1100
0000
0010
0000
1001
0100
000M
0010
,
1001
0000
0110
0000
0101
0000
0010
0000
1100
0000
0010
0000
1001
0000
0001
0100
,
0010
1000
0110
0001
0010
0001
0010
0001
0010
0001
0010
0001
0010
0001
1010
1001
,
1010
1001
1010
0100
0010
0100
1011
0100
0010
0100
1010
0100
0010
0100
1011
0100
,
0010
0100
1010
0100
0010
0100
1011
0100
0010
0100
1010
0100
0010
0100
1010
0001
,
0010
0001
1010
0100
1000
0100
1011
0100
1000
0100
1010
0100
1000
0100
1011
0100
,
1000
0100
1010
0100
1000
0100
1011
0100
1000
0100
1010
0100
1000
0100
1011
0100
,
0001
0100
1010
0100
1000
0100
1011
0100
1000
0100
0011
0110
1100
1100
0011
0110
,
1100
0210
00M0
1300
0011
0100
1001
0010
0101
1000
0110
1000
0101
0010
1100
0010
,
0101
1200
M000
1300
0011
0100
1001
0010
1100
0010
1001
0100
0011
0100
1001
0010
,
1100
0210
00M0
1300
0011
0100
0011
1000
0011
0100
0011
1000
0101
0010
0101
1000
,
0110
2100
0M00
3100
1010
0100
1001
0100
1001
0010
0101
0010
1100
0010
1000
0100
,
0011
2100
0M00
3010
0101
0010
1001
0010
1100
0010
0101
1000
0101
1000
0011
0100
,
0011
1200
M010
1300
0110
1000
0011
0100
1001
0010
0101
0010
1100
0010
1100
0001
,
0110
2100
0M00
3100
0011
0100
0011
1000
0110
1000
0011
1000
0110
1000
0101
0010
,
0101
1200
M000
0310
1100
0010
1100
0001
0110
0001
0110
1000
0011
1000
0100
0010
,
0001
0210
00M0
1300
0011
0M00
1000
0M00
0011
0M00
1000
0M00
0011
1000
0M00
1000
,
0011
0M00
1000
0M00
0011
0M00
1000
0M00
0011
0M00
1000
0M00
0011
1000
0M00
1000
,
0011
0M00
10M1
0M00
0011
0M00
1000
0M00
0011
0M00
1000
0M00
0011
1000
0M00
1000
,
0011
M000
01M1
M000
0011
0M00
1000
0M00
0011
0M00
1000
0M00
0011
1000
0M00
1000
,
0011
0M00
10M1
0M00
0011
0M00
1000
0M00
0011
0M00
1000
0M00
0011
2000
3200
1000
,
0011
0000
1310
0000
1001
0000
0100
0000
1001
0000
0100
0000
1001
0010
000M
0100
,
1001
0000
0011
0000
0101
0000
0010
0000
1100
0000
0010
0000
1100
0001
M000
0010
,
0101
0000
1010
0000
1001
0000
0010
0000
0101
0000
0001
0100
0010
1000
0001
0100
,
0010
1000
0110
0001
0010
0001
1110
0001
0010
0001
0110
0001
0010
0001
1110
0001
,
0010
0001
1100
0010
0100
0010
1101
0010
0100
0010
1100
0010
0100
0010
1101
0010
,
0101
0011
1100
0010
0100
0010
1101
0010
0100
0010
1100
0010
0100
0010
1101
0010
,
0001
0010
1001
0100
1000
0100
1011
0100
1000
0100
1001
0100
1000
0100
1011
0100
,
1001
0110
1001
0100
1000
0100
1011
0100
1000
0100
1001
0100
1000
0100
1011
0100
,
0001
0000
0100
0000
2022
0000
0000
3033
0MM0
0000
0000
0000
0M00
0M00
0M00
0M00
0M00
0000
0000
0000
0011
0000
0110
0000
1100
0000
1100
0000
0011
0000
0110
0000
,
1100
1020
M000
0130
1001
0010
0101
0010
1100
0001
0110
0001
1100
0010
0101
0010
,
1001
1200
M000
1300
0011
0100
1001
0010
1100
0010
1001
0100
0011
0100
0011
1000
,
0110
1020
M000
0130
0011
0100
0011
1000
0011
1000
0101
0010
0101
0010
1100
0010
,
0110
2100
0M00
3001
1100
0001
0110
0001
1100
0010
1100
0010
0101
0010
1000
0100
,
0010
2100
0M00
3010
0101
1000
0101
1000
0011
1000
0110
1000
0011
0100
1001
0010
,
1100
0120
0M01
1030
0110
1000
0101
1000
0011
0100
1001
0010
0101
1000
0110
0001
,
1010
0120
0M00
0130
0011
1000
0011
0100
0011
1000
0110
1000
0101
0010
0101
1000
,
0011
1200
M000
0310
1100
0001
1100
0010
0101
0010
1100
0001
0110
1000
0100
0010
,
1001
0000
0210
00M0
0000
00M0
1300
0000
0102
0000
0013
0000
1002
0000
1003
0000
0012
0000
0103
0000
1002
0000
1003
0000
0012
0000
0103
0000
1002
0000
1003
0000
,
0012
0000
0213
00M0
0000
00M0
2300
0000
3012
0000
0103
0000
1002
0000
1003
0000
0012
0000
0103
0000
1002
0000
1003
0000
0012
0000
0103
0000
1002
0000
1003
0000
,
0021
0000
2031
000M
0000
000M
3100
0000
0012
0000
0103
0000
1002
0000
1003
0000
0012
0000
0103
0000
1002
0000
1003
0000
0012
0000
0103
0000
1002
0000
1003
0000
,
0021
0000
1230
M000
0000
M000
0320
0000
2130
0000
3001
0000
2010
0000
3010
0000
2100
0000
3001
0000
2010
0000
3010
0000
2100
0000
3001
0000
20M0
0000
320M
0000
,
0321
0000
0230
00M0
1001
00M0
2300
0000
3201
0000
0310
0000
1200
0000
1300
0000
0201
0000
0310
0000
1200
0000
1300
0000
0201
0000
0310
0000
M200
0000
032M
0000
,
1032
0000
0023
0M00
0001
M000
0230
0000
0321
0000
1030
0000
0120
0000
0130
0000
0021
0000
1030
0000
0120
0000
0130
0000
0021
0000
1030
0000
02M0
0000
M320
0000
,
0132
0000
2003
0M00
0010
000M
3200
0000
2301
0000
3010
0000
2100
0000
3100
0000
2010
0000
3001
0000
2100
0000
3100
0000
2010
0000
3001
0000
20M0
0000
320M
0000
,
0321
0000
0230
00M0
1001
00M0
2300
0000
3210
0000
1300
0000
0201
0000
0301
0000
0210
0000
1300
0000
0201
0000
0301
0000
0110
0000
0110
0000
1010
0000
1010
0000
,
1100
1100
0021
0M00
1001
0000
0100
0M00
1001
0000
0100
0M00
1001
0030
M002
0203
,
0321
2030
3020
0001
1230
0000
2300
0M00
3012
0000
0023
0000
1100
0000
0001
0001
,
1130
0000
0000
0000
0000
0000
0200
0000
0000
0320
0000
0000
1001
0000
0000
0000
0000
0000
0100
0000
0000
0M00
0000
0000
1001
0000
0000
0000
0000
0000
0100
0000
0000
0M00
0000
0000
1001
0000
0000
0030
0000
0000
1000
0000
0100
0000
0010
0000
,
1000
0000
0000
0000
0000
0000
0000
0000
0100
0000
0000
0000
0000
0000
0000
0000
0010
0000
0000
0000
0000
0000
0000
0000
0001
0000
0000
0000
0000
0000
0100
0000
0000
0000
0000
0000
0010
0000
0000
0000
0000
0000
0001
0000
0000
0000
0000
0000
1000
0000
0000
0000
0000
0000
0000
0000
0100
0000
0000
0000
0000
0000
0000
0000
0010
0000
0000
0000
0000
0000
0000
0000
0001
0000
0000
0000
0010
0000
0000
0000
0100
0000
0000
0000
0000
0000
0000
0000
0001
0000
0000
0000
0010
0000
0000
0000
0100
0000
0000
0000
0000
0000
0000
0000
1000
0000
0000
0000
0100
0000
0000
0000
0010
0000
0000
0000
0000
0000
0000
0000
1000
0000
0000
0000
0000
0000
0100
0000
0000
0000
0000
0000
0010
0000
0000
0000
0001
0000
0000
0000
0010
0000
0000
0000
0100
0000
0000
0000
0000
0000
1000
0000
0000
0000
0000
0000
0100
0000
0000
0000
0000
0000
0010
0000
0000
0000
0000
0000
0100
0000
0000
0000
0000
0000
0010
0000
0000
0000
0000
0000
0001
0000
0000
0000
0000
0000
0010
0000
0000
0000
0000
0000
,
0100
1000
0100
0010
0002
0000
0203
0000
2301
0000
3020
0000
2030
0000
3200
0000
0312
0000
0203
0000
2300
0000
3020
0000
2031
0000
3200
0000
0302
0000
0203
0000
,
2310
3200
0302
0023
2031
3200
2300
3020
0132
0023
2030
3200
2301
3020
0032
0203
,
1320
0000
0000
2030
0000
0000
3012
0000
0000
0000
0000
0000
1100
0000
0000
00M0
0000
0000
0100
0000
0000
00M0
0000
0000
1100
0000
0000
00M0
0000
0000
0100
0000
0000
00M0
0000
0000
1100
0000
0000
00M0
0000
0000
0100
0000
0000
00M0
0003
0000
,
1100
0000
0010
0000
0100
0000
2000
0000
0000
0M01
0000
0000
0011
0000
0000
0M00
0000
0000
0001
0000
0000
0M00
0000
0000
0011
0000
0000
3M00
0000
0000
0020
0000
0000
0M00
0000
0000
1001
0000
0000
0030
0000
0000
0200
0000
0000
00M0
0000
0000
,
1001
03M0
0210
0001
0010
0001
0010
0001
0010
0001
0010
0001
0010
0001
1010
1001
,
1310
1001
1100
0010
0100
0010
1101
0010
0100
0010
1100
0010
0100
0010
1101
0010
,
0100
0010
1100
0010
0100
0010
1101
0010
0100
0010
1100
0010
0100
0010
1101
0010
,
0001
0010
1001
0100
1010
0100
1011
0110
1000
0100
1010
0100
1010
0100
1011
0100
,
1000
0100
1001
0100
1000
0100
1011
0100
1000
0100
1001
0100
1000
0100
1011
0100
,
0001
0000
0100
0000
1010
0000
0100
0000
1000
0000
0100
0000
1011
0000
0100
0000
1000
0000
0100
0000
0011
0000
0110
0000
1100
0000
1100
0000
0011
1100
0011
0000
,
0101
0210
00M0
1300
0021
1030
0021
1030
0021
1030
0021
1030
0021
1030
0021
1030
,
0021
0030
0210
0000
00M0
0000
1300
0000
0021
0000
1030
0000
0021
0000
1030
0000
0021
0000
1030
0000
0021
0000
1030
0000
0021
0000
1030
0000
0021
0000
1030
0000
,
0021
1230
M000
1300
0102
1003
0102
1003
0102
1003
0102
1003
0102
1003
0102
1003
,
0102
1023
M000
1030
0210
1300
0210
1300
0210
1300
0210
1300
0210
1300
0010
0100
,
0011
1200
M000
1300
0102
1003
0102
1003
0102
1003
0102
1003
0102
1003
0102
1003
,
0102
1023
M000
1030
0102
1003
0102
1003
0102
1003
0102
1003
0102
1003
0102
1003
,
0102
0213
00M0
1300
0021
1030
0021
1030
0021
1030
0021
1030
0021
1030
0010
0100
,
0011
0000
0000
0000
0000
0000
0000
0000
0000
0000
0000
0000
2100
0000
0000
0000
0000
0000
0000
0000
0000
0000
0000
0000
3M00
0000
0000
0000
0000
0000
0002
0000
0000
0000
0000
0000
0M03
0000
0000
0000
0000
0000
0002
0000
0000
0000
0000
0000
0M03
0000
0000
0000
0000
0000
0002
0000
0000
0000
0000
0000
0M03
0000
0000
0000
0000
0000
0002
0000
0000
0000
0000
0000
0M03
0000
0000
0000
0000
0000
0002
0000
0000
0000
0000
0000
1003
0000
0000
0000
0000
0000
0000
0000
0100
0000
0000
0000
M011
0000
0000
0000
0000
0000
0000
0000
0000
0000
0000
0000
1M1M
0000
0000
0000
0000
0000
0000
0000
0000
0000
0000
0000
M1M1
0000
0000
0000
0000
0000
0000
0000
0000
0000
0000
0000
1MM1
0000
0000
0000
0000
0000
0000
0000
0000
M000
0000
0000
0MM0
0000
0000
000M
0000
0000
M000
0000
0000
0000
0000
0000
0MM0
0000
0000
0000
0000
0000
000M
0000
0000
0000
0000
0000
0MM0
0000
0000
0000
0000
0000
M000
0000
0000
0000
0000
0000
0MM0
0000
0000
0000
0000
0000
000M
0000
0000
0000
0000
0000
,
0MM0
M000
0MM0
000M
0MM0
M000
0MM0
000M
0MM0
M000
0MM0
000M
0MM0
M000
0MM0
000M
0MM0
M000
0MM0
000M
0MM0
M000
0M00
M000
0000
0000
0000
0000
0000
0000
0000
0000
;
