#TITLE:桜;
#SUBTITLE:( Advanced step );
#ARTIST:Holicky;
#TITLETRANSLIT:sakura;
#SUBTITLETRANSLIT:steps by quick;
#ARTISTTRANSLIT:;
#CREDIT:;
#BANNER:SAKURA.png;
#BACKGROUND:SAKURA-bg.png;
#LYRICSPATH:;
#CDTITLE:cd.png;
#MUSIC:SAKURA.mp3;
#OFFSET:-0.063;
#SAMPLESTART:38.340;
#SAMPLELENGTH:12.000;
#SELECTABLE:YES;
#BPMS:0.000=300.000,192.000=150.000,202.000=135.440,203.000=126.850,204.000=117.650,205.000=89.000,206.000=46.220,207.000=23.010,208.000=150.000,240.000=80.000,241.000=160.000,242.000=320.000,404.000=301.500,406.000=269.660,408.000=250.520,410.000=219.780,411.000=173.910,412.000=137.610,414.000=88.880;
#STOPS:;
#BGCHANGES:;
// cache tags:
#FIRSTBEAT:32.000;
#LASTBEAT:415.500;
#SONGFILENAME:Songs/toune 2/Sakura/sakura.sm;
#HASMUSIC:1;
#HASBANNER:1;
#MUSICLENGTH:99.160;
// end cache tags

//---------------dance-single - Challenge----------------
#NOTES:
     dance-single:
     Challenge:
     Challenge:
     9:
     0.795,1.000,0.494,0.232,0.055,479.000,49.000,23.000,0.000,0.000:
0000
0000
0000
0000
,
0000
0000
0000
0000
,
0000
0000
0000
0000
,
0000
0000
0000
0000
,
0000
0000
0000
0000
,
0000
0000
0000
0000
,
0000
0000
0000
0000
,
0000
0000
0000
0000
,
1001
0000
1000
0100
0010
0000
0001
0000
,
1000
0010
1000
0001
1000
0000
0010
0000
,
0110
0000
0001
0010
0100
0000
1000
0000
,
0001
0100
0001
1000
0001
0000
0100
0000
,
1001
0000
1000
0100
0010
0001
0100
0000
,
1001
0000
0001
0100
0010
1000
0100
0000
,
0110
0000
0000
1001
0000
0000
0110
0000
,
1000
0100
0010
0001
1000
0010
1000
0000
,
0002
1003
0002
0103
,
0002
1003
0002
0103
,
0002
1003
0002
0103
,
2000
0000
0000
0000
0000
3000
0000
0000
,
1000
0100
0000
0000
0001
0100
0000
0000
,
2010
3000
0001
0000
,
0010
0100
0000
0000
1000
0000
0100
0000
,
1000
0000
0001
0100
0001
0000
0000
0000
,
1100
0000
1000
0100
0010
0000
0001
0000
,
0011
0000
0001
0010
0001
0000
1000
0000
,
1100
0000
1000
0001
0100
0000
0010
0000
,
0110
0000
0100
0010
0100
0000
0001
0000
,
0010
0001
0000
0000
0001
0100
0000
0000
,
0100
1000
0000
0000
0100
0000
0000
0000
,
2000
3000
0200
0310
,
2000
0000
3001
0100
0001
0000
0000
0000
,
0101
0000
0001
0100
0001
0000
0001
0100
,
1000
0100
1100
0000
,
1100
0000
1000
0100
1000
0000
1000
0100
,
0001
0100
0101
0000
,
1000
0100
0000
0000
0100
0001
0000
0000
,
0001
1000
0000
0000
0220
0000
0330
0000
,
0002
0000
0003
0000
0020
0030
0200
0300
,
2000
3000
0001
0000
0001
0000
0001
0000
,
0011
0000
0001
0100
0001
0000
0100
0001
,
0100
0000
0010
1000
1010
0000
0000
0000
,
1001
0000
1000
0100
1000
0000
0100
1000
,
0100
0000
0010
0001
0011
0000
0000
0000
,
0012
0000
0003
0100
1000
0000
0000
0000
,
2100
0000
3000
0100
0001
0000
0000
0000
,
1010
0000
1000
0010
0100
0000
0001
0000
,
0101
0110
1010
0110
,
0001
1000
0100
0010
0001
0100
0010
0100
,
0001
1000
0100
0010
0001
0100
0010
0100
,
0001
0010
0100
1000
0010
0100
0010
1000
,
0001
0000
0000
0000
0000
0000
0100
0000
0000
0000
0000
0000
0010
0000
0000
0000
0000
0000
1000
0000
0000
0000
0000
0000
0200
0000
0000
0000
0000
0000
0000
0000
0000
0000
0000
0000
0000
0003
0000
0000
0000
0000
0000
0000
0300
0000
0000
0000
,
0101
0100
1000
0010
0100
1000
0001
0010
,
0100
0010
0001
0010
0100
1000
0001
0010
,
0110
0100
1000
0100
0010
0100
0001
0100
,
0100
0010
0100
0001
2000
0000
3000
0000
,
0011
0000
0001
0010
0001
0000
0000
0010
0100
0000
0000
0100
0010
0000
0100
0000
,
0110
0000
0100
1000
0100
0000
0000
1000
0100
0000
0000
0100
0010
0000
0100
0000
,
1001
0000
0001
0100
0010
0000
0000
0100
0001
0000
0000
0001
1000
0000
0010
0000
,
0110
0000
0100
1000
0100
0000
0010
0000
0001
0000
0010
0000
1000
0000
2010
0000
,
0000
0000
0000
0000
0000
0000
0000
3000
,
0001
0000
0100
0000
0010
1000
0010
0000
,
1000
0000
0100
0000
0010
0001
0010
0000
,
0001
0000
1000
0000
0010
0100
0010
0000
,
1000
0000
0100
0000
0001
0100
1000
0100
,
0010
0000
0001
0000
1000
0100
0001
0000
,
0100
0000
1000
0000
0001
0100
1000
0000
,
1000
0100
1000
0000
0100
0010
0100
0000
,
0001
0000
0010
0100
0000
0100
0010
0000
,
0011
0010
0110
0100
,
1100
0000
1000
0000
0001
0100
0010
0000
,
1010
0010
0110
0100
,
0101
0000
0001
0000
0010
0100
0010
0001
,
0010
0001
0100
1000
,
0001
0010
1000
0001
,
1000
0100
1000
0000
0010
0001
0010
0000
,
1000
0001
0100
0010
1000
0100
0010
0000
,
1001
0000
0001
0100
0010
0000
1000
0000
,
0100
0010
0110
0000
,
1001
0000
1000
0100
0010
0000
0001
0000
,
0100
0010
0010
0000
,
1000
0100
0001
0100
,
1000
0100
0010
0100
,
0001
0001
0100
1000
,
0010
0100
0100
0100
,
0001
0100
0010
0000
1000
0000
0100
0000
,
0001
0100
0101
0000
,
0001
0100
1000
0000
0010
0000
0100
0000
,
0001
0100
0100
0000
,
0010
0100
0001
0100
,
0010
0100
0001
0100
,
1000
1000
0100
0001
,
0010
0100
0100
0000
,
1000
0010
0100
0001
0010
0000
0100
0000
,
1000
0001
0100
0010
1000
0000
0100
0000
,
0010
0001
0010
0100
1000
0000
0100
0000
,
1000
0100
0001
0100
0010
0000
0001
0000
,
0010
0100
0010
0000
0001
0100
0001
1000
,
0100
0001
1000
0010
0001
0100
1000
0000
,
0110
0000
0001
0000
0000
1000
0100
0000
,
0110
0000
0000
1000
0000
0000
1010
0000
,
0001
0100
0010
1000
0001
1000
0100
0010
,
1000
0010
0001
0100
0010
0001
1000
0100
,
0101
0010
1000
0010
0100
0002
0010
0003
;

//---------------dance-double - challenge----------------
#NOTES:
     dance-double:
     challenge:
     Challenge:
     10:
     0.764,1.000,0.413,0.282,0.061,461.000,41.000,28.000,0.000,0.000:




















00000000
00000000
00000000
00000000
,
00000000
00000000
00000000
00000000
,
00000000
00000000
00000000
00000000
,
00000000
00000000
00000000
00000000
,
00000000
00000000
00000000
00000000
,
00000000
00000000
00000000
00000000
,
00000000
00000000
00000000
00000000
,
00000000
00000000
00000000
00000000
,
00100100
00000000
00010000
00001000
00000100
00000000
00000010
00000000
,
00010000
00010000
00010000
00000000
,
00010010
00000000
00000010
00000100
00001000
00000000
00010000
00000000
,
00000010
00000010
00000010
00000000
,
00010010
00000000
00001000
00000100
00000000
00000010
00000001
00000000
,
00001001
00000000
00000001
00000100
00000000
00000010
00001000
00000000
,
00000001
00000000
00000000
00001000
00000000
00000000
00000110
00000000
,
00001000
00000100
00000010
00000001
00001000
00000000
00001010
00000000
,
00000002
00000023
00000000
00000000
00000000
00000000
00000000
00000000
00000000
00000000
00000000
00000000
00010030
00000000
00000000
00000000
00000000
00000000
00000000
00000000
00000000
00000000
00000000
00000000
00000020
00000000
00000000
00000000
00000000
00000000
00000000
00000000
00000000
00000000
00000000
00000000
00001030
00000000
00000000
00000000
00000000
00000000
00000000
00000000
00000000
00000000
00000000
00000000
,
00000020
00010030
00000020
00001030
,
00000020
00010030
00000020
00001030
,
00002020
00000000
00000000
00003030
,
00010000
00010000
00000000
00000000
00000100
00010000
00000000
00000000
,
00200000
00300000
00000100
00000000
,
00001000
00010000
00000000
00000000
00100000
00000000
00010000
00000000
,
00100000
00000000
00000100
00010000
00000100
00000000
00000000
00000000
,
00110000
00000000
01000000
00100000
00010000
00000000
00001000
00000000
,
00011000
00000000
00001000
00010000
00100000
00000000
01000000
00000000
,
01100000
00000000
01000000
00001000
00100000
00000000
00010000
00000000
,
00110000
00000000
00100000
00001000
01000000
00000000
00100000
00000000
,
00010000
00010000
00000000
00000000
00010000
01000000
00000000
00000000
,
01000000
10000000
00000000
00000000
01000000
00000000
00000000
00000000
,
20000000
30000000
00020000
01030000
,
00200000
00000000
10300000
01000000
10000000
00000000
00000000
00000000
,
01010000
00000000
00001000
00100000
00001000
00000000
00001000
00100000
,
01000000
00100000
01100000
00000000
,
01100000
00000000
01000000
00100000
01000000
00000000
01000000
00100000
,
00001000
00100000
00101000
00000000
,
01000000
00010000
00000000
00000000
00010000
00000100
00000000
00000000
,
00000100
00100000
00000000
00000000
00022000
00000000
00033000
00000000
,
00000200
00000000
00000300
00000000
00002000
00003000
00020000
00030000
,
00200000
00300000
00000100
00000000
00000100
00000000
00000100
00000000
,
00001100
00000000
00000010
00001000
00000010
00000000
00001000
00000000
,
00000100
00010000
00010100
00000000
,
00010010
00000000
00010000
00001000
00010000
00000000
00001000
00000000
,
00000100
00000010
00000110
00000000
,
00000020
00000032
00000000
00000000
00000000
00000000
00000000
00000000
00000000
00000000
00000000
00000000
00000003
00000000
00000000
00000000
00000000
00000000
00000100
00000000
00000000
00000000
00000000
00000000
00001000
00000000
00000000
00000000
00000000
00000000
00000000
00000000
00000000
00000000
00000000
00000000
00000000
00000000
00000000
00000000
00000000
00000000
00000000
00000000
00000000
00000000
00000000
00000000
,
00002000
00000000
00003000
00000100
00000001
00000000
00000000
00000000
,
00001000
00000100
00001000
00000010
00000100
00000000
00000001
00000000
,
00000101
00000110
00001010
00000110
,
00000001
00010000
00001000
00000100
00000010
00001000
00000100
00001000
,
00000010
00010000
00001000
00000100
00000010
00001000
00000100
00001000
,
00000010
00000100
00001000
00010000
00000100
00001000
00000100
00010000
,
00000010
00001000
00000100
00010000
00002000
00000000
00000020
00003030
,
00001010
00010000
00000100
00010000
00001000
00100000
00000100
00010000
,
00001000
00010000
00000100
00010000
00001000
00100000
00001000
00000100
,
00011000
00010000
00000100
00010000
00100000
00001000
00010000
00000100
,
00100000
00010000
00001000
00000100
00022000
00000000
00033000
00000000
,
00110000
00000000
01000000
00100000
01000000
00000000
00000000
00100000
01000000
00000000
00000000
01000000
00100000
00000000
00010000
00000000
,
00011000
00000000
00001000
00010000
00001000
00000000
00000000
00001000
00100000
00000000
00000000
00100000
00010000
00000000
00100000
00000000
,
01001000
00000000
00001000
00100000
00010000
00000000
00000000
00100000
00001000
00000000
00000000
00001000
01000000
00000000
00010000
00000000
,
00110000
00000000
00100000
01000000
00100000
00000000
00010000
00000000
00001000
00000000
00010000
00000000
01000000
00000000
02010000
00000000
,
00000000
00000000
00000000
00000000
00000000
00000000
00000000
03000000
,
00001000
00100000
00010000
01000000
,
00100000
00010000
00001000
00100000
,
00010000
01000000
00010000
00001000
,
01000000
00000000
01000000
00000000
00010000
10000000
00010000
01000000
,
00010000
01000000
00100000
01000000
,
10000000
01000000
00010000
00100000
,
10000000
00100000
00010000
01000000
,
00010000
00000000
00100000
00000000
00010000
00100000
00010000
01000000
,
00010000
01000000
00100000
00010000
,
00001000
01000000
00100000
00010000
,
00001000
00100000
00010000
01000000
,
00001000
00010000
00001000
00100000
,
00100100
00000000
00010000
00000000
00001000
00000000
00000100
00010000
,
00000100
00010000
00010100
00001000
,
00100000
00010000
00100000
00000000
00001000
00000100
00001000
00000000
,
00100000
00000010
00001000
00000100
00010000
00001000
00000100
00000000
,
00010010
00000000
00000010
00001000
00000000
00000000
00000100
00000000
,
00010000
00001000
00001100
00000000
,
00010010
00000000
00010000
00001000
00000100
00000000
00000010
00000000
,
00001000
00000010
00000010
00000000
,
00001000
00000100
00000001
00000100
,
00001000
00000100
00000010
00000100
,
00000001
00000001
00000100
00001000
,
00000010
00001000
00001000
00001000
,
00000010
00001000
00000100
00000000
00010000
00000000
00001000
00000000
,
00000010
00001000
00001010
00000000
,
00000010
00001000
00010000
00000000
00000100
00000000
00001000
00000000
,
00000010
00010000
00010000
00000000
,
00001000
00010000
00000100
00010000
,
00001000
00010000
00000100
00010000
,
00100000
00100000
00010000
00000100
,
00001000
00100000
00100000
00000000
,
01000000
00010000
00100000
00001000
00010000
00000000
00100000
00000000
,
01000000
00001000
00100000
00010000
01000000
00000000
00100000
00000000
,
00010000
00001000
00010000
00100000
01000000
00000000
00100000
00000000
,
01000000
01000000
10000000
01000000
00100000
00000000
00010000
00000000
,
00100000
01000000
00100000
00000000
00010000
01000000
00010000
00000000
,
10000000
01000000
00100000
00010000
01000000
00100000
10000000
00010000
,
01100000
00000000
01000000
00000000
00000000
00010000
00100000
00000000
,
01100000
00000000
00000000
01000000
00000000
00000000
01010000
00000000
,
00001000
00100000
00010000
01000000
00001000
01000000
00100000
00010000
,
01000000
00010000
00001000
00100000
00010000
00001000
01000000
00100000
,
00001000
00010000
01000000
00010000
00001000
00200000
00010000
00300000;
