#TITLE:Steel Bomber;
#SUBTITLE:;
#ARTIST:Kommisar;
#TITLETRANSLIT:;
#SUBTITLETRANSLIT:;
#ARTISTTRANSLIT:;
#CREDIT:;
#BANNER:../bn.png;
#BACKGROUND:../veyron.png;
#LYRICSPATH:;
#CDTITLE:;
#MUSIC:Steel Bomber.ogg;
#OFFSET:-0.015;
#SAMPLESTART:23.882;
#SAMPLELENGTH:16.000;
#SELECTABLE:YES;
#BPMS:0.000=215.000;
#STOPS:;
#BGCHANGES:;
// cache tags:
#FIRSTBEAT:32.000;
#LASTBEAT:405.000;
#SONGFILENAME:Songs/Cirque du Veyron/Zaia - Steel Bomber/Steel Bomber.sm;
#HASMUSIC:1;
#HASBANNER:1;
#MUSICLENGTH:113.926;
// end cache tags

//---------------dance-single - Zaia----------------
#NOTES:
     dance-single:
     Zaia:
     Challenge:
     15:
     1.000,1.000,0.000,0.562,1.000,1031.000,0.000,64.000,0.000,0.000:
0000
0000
0000
0000
,
0000
0000
0000
0000
,
0000
0000
0000
0000
,
0000
0000
0000
0000
,
0000
0000
0000
0000
,
0000
0000
0000
0000
,
0000
0000
0000
0000
,
0000
0000
0000
0000
,
1000
0001
0010
0001
1000
0010
0100
0010
,
1000
0010
0100
0010
1000
0010
0100
0010
,
1000
0001
0010
0100
1000
0010
0100
0001
,
0100
0010
1000
0001
0020
0000
0032
0000
,
1003
0010
0100
0010
1000
0001
0010
0001
,
1000
0001
0010
0001
1000
0001
0010
0001
,
1000
0010
0100
0001
0010
0100
1000
0100
,
0010
0001
0100
0010
1000
0001
0010
0100
,
1000
0001
1000
0000
0010
0000
1000
0001
1000
0000
0010
0000
0100
0000
0001
0000
,
0100
0010
1000
0100
0010
0001
0100
0010
,
1000
0010
1000
0000
0001
0000
1000
0010
1000
0000
0001
0000
0100
0000
0010
0000
,
1000
0200
0000
0000
0320
0000
0032
0000
,
1003
0100
1000
0000
0001
0000
1000
0100
1000
0000
0001
0000
0100
0000
0001
0000
,
0100
0010
1000
0001
0010
0100
1000
0010
,
0100
0001
0100
0000
0010
0000
0100
0001
0100
0010
1000
0001
0010
0100
0010
0001
,
2000
3020
0230
0302
0000
2003
3020
2030
,
3001
0000
1000
0100
1000
0000
0001
0000
1000
0100
1000
0000
0001
0000
0010
0100
,
0010
0000
0001
0000
1000
0010
1000
0000
0002
0000
0000
0000
0023
0000
0000
0000
,
0130
0000
1000
0100
1000
0000
0001
0000
0100
0001
0100
0000
0001
0000
1000
0010
,
1000
0000
0001
0000
0100
0010
0100
0000
0002
0000
0000
0000
2003
0000
0000
0000
,
3010
0000
1000
0001
1000
0000
0010
0000
1000
0001
1000
0000
0010
0000
1000
0001
,
1000
0000
0010
0000
1000
0001
1000
0000
0100
0000
1000
0001
0100
0000
0001
0000
,
0100
0000
0010
1000
0010
0000
0100
0000
0001
0100
0001
0000
1000
0000
0100
0010
,
0002
0000
0203
0000
0320
0000
2030
0000
0000
0000
3010
0000
0100
0001
0100
0010
,
1000
0000
0001
0010
0001
0000
1000
0000
0001
0010
0001
0000
1000
0000
0100
0010
,
0100
0000
1000
0000
0001
0100
0001
0000
2000
0000
0000
0000
3020
0000
0000
0000
,
1030
0000
0001
0010
0001
0000
0100
0000
0010
1000
0010
0000
0100
0000
0001
1000
,
0001
0000
0100
0000
0010
1000
0010
0000
0200
0000
0000
0000
0302
0000
0000
0000
,
1003
0000
0010
0100
0010
0000
1000
0000
0010
0100
0010
0000
1000
0000
0010
0100
,
0010
0000
1000
0000
0010
0100
0010
0000
2000
0000
0000
0000
3002
0000
0000
0000
,
0103
0000
0001
1000
0001
0000
0100
0000
0001
1000
0001
0000
0100
0000
0001
1000
,
0001
0000
0100
0000
0001
0000
1000
0000
0001
0010
0100
0010
0001
1000
0001
0100
,
0020
0000
0230
0000
0302
0000
0023
0000
0000
0000
0000
0000
0230
0000
1300
0010
,
0200
0302
0000
0203
0320
2030
3020
2030
,
3001
0100
0010
1000
0001
0100
0001
1000
0100
0010
0100
0010
0001
1000
0010
0100
,
0001
1000
0010
0100
0001
1000
0001
0100
0010
1000
0100
1000
0001
0010
0100
0010
,
0001
0000
1000
0100
0010
0000
0001
0000
0000
0000
1000
0000
0002
0000
0203
0000
,
0320
2030
0000
0000
3020
0230
0302
0023
,
0130
1000
0100
0010
0001
1000
0010
0100
0010
1000
0001
0010
0100
0000
1000
0000
,
0001
0000
0100
0000
0010
0000
2000
0000
0000
0000
3010
0000
1000
0001
0100
0001
,
1000
0010
0100
0001
0010
0100
1000
0001
0100
0010
1000
0001
0010
0100
1000
0001
,
0100
0001
0000
1000
0000
0001
1000
0010
,
1000
0002
0000
0023
0000
0000
0230
2300
,
3020
0000
0130
0100
,
0001
0100
0010
1000
0001
0010
0001
1000
0100
1000
0001
0100
0001
0010
0100
1000
,
0001
0100
0010
0100
0010
1000
0001
0010
0100
1000
0001
0010
0001
1000
0010
0100
,
0010
0000
0000
1000
0000
0000
1000
0000
,
0000
0000
1000
0000
0000
0000
0000
0000
0001
0100
0010
0100
0010
1000
0001
0100
,
0001
1000
0010
1000
0001
0100
0010
0100
0001
1000
0010
0100
0001
1000
0001
1000
,
0010
1000
0100
0010
0100
1000
0001
0010
0001
1000
0001
0010
0100
1000
0001
0010
,
0001
0100
0010
1000
0010
0100
0001
0100
0010
1000
0001
0100
0010
0100
0001
1000
,
0010
0100
0001
0010
0100
1000
0001
0010
0100
0010
0100
1000
0001
0010
0100
1000
,
0010
0100
0001
0100
0010
1000
0001
1000
0010
0100
0001
1000
0001
0100
0010
1000
,
0100
1000
0001
0010
0100
0010
0001
1000
0001
0010
0100
1000
0100
0010
0100
1000
,
0010
0100
0001
0010
0100
1000
0010
0100
0001
0010
0100
1000
0010
0100
0001
0010
,
0100
1000
0001
1000
0100
1000
0001
1000
0100
1000
0001
1000
0100
1000
0001
1000
,
0100
1000
0001
0010
0001
0010
0100
1000
0001
1000
0100
0010
0001
1000
0001
1000
,
0100
1000
0010
0100
0010
1000
0001
0100
0001
1000
0001
0100
0010
1000
0001
0100
,
0001
0010
0100
1000
0100
0010
0001
0010
0100
1000
0001
0010
0100
0010
0001
1000
,
0100
0010
0001
0100
0010
1000
0001
0100
0010
0100
0010
1000
0001
0100
0010
1000
,
0100
0010
0001
0010
0100
1000
0001
1000
0100
0010
0001
1000
0001
0010
0100
1000
,
0010
1000
0001
0100
0010
0100
0001
1000
0001
0100
0010
1000
0010
0100
0010
1000
,
0100
0010
0001
0100
0010
1000
0100
0010
0001
0100
0010
1000
0100
0010
0001
0100
,
0010
1000
0001
1000
0010
1000
0001
1000
0010
1000
0001
1000
0010
1000
0001
1000
,
0010
0000
1000
0001
1000
0000
0010
0000
0100
0000
0010
0000
1000
0001
1000
0000
,
0010
0000
0100
0001
0100
0000
0010
0000
1000
0000
0010
0000
1000
0000
0001
0000
,
1000
0000
0010
0100
0010
0000
1000
0000
0010
0100
0010
0000
1000
0000
0001
1000
,
0100
0010
0100
0010
0002
2003
3020
2030
,
3001
0000
1000
0100
1000
0000
0010
0000
0100
0000
0010
0000
1000
0100
1000
0000
,
0010
0000
0100
0001
0100
0000
0010
0000
1000
0000
0001
0000
1000
0000
0001
0000
,
1000
0100
0010
0001
1000
0100
0010
0001
0100
0010
0100
0001
1000
0100
1000
0010
,
0100
0001
1000
0100
1000
0001
0100
0001
1000
0010
0100
0001
0010
0100
0010
0100
,
1000
0000
0001
0100
0001
0000
1000
0000
0010
0000
1000
0000
0001
0100
0001
0000
,
1000
0000
0100
1000
0100
0000
0010
0000
0001
0000
0100
0000
0010
1000
0001
0000
,
0100
0000
0001
1000
0100
0000
0010
0000
0100
0000
0010
0000
0001
0010
0001
0000
,
1000
0000
0000
0000
1000
0000
0000
0000
0002
0000
0023
0000
0032
0000
0013
0001
,
0010
0000
0100
1000
0100
0000
1000
0000
0010
0000
1000
0000
0100
1000
0100
0000
,
0010
0000
0001
1000
0010
0000
0100
0000
0001
0000
0100
0000
0010
0000
0100
0000
,
0001
0010
0001
1000
0001
0010
0001
1000
0001
0010
0001
1000
0001
0010
0001
1000
,
0001
0100
0010
0100
0001
0010
0100
1000
0001
1000
0001
0100
0010
1000
0100
1000
,
0001
0000
1000
0100
1000
0000
0001
0000
0010
0000
0001
0000
1000
0100
1000
0000
,
0001
0000
0100
0001
0100
0000
0010
0000
1000
0000
0100
0000
0010
0001
1000
0000
,
0100
0000
1000
0001
0100
0000
0010
0000
0100
0000
0010
0000
1000
0010
1000
0000
,
0001
0000
0000
0000
0001
0000
0000
0000
2000
0000
3020
0000
2030
0000
3010
1000
,
0010
0000
0100
0001
0100
0000
0001
0000
0010
0000
0001
0000
0100
0001
0100
0000
,
0010
0000
1000
0001
0010
0000
0100
0000
1000
0000
0100
0000
0010
0000
0100
0000
,
1000
0010
1000
0001
1000
0010
1000
0001
1000
0010
1000
0001
1000
0010
1000
0001
,
1000
0100
0010
0100
1000
0010
0100
0001
1000
0001
1000
0100
0010
0001
0100
0001
,
1000
0100
1000
0001
1000
0100
1000
0001
1000
0100
1000
0001
1000
0100
1000
0001
,
1000
0010
0100
0010
1000
0100
0010
0001
1000
0001
1000
0010
0100
0001
0010
0001
,
1000
0010
0100
0001
1000
0100
0010
0001
1000
0010
0100
0001
1000
0100
0010
0001
,
0100
0010
1000
0001
1000
0001
0010
0100
1000
0001
1000
0001
0100
0010
1000
0010
,
0200
0000
0000
0000
,
0002
0303
0000
0000
;
