#TITLE:Die Young;
#SUBTITLE:Sexuality Violation;
#ARTIST:Ke$ha;
#TITLETRANSLIT:;
#SUBTITLETRANSLIT:;
#ARTISTTRANSLIT:;
#CREDIT:;
#BANNER:Die Young-bn.png;
#BACKGROUND:Die Young-bg.png;
#LYRICSPATH:;
#CDTITLE:GazeboCD.png;
#MUSIC:Die Young.ogg;
#OFFSET:-0.225;
#SAMPLESTART:179.500;
#SAMPLELENGTH:29.500;
#SELECTABLE:YES;
#BPMS:0.000=128.000;
#STOPS:;
#BGCHANGES:;
// cache tags:
#FIRSTBEAT:14.500;
#LASTBEAT:448.000;
#SONGFILENAME:Songs/Sexuality Violation 2/Die Young - [Gazebo]/Die Young.sm;
#HASMUSIC:1;
#HASBANNER:1;
#MUSICLENGTH:213.211;
// end cache tags

//---------------dance-single - Gazebo----------------
#NOTES:
     dance-single:
     Gazebo:
     Challenge:
     12:
     0.858,1.000,0.235,0.103,1.000,1208.000,50.000,22.000,0.000,0.000:
0000
0000
0000
0000
,
0000
0000
0000
0000
,
0000
0000
0000
0000
,
0000
0000
0000
0000
0000
0010
1000
0001
,
0001
0010
0100
0000
0011
0000
1000
0001
,
0100
0010
0100
0002
0000
0003
0101
0000
,
1010
1000
0001
0010
0100
0000
0010
0001
,
2000
3020
0230
0320
,
2030
0000
0000
3001
0000
1000
1000
0100
,
0010
0000
0001
0000
0100
0000
0020
0000
0000
1030
0001
0000
0000
0000
0000
0000
,
0000
1000
0001
0010
0100
0000
0010
0001
,
1000
0000
1000
1000
1000
0010
0100
0000
,
0101
1001
1100
0011
,
1001
0001
1000
0010
0010
0100
0001
0000
,
1001
1100
0011
0110
,
1001
1000
0001
0100
0100
0010
1000
0000
,
1001
0000
0001
0100
0001
0000
1000
0000
0100
0000
0010
0001
0010
0000
0001
0000
,
1000
0000
0010
1000
0010
0000
0100
0000
0001
0000
1000
0010
1000
0000
0001
0000
,
0100
0010
1000
0100
0010
0000
0001
1000
,
0010
0000
0010
0010
0010
0100
0001
0000
,
1000
0100
1000
0100
0010
0001
1000
0000
0000
1000
0000
0000
0001
0100
0001
1000
0001
0010
0100
0000
0000
0000
0000
0000
,
0010
0001
1000
0010
1000
0001
0100
0001
1000
0100
1000
0001
1000
0100
0010
0001
1000
0001
0200
0000
0000
0000
0000
0000
,
0301
1000
0001
0100
0010
1000
0001
0000
0000
0001
0000
0000
1000
0100
1000
0001
1000
0010
0100
0000
0000
0000
0000
0000
,
0010
1000
0001
0010
0001
1000
0100
1000
0001
0100
0001
1000
0001
0100
0010
1000
0001
1000
0200
0000
0000
0000
0000
0000
,
1300
0001
1000
0001
0010
0100
1000
0000
0000
1000
0000
0000
0001
0100
0010
1000
0001
1000
0100
0000
0000
0000
0000
0000
,
0010
0001
1000
0001
0100
0001
1000
0010
1000
0001
0010
0100
1000
0001
0010
0001
1000
0001
0200
0000
0000
0000
0000
0000
,
0301
1000
0001
0100
0010
1000
0001
0000
0000
0010
0000
0000
0100
1000
0001
1000
0010
1000
0001
0000
0000
0100
0000
0000
,
0010
1000
0001
1000
0100
0010
0001
0000
0000
0001
0000
0000
1000
0100
0010
0001
0100
0001
1000
0001
1000
0010
0100
0001
,
1000
0000
1010
0000
1000
0001
0010
0000
,
0001
0001
0100
0100
0010
0010
1000
0000
,
0001
0000
0011
0000
0001
1000
0010
0000
,
1000
1000
0100
0100
0010
0010
0001
0000
,
0000
1000
0010
1000
0001
0010
0100
1000
,
0001
0000
0000
0010
0001
0000
0100
0000
0000
0000
0010
0000
1010
0000
1000
0000
,
0000
0001
0010
0001
1000
0010
0100
0001
,
1000
0000
0000
0010
1000
0000
0001
0000
0000
0000
1000
0000
0001
0010
0001
0010
,
0001
1000
0010
1000
0001
0100
0010
1000
0001
0010
0001
1000
0001
0100
0010
1000
,
0100
1000
0010
1000
0100
0010
0001
0100
0001
1000
0001
0100
0010
1000
0010
1000
,
0001
1000
0100
1000
0001
0010
0100
1000
0001
0100
0001
1000
0001
0010
0100
0010
,
0001
0100
0001
0010
0001
1000
0010
0100
0010
1000
0001
1000
0100
0010
0100
0010
,
0001
1000
0100
1000
0001
0010
0100
1000
0001
0100
0001
1000
0001
0010
0100
1000
,
0010
1000
0100
1000
0010
0100
0001
0010
0001
1000
0010
1000
0100
0010
0100
1000
,
0001
1000
0010
1000
0001
0100
0010
1000
0001
0010
0001
1000
0001
0100
0010
1000
,
0001
0010
0100
0010
0001
1000
0100
0010
0001
0100
0001
1000
0001
0010
0100
1000
,
0001
0100
0010
0000
0101
0000
1000
0001
,
0010
0100
0010
0002
0000
0003
0011
0000
,
1100
1000
0001
0100
0010
0000
0100
0001
,
2000
3200
0320
0230
,
2300
0000
0000
3001
0000
1000
1000
0010
,
0100
0000
0001
0000
0010
0000
0200
0000
0000
1300
0001
0000
0000
0000
0000
0000
,
0000
1000
0001
0100
0010
0000
0100
0001
,
1000
0000
1000
1000
1000
0100
0010
0000
,
0011
1001
1010
0101
,
1001
0001
1000
0100
0100
0010
0001
0000
,
1001
1010
0101
0110
,
1001
1000
0001
0010
0010
0100
1000
0000
,
1001
0000
1000
0100
1000
0000
0001
0000
0100
0000
0010
1000
0010
0000
1000
0000
,
0001
0000
0010
0001
0010
0000
0100
0000
1000
0000
0001
0010
0001
0000
1000
0000
,
0100
0010
0001
0100
0010
0000
1000
0001
,
0010
0000
0010
0010
0010
0100
1000
0000
,
0001
0100
0001
0100
0010
1000
0001
0000
0000
0001
0000
0000
1000
0100
1000
0001
1000
0010
0100
0000
0000
0000
0000
0000
,
0010
1000
0001
0010
0001
1000
0100
1000
0001
0100
0001
1000
0001
0100
0010
1000
0001
1000
0200
0000
0000
0000
0000
0000
,
1300
0001
1000
0100
0010
0001
1000
0000
0000
1000
0000
0000
0001
0100
0001
1000
0001
0010
0100
0000
0000
0000
0000
0000
,
0010
0001
1000
0010
1000
0001
0100
0001
1000
0100
1000
0001
1000
0100
0010
0001
1000
0001
0200
0000
0000
0000
0000
0000
,
0301
1000
0001
1000
0010
0100
0001
0000
0000
0001
0000
0000
1000
0100
0010
0001
1000
0001
0100
0000
0000
0000
0000
0000
,
0010
1000
0001
1000
0100
1000
0001
0010
0001
1000
0010
0100
0001
1000
0010
1000
0001
1000
0200
0000
0000
0000
0000
0000
,
1300
0001
1000
0100
0010
0001
1000
0000
0000
0010
0000
0000
0100
0001
1000
0001
0010
0001
1000
0000
0000
0100
0000
0000
,
0010
0001
1000
0001
0100
0010
1000
0000
0000
1000
0000
0000
0001
0100
0010
1000
0100
1000
0001
1000
0001
0010
0100
1000
,
0001
0000
0011
0000
0001
1000
0010
0000
,
1000
1000
0100
0100
0010
0010
0001
0000
,
1000
0001
0010
0000
0001
1000
0010
0000
,
1000
1000
0100
0100
0010
0010
0001
0000
,
0000
1000
0010
1000
0001
0010
0100
1000
,
0001
0000
0000
0010
0001
0000
1000
0000
0000
0000
0010
0000
1010
0000
1000
0000
,
0000
0001
0100
0001
1000
0100
0010
0001
,
1000
0000
0000
0100
1000
0000
0001
0000
0000
0000
1000
0000
0001
0100
0001
0100
,
0001
1000
0100
1000
0001
0010
0100
1000
0001
0100
0001
1000
0001
0010
0100
1000
,
0010
1000
0100
1000
0010
0100
0001
0010
0001
1000
0001
0010
0100
1000
0100
1000
,
0001
1000
0010
1000
0001
0100
0010
1000
0001
0010
0001
1000
0001
0100
0010
0100
,
0001
0010
0001
0100
0001
1000
0100
0010
0100
1000
0001
1000
0010
0100
0010
0100
,
0001
1000
0010
1000
0001
0100
0010
1000
0001
0010
0001
1000
0001
0100
0010
1000
,
0100
1000
0010
1000
0100
0010
0001
0100
0001
1000
0100
1000
0010
0100
0010
1000
,
0001
1000
0100
1000
0001
0010
0100
1000
0001
0100
0001
1000
0001
0010
0100
1000
,
0001
0100
0010
0100
0001
1000
0010
1000
0001
0100
0001
1000
0100
0010
0100
0010
,
0001
0010
0001
0000
1000
0100
1000
0000
,
0010
0100
0010
2000
0000
0001
3001
0000
,
1000
0010
1000
0000
0001
0100
0001
0000
,
0010
0100
0010
0002
0000
0103
0001
1000
,
1010
1001
0011
0110
,
0011
1010
1001
1001
,
0101
1100
0011
1010
,
0101
1010
1001
0011
,
1001
0000
0001
0010
0001
0000
1000
0000
0001
0000
0010
0100
0010
0000
0001
0000
,
1000
0000
0001
0100
0001
0000
1000
0000
0100
0000
0010
0001
0010
0000
0001
0000
,
1000
0000
0010
1000
0010
0000
0100
0000
0001
0000
1000
0010
1000
0000
0001
0100
,
0001
0000
1000
0001
1000
0000
0001
0000
0001
0000
0010
0000
0100
0000
1000
0000
,
0001
1000
0010
1000
0100
0010
0001
1000
0010
0100
0010
0100
0001
1000
0100
0010
,
0001
0100
0001
0010
0001
1000
0010
1000
0010
1000
0001
0010
0100
0010
0001
1000
,
0100
1000
0010
0100
0001
0010
0001
1000
0100
1000
0001
1000
0010
0100
0010
1000
,
0001
0010
0100
1000
0001
0100
0010
1000
0001
0010
0100
1000
0100
0010
0001
1000
,
0001
0100
0001
0100
0010
1000
0001
0010
0100
0010
0001
1000
0001
0100
0001
0010
,
0100
1000
0010
0100
0001
0010
0001
1000
0100
0010
0001
1000
0010
1000
0010
1000
,
0001
0010
0001
1000
0100
1000
0010
1000
0001
0100
0001
0100
0010
1000
0001
0010
,
0100
1000
0100
0010
0001
1000
0100
1000
0001
0010
0001
1000
0001
0100
0010
1000
,
0001
0000
0010
0000
0001
0000
0010
0000
0100
0000
1000
0000
0001
0000
0000
0010
0000
0000
0001
0000
0000
1000
0000
0000
0001
0000
0010
0000
0001
0000
1000
0000
0001
0000
0100
0000
0010
0000
0000
1000
0000
0000
0010
0000
0000
1000
0000
0000
,
0001
0000
0100
0000
0001
0000
1000
0000
0100
0000
1000
0000
0001
0000
1000
0000
0001
0000
0010
0000
0100
0000
1000
0000
0001
0000
0000
0010
0000
0000
0001
0000
0000
0100
0000
0000
0001
0000
0000
1000
0000
0000
0010
0000
0000
1000
0000
0000
,
0001
0000
1000
0000
0001
0000
0100
0000
0010
0000
1000
0000
0001
0000
0000
0100
0000
0000
0001
0000
0000
1000
0000
0000
0001
0000
0100
0000
0001
0000
1000
0000
0001
0000
0010
0000
0100
0000
0000
1000
0000
0000
0100
0000
0000
1000
0000
0000
,
0001
0000
0010
0000
0001
0000
1000
0000
0010
0000
1000
0000
0001
0000
1000
0000
0001
0000
0100
0000
0010
0000
1000
0000
0001
0000
0000
0100
0000
0000
0001
0000
0000
0010
0000
0000
0001
0000
0000
1000
0000
0000
0100
0000
0000
1000
0000
0000
,
0001
0000
1000
0000
0001
0000
1000
0000
0100
0000
0010
0000
0001
0000
0000
1000
0000
0000
0100
0000
0000
1000
0000
0000
0001
0000
0010
0000
0100
0000
1000
0000
0001
0000
1000
0000
0010
0000
0000
0100
0000
0000
0010
0000
0000
0100
0000
0000
,
0001
0000
1000
0000
0010
0000
1000
0000
0001
0000
0010
0000
0100
0000
1000
0000
0001
0000
0010
0000
0001
0000
1000
0000
0001
0000
1000
0000
0001
0000
0100
0000
0010
0000
1000
0000
0001
0000
0000
0100
0000
0000
0010
0000
0000
0100
0000
0000
,
0001
0010
0001
1000
0100
1000
0010
0100
0001
1000
0001
1000
0100
1000
0010
0100
,
0001
1000
0001
1000
0100
0010
0100
1000
0100
0010
0001
1000
0001
0100
0010
1000
,
0001
0000
0000
0000
;

//---------------dance-single - Gazebo----------------
#NOTES:
     dance-single:
     Gazebo:
     Hard:
     11:
     0.795,0.867,0.235,0.075,0.877,1120.000,50.000,16.000,0.000,0.000:

0000
0000
0000
0000
,
0000
0000
0000
0000
,
0000
0000
0000
0000
,
0000
0000
0000
0000
0000
0010
1000
0001
,
0001
0010
0100
0000
0011
0000
1000
0001
,
0100
0010
0100
0002
0000
0003
0101
0000
,
1010
1000
0001
0010
0100
0000
0010
0001
,
2000
3020
0230
0320
,
2030
0000
0000
3001
0000
1000
1000
0100
,
0010
0000
0001
0000
0100
0000
0020
0000
0000
1030
0001
0000
0000
0000
0000
0000
,
0000
1000
0001
0010
0100
0000
0010
0001
,
1000
0000
1000
1000
1000
0010
0100
0000
,
0101
1001
1100
0011
,
1001
0001
1000
0010
0010
0100
0001
0000
,
1001
1100
0011
0110
,
1001
1000
0001
0100
0100
0010
1000
0000
,
1001
0000
0001
0100
0001
0000
1000
0000
0100
0000
0010
0001
0010
0000
0001
0000
,
1000
0000
0010
1000
0010
0000
0100
0000
0001
0000
1000
0010
1000
0000
0001
0000
,
0100
0010
1000
0100
0010
0000
0001
1000
,
0010
0000
0010
0010
0010
0100
0001
0000
,
1000
0100
1000
0100
0010
0000
0010
0000
0001
1000
0001
0100
0010
0000
0000
0000
,
1000
0010
1000
0100
0010
0001
1000
0010
1000
0010
0100
0001
1000
0100
0010
0001
,
1000
0010
1000
0010
0100
0000
0100
0000
0001
1000
0001
0010
0100
0000
0000
0000
,
1000
0100
1000
0010
0100
0001
1000
0100
1000
0100
0010
0001
1000
0010
0100
0001
,
1000
0100
1000
0100
0010
0000
0010
0000
0001
1000
0001
0100
0010
0000
0000
0000
,
1000
0010
1000
0100
0010
0001
1000
0010
1000
0010
0100
0001
1000
0100
0010
0001
,
1000
0010
1000
0010
0100
0000
0001
0000
1000
0100
1000
0100
0010
0000
0001
0000
,
0100
0001
0100
0001
1000
0000
1000
0000
0001
0100
0001
0010
0100
1000
0010
1000
,
0001
0000
1010
0000
1000
0001
0010
0000
,
0001
0001
0100
0100
0010
0010
1000
0000
,
0001
0000
0011
0000
0001
1000
0010
0000
,
1000
1000
0100
0100
0010
0010
0001
0000
,
0000
1000
0010
1000
0001
0010
0100
1000
,
0001
0000
0000
0010
0001
0000
0100
0000
0000
0000
0010
0000
1010
0000
1000
0000
,
0000
0001
0010
0001
1000
0010
0100
0001
,
1000
0000
0000
0010
1000
0000
0001
0000
0000
0000
1000
0000
0001
0010
0001
0010
,
0001
1000
0010
1000
0001
0100
0010
1000
0001
0010
0001
1000
0001
0100
0010
1000
,
0100
1000
0010
1000
0100
0010
0001
0100
0001
1000
0001
0100
0010
1000
0010
1000
,
0001
1000
0100
1000
0001
0010
0100
1000
0001
0100
0001
1000
0001
0010
0100
0010
,
0001
0100
0001
0010
0001
1000
0010
0100
0010
1000
0001
1000
0100
0010
0100
0010
,
0001
1000
0100
1000
0001
0010
0100
1000
0001
0100
0001
1000
0001
0010
0100
1000
,
0010
1000
0100
1000
0010
0100
0001
0010
0001
1000
0010
1000
0100
0010
0100
1000
,
0001
1000
0010
1000
0001
0100
0010
1000
0001
0010
0001
1000
0001
0100
0010
1000
,
0001
0010
0100
0010
0001
1000
0100
0010
0001
0100
0001
1000
0001
0010
0100
1000
,
0001
0100
0010
0000
0101
0000
1000
0001
,
0010
0100
0010
0002
0000
0003
0011
0000
,
1100
1000
0001
0100
0010
0000
0100
0001
,
2000
3200
0320
0230
,
2300
0000
0000
3001
0000
1000
1000
0010
,
0100
0000
0001
0000
0010
0000
0200
0000
0000
1300
0001
0000
0000
0000
0000
0000
,
0000
1000
0001
0100
0010
0000
0100
0001
,
1000
0000
1000
1000
1000
0100
0010
0000
,
0011
1001
1010
0101
,
1001
0001
1000
0100
0100
0010
0001
0000
,
1001
1010
0101
0110
,
1001
1000
0001
0010
0010
0100
1000
0000
,
1001
0000
1000
0100
1000
0000
0001
0000
0100
0000
0010
1000
0010
0000
1000
0000
,
0001
0000
0010
0001
0010
0000
0100
0000
1000
0000
0001
0010
0001
0000
1000
0000
,
0100
0010
0001
0100
0010
0000
1000
0001
,
0010
0000
0010
0010
0010
0100
1000
0000
,
0001
0100
0001
0100
0010
0000
0010
0000
1000
0001
1000
0100
0010
0000
0000
0000
,
0001
0010
0001
0100
0010
1000
0001
0010
0001
0010
0100
1000
0001
0100
0010
1000
,
0001
0010
0001
0010
0100
0000
0100
0000
1000
0001
1000
0010
0100
0000
0000
0000
,
0001
0100
0001
0010
0100
1000
0001
0100
0001
0100
0010
1000
0001
0010
0100
1000
,
0001
0100
0001
0100
0010
0000
0010
0000
1000
0001
1000
0100
0010
0000
0000
0000
,
0001
0010
0001
0100
0010
1000
0001
0010
0001
0010
0100
1000
0001
0100
0010
1000
,
0001
0010
0001
0010
0100
0000
1000
0000
0001
0100
0001
0100
0010
0000
1000
0000
,
0100
1000
0100
1000
0001
0000
0001
0000
1000
0100
1000
0010
0100
0001
0010
0001
,
1000
0000
0011
0000
0001
1000
0010
0000
,
1000
1000
0100
0100
0010
0010
0001
0000
,
1000
0001
0010
0000
0001
1000
0010
0000
,
1000
1000
0100
0100
0010
0010
0001
0000
,
0000
1000
0010
1000
0001
0010
0100
1000
,
0001
0000
0000
0010
0001
0000
1000
0000
0000
0000
0010
0000
1010
0000
1000
0000
,
0000
0001
0100
0001
1000
0100
0010
0001
,
1000
0000
0000
0100
1000
0000
0001
0000
0000
0000
1000
0000
0001
0100
0001
0100
,
0001
1000
0100
1000
0001
0010
0100
1000
0001
0100
0001
1000
0001
0010
0100
1000
,
0010
1000
0100
1000
0010
0100
0001
0010
0001
1000
0001
0010
0100
1000
0100
1000
,
0001
1000
0010
1000
0001
0100
0010
1000
0001
0010
0001
1000
0001
0100
0010
0100
,
0001
0010
0001
0100
0001
1000
0100
0010
0100
1000
0001
1000
0010
0100
0010
0100
,
0001
1000
0010
1000
0001
0100
0010
1000
0001
0010
0001
1000
0001
0100
0010
1000
,
0100
1000
0010
1000
0100
0010
0001
0100
0001
1000
0100
1000
0010
0100
0010
1000
,
0001
1000
0100
1000
0001
0010
0100
1000
0001
0100
0001
1000
0001
0010
0100
1000
,
0001
0100
0010
0100
0001
1000
0010
1000
0001
0100
0001
1000
0100
0010
0100
0010
,
0001
0010
0001
0000
1000
0100
1000
0000
,
0010
0100
0010
2000
0000
0001
3001
0000
,
1000
0010
1000
0000
0001
0100
0001
0000
,
0010
0100
0010
0002
0000
0103
0001
1000
,
1010
1001
0011
0110
,
0011
1010
1001
1001
,
0101
1100
0011
1010
,
0101
1010
1001
0011
,
1001
0000
0001
0010
0001
0000
1000
0000
0001
0000
0010
0100
0010
0000
0001
0000
,
1000
0000
0001
0100
0001
0000
1000
0000
0100
0000
0010
0001
0010
0000
0001
0000
,
1000
0000
0010
1000
0010
0000
0100
0000
0001
0000
1000
0010
1000
0000
0001
0100
,
0001
0000
1000
0001
1000
0000
0001
0000
0001
0000
0010
0000
0100
0000
1000
0000
,
0001
1000
0010
1000
0100
0010
0001
1000
0010
0100
0010
0100
0001
1000
0100
0010
,
0001
0100
0001
0010
0001
1000
0010
1000
0010
1000
0001
0010
0100
0010
0001
1000
,
0100
1000
0010
0100
0001
0010
0001
1000
0100
1000
0001
1000
0010
0100
0010
1000
,
0001
0010
0100
1000
0001
0100
0010
1000
0001
0010
0100
1000
0100
0010
0001
1000
,
0001
0100
0001
0100
0010
1000
0001
0010
0100
0010
0001
1000
0001
0100
0001
0010
,
0100
1000
0010
0100
0001
0010
0001
1000
0100
0010
0001
1000
0010
1000
0010
1000
,
0001
0010
0001
1000
0100
1000
0010
1000
0001
0100
0001
0100
0010
1000
0001
0010
,
0100
1000
0100
0010
0001
1000
0100
1000
0001
0010
0001
1000
0001
0100
0010
1000
,
0001
0010
0001
0010
0100
1000
0001
1000
0001
0100
0001
0100
0010
1000
0001
1000
,
0100
1000
0010
1000
0100
0010
0001
1000
0010
0100
0010
0100
0001
1000
0100
0010
,
0001
0100
0001
0100
0010
1000
0001
1000
0001
0010
0001
0010
0100
1000
0001
1000
,
0010
1000
0100
1000
0010
0100
0001
1000
0100
0010
0100
0010
0001
1000
0010
0100
,
0001
0010
0001
0010
0100
1000
0001
1000
0001
0100
0001
0100
0010
1000
0001
1000
,
0100
1000
0010
1000
0100
0010
0001
1000
0010
1000
0010
1000
0001
1000
0100
0010
,
0001
0010
0001
1000
0100
1000
0010
0100
0001
1000
0001
1000
0100
1000
0010
0100
,
0001
1000
0001
1000
0100
0010
0100
1000
0100
0010
0001
1000
0001
0100
0010
1000
,
0001
0000
0000
0000
;
