#TITLE:Hikari no Senritsu;
#SUBTITLE:So-Ra-No-Wo-To OP;
#ARTIST:Kalafina;
#TITLETRANSLIT:;
#SUBTITLETRANSLIT:;
#ARTISTTRANSLIT:;
#CREDIT:;
#BANNER:;
#BACKGROUND:Soranowoto-bg1.jpg;
#LYRICSPATH:;
#CDTITLE:;
#MUSIC:YouTube- So Ra No Wo To OP ver2.mp3;
#OFFSET:0.000;
#SAMPLESTART:62.500;
#SAMPLELENGTH:12.000;
#SELECTABLE:YES;
#BPMS:0.000=96.000;
#STOPS:;
#BGCHANGES:0.000=YouTube- So Ra No Wo To OP ver2.avi=1.000=0=0=1,
99999=-nosongbg-=1.000=0=0=0 // don't automatically add -songbackground-
;
// cache tags:
#FIRSTBEAT:0.500;
#LASTBEAT:140.000;
#SONGFILENAME:Songs/toune 1 (2010)/So Ra No Wo To OP/YouTube- So Ra No Wo To OP ver2.sm;
#HASMUSIC:1;
#HASBANNER:0;
#MUSICLENGTH:89.884;
// end cache tags

//---------------dance-single - ----------------
#NOTES:
     dance-single:
     :
     Hard:
     8:
     0.552,0.446,0.490,0.401,0.128,267.000,44.000,36.000,0.000,0.000:
0000
0000
1000
0000
0010
0100
0010
0000
0001
0000
0100
0000
0010
1000
0010
0000
,
0100
0000
0001
0100
0010
0100
0010
0000
1000
0000
1020
0000
0000
0000
1030
0000
,
0010
0100
0010
1010
0010
0100
0001
0100
,
0001
0110
0100
0010
1000
0020
0000
0031
,
0100
0002
0000
0203
0000
0310
1000
0001
,
0100
0000
0101
0000
0001
0100
0001
0100
0010
0000
1020
0000
0000
0000
1030
0000
,
0010
1000
0001
0200
0000
0310
1000
0001
,
1000
1002
0000
0013
1000
0020
0000
0130
,
0001
0000
0201
0000
0000
0000
0310
0000
0100
0000
1100
0000
0100
1000
0100
0000
,
0010
0000
0100
0000
0001
0000
0100
0000
0010
1000
0010
0000
0200
0000
0010
0000
,
0301
0000
0100
0000
0001
0000
0100
0000
0010
1000
0010
0000
0100
0001
0100
0000
,
0010
0000
0100
0000
0001
0000
0011
0000
0010
0001
0010
0000
0200
0000
0010
0000
,
0310
1010
0010
1000
0010
1000
0001
0100
,
0001
0011
0010
0001
0100
0102
0000
0103
,
0010
2010
0000
3010
0100
0102
0000
0103
,
0001
0000
0101
0000
0100
0000
0101
0000
0100
1000
0100
0000
0001
0000
0100
0000
,
0010
0000
1000
0000
0000
0010
0000
0000
1000
0000
0001
0000
0100
0000
0001
0000
,
1000
0010
1000
0100
1000
1200
0000
0010
,
0010
0000
0310
0000
0100
0001
0100
0000
0001
0000
1002
0000
0000
0000
0013
0000
,
1000
1020
0000
0031
0100
0102
0000
1003
,
0010
1020
0000
0130
0010
0110
0000
0001
,
0100
0001
1000
0001
0100
0120
0000
0100
,
0130
0101
0000
0100
0010
0120
0000
0130
,
0001
0102
0000
1003
0010
1020
0000
1030
,
0100
1200
0000
0310
1000
2010
0010
3010
,
0100
0010
1000
0010
0100
0102
0100
0103
,
0001
0000
0101
0000
0100
0001
0100
0001
0100
0000
0120
0000
0000
0000
1030
0000
,
0010
1020
0000
0130
0001
0102
0000
1003
,
0010
2010
0000
3010
0100
0120
0100
0130
,
0001
0100
0010
1000
0010
0200
0010
0310
,
1000
0000
1010
0000
0010
1000
0010
0100
0010
0000
0210
0000
0000
0000
0301
0000
,
0100
0101
0000
0100
0010
0210
0000
0310
,
1000
0000
1010
0000
0010
1000
0010
0000
1000
0000
0010
0000
0100
0000
0101
0000
,
0001
0000
0100
0001
0100
0000
0001
0000
0100
0000
0110
0000
0100
0010
0100
0000
,
0001
0000
1000
0001
1000
0001
1000
0000
0010
0000
2020
0000
0000
0000
3030
0000
;

//---------------dance-single - Copied from----------------
#NOTES:
     dance-single:
     Copied from:
     Medium:
     5:
     0.394,0.310,0.022,0.456,0.006,205.000,2.000,41.000,0.000,0.000:
0000
1000
0000
1000
0001
1000
0000
1000
,
0100
0001
0100
0010
1000
0020
0000
1030
,
0010
2000
0000
3001
0000
2000
0000
3100
,
0001
0100
0000
0010
1000
0020
0000
0031
,
0100
0002
0000
0203
0000
0310
1000
0001
,
1000
0001
0000
0100
0000
0020
0000
1030
,
0010
2000
0000
3100
0000
0020
0000
0031
,
1000
0002
0000
0013
1000
0020
0000
0130
,
0001
0200
0000
0310
0100
0020
0000
0130
,
0000
0100
0000
1000
0100
1000
0200
0000
,
0301
0100
0001
0100
0000
1000
0010
1000
,
0010
0100
0001
0100
0000
0010
1000
0020
,
0000
1030
0010
1000
0000
0010
0001
0100
,
0001
0100
0000
0001
0100
0002
0000
1003
,
0010
2000
0000
3001
0010
0002
0000
0103
,
0001
0100
0001
0100
0000
0001
0000
0100
,
0010
0000
1000
0000
0000
0010
0000
0000
1000
0000
0001
0000
0000
0000
0001
0000
,
0000
0010
0000
0100
1000
0200
0000
0010
,
0010
0310
0000
0100
0001
0002
0000
1003
,
0010
0020
0000
1030
0001
0002
0000
0103
,
0010
0020
0000
0130
0010
0100
0000
0110
,
0000
0001
0100
0001
0100
0020
0000
0100
,
0031
0100
0000
0010
0100
0200
0000
0310
,
0001
0002
0000
1003
0100
0200
0000
0310
,
0100
0200
0000
0310
1000
2000
0000
3010
,
0000
0010
1000
0010
0001
0002
0000
0003
,
0001
0100
0000
0110
0000
0020
0000
0031
,
0010
0020
0000
0130
0001
0002
0000
0013
,
1000
2000
0000
3100
0010
0020
0000
0130
,
0000
0100
0010
1000
0010
0200
0000
0310
,
0010
0010
0000
1000
1000
0200
0000
0301
,
0000
0200
0000
0310
0010
0200
0000
0310
,
0010
2000
0000
3010
0000
0010
1000
0010
,
1000
0100
0000
0001
0100
0001
1000
0010
,
0001
1000
0100
1000
0100
2000
0000
3000
;

//---------------dance-single - Copied from Copied f----------------
#NOTES:
     dance-single:
     Copied from Copied f:
     Easy:
     3:
     0.213,0.156,0.000,0.022,0.000,132.000,0.000,2.000,0.000,0.000:
0000
0000
0000
0000
,
0000
0000
0000
0000
0000
0010
0000
1000
,
0000
0010
0000
0001
0000
0010
0000
1000
,
0000
0100
0000
0010
0000
0100
0000
0001
,
0000
1000
0000
0001
0000
0100
0000
0001
,
0000
1000
0000
0100
0000
0010
0000
1000
,
0000
0010
0000
0100
0000
0001
0000
0010
,
0000
0100
0000
0010
0000
0010
0000
0100
,
0000
1000
0000
0010
0000
0001
0000
0100
,
0000
0010
0000
0100
0000
1000
0000
0001
,
0000
0100
0000
0010
0000
1000
0000
0010
,
0000
0100
0000
0001
0000
0010
0000
0100
,
0000
0001
0000
1000
0000
0010
0000
0100
,
0000
0001
0000
0010
0000
0001
0000
1000
,
0000
0010
0000
0100
0000
0001
0000
0010
,
0000
1000
0000
0010
0000
0001
0000
0100
,
0000
1000
0000
0010
0000
0100
0000
0001
,
0000
0010
0000
0100
0000
0200
0000
0000
,
0000
0310
0000
0100
0000
0001
0000
1000
,
0000
0010
0000
1000
0000
0001
0000
0100
,
0000
0010
0000
0100
0000
0001
0000
0100
,
0000
0001
0000
0010
0000
0001
0000
0100
,
0000
0010
0000
1000
0000
0100
0000
0010
,
0000
0001
0000
1000
0000
0010
0000
1000
,
0000
0001
0000
0010
0000
1000
0000
0100
,
0000
0010
0000
0001
0000
0010
0000
0100
,
0000
0100
0000
0001
0000
0100
0000
0001
,
0000
0010
0000
0100
0000
0001
0000
0010
,
0000
1000
0000
0100
0000
0010
0000
0100
,
0000
0100
0000
1000
0000
0100
0000
0010
,
0000
0001
0000
1000
0000
0100
0000
0001
,
0000
0100
0000
0010
0000
0100
0000
0001
,
0000
1000
0000
0010
0000
0010
0000
1000
,
0000
0100
0000
0001
0000
0100
0000
0010
,
0000
1000
0000
0010
0000
2000
0000
0000
,
3000
0000
0000
0000
;
