#TITLE:Fade to Black v2;
#SUBTITLE:1984-Ride The Lightning;
#ARTIST:Metallica;
#TITLETRANSLIT:;
#SUBTITLETRANSLIT:;
#ARTISTTRANSLIT:;
#CREDIT:;
#BANNER:Metallica-bn.png;
#BACKGROUND:Ride the Lightning-bg.png;
#LYRICSPATH:;
#CDTITLE:PhobosTag.png;
#MUSIC:Fade to Black.mp3;
#OFFSET:-0.690;
#SAMPLESTART:100.000;
#SAMPLELENGTH:12.000;
#SELECTABLE:YES;
#BPMS:0.000=60.000,5.000=114.000,7.000=112.400,28.000=112.000,93.000=112.300,137.000=113.000,137.500=113.500,138.000=114.000,156.500=113.000,157.000=113.200,186.000=112.500,197.500=113.500,203.000=115.900,219.000=117.000,221.000=117.400,223.500=119.000,255.000=120.000,282.000=118.000,283.000=116.380,289.000=114.000,289.500=113.000,290.000=112.000,296.000=115.500,307.000=115.000,309.000=114.000,317.000=114.300,345.500=112.000,348.000=111.700,358.000=112.500,360.500=115.300,377.000=116.200,380.500=119.000,412.500=120.500,426.000=119.200,440.500=131.000,449.000=132.000,451.000=133.000,456.000=136.000,468.000=134.000,468.500=133.000,472.500=135.900,473.000=137.000,488.000=137.600,504.000=138.000,521.000=137.500,557.000=140.000,579.000=141.000,580.500=142.500,607.000=141.800,623.000=141.000,625.000=141.200,634.500=142.500,640.000=145.000,648.000=141.100,657.000=140.800,672.500=140.999,698.000=141.699,705.000=142.299,737.000=142.999,752.000=143.799,757.000=144.999,758.000=145.999,759.000=146.999,760.500=144.999,761.000=141.999,792.000=138.999,799.000=139.999,807.000=139.999,811.000=141.399,817.000=145.599,824.000=143.999,832.000=141.999,849.000=140.999;
#STOPS:;
#BGCHANGES:;
// cache tags:
#FIRSTBEAT:0.000;
#LASTBEAT:857.000;
#SONGFILENAME:Songs/toune 5/Fade to Black v2/Fade to Black v2.sm;
#HASMUSIC:1;
#HASBANNER:1;
#MUSICLENGTH:412.995;
// end cache tags

//---------------dance-single - Copied from----------------
#NOTES:
     dance-single:
     Copied from:
     Hard:
     13:
     0.734,0.986,0.584,0.804,0.476,1550.000,241.000,332.000,0.000,4.000:
0120
0000
0000
0000
,
0000
0000
1030
0010
0001
0010
1000
0010
,
0100
0010
1000
0010
0001
0010
0100
0010
,
1000
0010
0100
0010
0001
0010
0100
0010
,
1000
0010
0001
0100
0010
0100
0001
0010
,
0100
0000
1000
0000
0200
0000
0000
0000
0000
0000
1300
0100
0020
0000
0000
0000
,
0000
0000
0000
0000
0000
0000
0130
0000
0000
0010
0000
0000
0001
0000
0000
0000
0000
0000
0000
0000
0020
0000
0000
0000
0000
0000
0000
0000
0230
0000
0000
0000
0000
0000
0000
0000
0320
0000
0000
0000
0000
0000
0000
0000
0000
0000
0000
0000
,
0000
0000
0000
0000
0000
0000
0000
0000
1030
0000
0001
0000
0100
0000
0000
0010
0000
0000
0100
0000
0000
0010
0000
0000
,
1000
0000
0000
0010
0000
0000
0002
0000
0000
0000
0023
0000
0000
0000
0230
0000
0000
0000
0320
0000
0000
0000
0230
0000
,
0000
2300
0000
3200
0000
0000
2300
0000
0000
0000
0000
0000
,
3000
0010
0200
0000
0000
0000
0000
1300
,
0100
1000
0020
0000
0000
0000
0000
0000
,
0030
0010
0002
0000
0000
0000
0000
0000
,
0003
0000
0100
0010
0001
0010
0100
1000
0001
0010
0100
1000
0010
0100
1000
0100
,
0020
0000
0000
0000
0230
0000
0000
0000
0000
0000
0310
0001
2000
0000
0000
0000
,
0000
0000
0000
0000
0000
0000
3010
0000
0000
1000
0000
0000
0100
0000
0000
0000
0000
0000
1000
0000
0000
0000
0000
0000
0010
0000
0000
0000
0000
0000
0100
0000
0000
0000
0000
0000
0001
0000
0010
0000
0001
0000
0100
0000
0000
0000
0000
0000
,
1000
0100
0010
0001
0100
0020
0000
0000
,
1030
0000
0001
0000
0020
0000
0000
0000
0031
0000
0200
0000
0000
0000
0000
0300
,
0100
0001
0020
0000
0031
0200
0000
0300
,
1000
0001
0020
0000
1030
0200
0000
0000
,
0302
0023
0000
0000
,
0000
0030
0000
0000
0000
0000
1000
0000
0000
0100
0000
0000
0010
0000
0000
0100
0000
0000
1000
0000
0000
0010
0000
0000
,
0100
0010
1000
0100
0001
0100
0010
0001
,
0010
1000
0010
0001
0000
0000
0201
0000
0000
0001
0000
0000
1300
0000
0000
0001
0000
0000
0010
0000
0000
0100
0000
0000
,
0010
0001
0100
0000
0210
0000
0000
0000
1300
0000
0100
0000
0010
0000
0001
0000
,
1000
0010
0100
0000
2100
0000
0000
0000
3010
0000
0100
0000
0001
0000
0100
0000
,
0011
0110
2100
0000
3100
1000
1001
0000
,
0022
0033
0000
0000
0201
0000
0001
0000
1300
0000
0001
0000
0010
0000
0100
0000
,
0010
0001
0100
0000
0210
0000
0000
0000
1300
0000
0100
0000
0010
0000
0001
0000
,
1000
0010
0100
0000
2100
0000
0000
0000
3010
0000
0100
0000
0001
0000
0100
0000
,
0010
0100
0010
0100
0000
0000
2100
0000
0000
0000
0000
0000
3100
0000
0000
1000
0000
0000
1001
0000
0000
0000
0000
0000
,
0022
0033
0000
0000
0201
0000
0001
0000
1300
0000
0001
0000
0010
0000
0100
0000
,
0010
0001
0100
0000
0210
0000
0000
0000
1300
0000
0100
0000
0010
0000
0001
0000
,
1000
0010
0100
0000
2100
0000
0000
0000
3010
0000
0100
0000
0001
0000
0100
0000
,
0011
0110
2100
0000
3100
1000
1001
0000
,
0022
0033
0000
0000
0201
0000
0001
0000
1300
0000
0001
0000
0010
0000
0100
0000
,
0010
0001
0100
0000
0210
0000
0000
0000
1300
0000
0100
0000
0010
0000
0001
0000
,
1000
0010
0100
0000
2100
0000
0000
0000
3010
0000
0100
0000
0001
0000
0100
0000
,
1000
0000
0100
0000
1100
0000
0000
0001
0010
0000
0110
0000
0001
0010
0100
1000
,
0100
1001
2000
0000
3010
1000
0002
0000
,
0103
0020
0000
1030
0200
0000
0010
0001
,
1300
0010
0100
0000
1100
0000
0000
0000
0100
0000
0001
0000
2000
0000
0000
0000
,
3010
0200
0000
0301
0020
0000
1000
0100
,
0031
0000
0110
0000
0010
1000
0200
0300
,
0010
0200
0000
2300
0000
3002
0000
0000
,
0020
0000
0000
0000
0000
0000
0130
0003
0000
0000
0000
0000
1000
0000
0000
0010
0000
0000
0002
0000
0000
0000
0000
0000
,
0013
2000
0000
3100
0020
0000
0100
0000
,
0130
0000
1001
0000
1000
0100
0002
0000
,
0103
2000
0000
3010
0200
0000
0010
0001
,
1300
0010
0100
0000
1100
0000
0000
0000
0001
0000
0010
0000
2000
0000
0000
0000
,
3010
0002
0000
0103
0020
0000
0100
0000
,
0130
0000
0110
0000
0001
0100
0020
0000
,
1030
0000
0020
0000
0000
0000
0230
0000
0000
0000
0302
0000
0000
0000
0100
0010
,
1003
0010
0100
0001
0010
0000
0000
0000
1000
0000
0001
0000
0100
0000
0000
0000
,
0100
0010
1100
1100
1100
1100
1100
1100
,
1100
0000
1100
0000
0220
0000
0000
0000
0330
0000
0110
0000
0110
0000
1000
1000
,
0100
0000
0010
0000
2020
0000
0000
0000
3030
0000
1010
0000
1010
0000
1000
1000
,
0100
0010
0220
0000
0330
0110
0110
0000
,
0101
0000
0000
0000
0022
0000
0000
0000
0033
0000
0011
0000
0011
0000
1000
1000
,
1010
0000
1100
0000
0220
0000
0000
0000
0330
0000
0110
0000
0110
0000
1000
1000
,
0100
0000
0010
0000
2020
0000
0000
0000
3030
0000
1010
0000
1010
0000
1000
1000
,
0100
0010
0220
0000
0330
0110
0110
0000
,
1001
0000
0000
0101
0000
0000
2100
0000
0000
0000
0000
0000
0001
0000
0000
0000
0000
0000
3001
0010
0100
0010
0000
0000
,
0100
0000
0010
0000
0100
0000
1000
0000
0000
0000
0000
0000
0220
0000
0000
0000
0000
0000
0000
0000
0000
0000
0000
0000
0330
0000
0000
0000
0000
0000
0110
0000
0000
0000
0000
0000
0110
0000
0000
0000
0000
0000
1000
0000
0000
1000
0000
0000
,
0100
0000
0010
0000
2020
0000
0000
0000
3030
0000
1010
0000
1010
0000
1000
1000
,
0100
0010
0220
0000
0330
0110
0110
0000
,
0101
0000
0000
0000
0022
0000
0000
0000
0033
0000
0011
0000
0011
0000
1000
1000
,
1010
0000
1100
0000
0220
0000
0000
0000
0330
0000
0110
0000
0110
0000
1000
1000
,
0100
0000
0010
0000
2020
0000
0000
0000
3030
0000
1010
0000
1010
0000
1000
1000
,
0100
0010
0220
0000
0330
0110
0110
0000
,
1001
0101
2100
0000
0001
0000
0001
0010
,
0100
0010
3200
0000
0000
0000
0000
0300
,
0100
0000
0000
0001
0000
0000
0020
0000
0000
0000
0000
0000
0000
0000
0000
0000
0030
0000
0020
0000
0000
0000
0230
0000
,
0000
2300
0000
3200
0000
0000
0000
0000
0000
0000
0000
0300
,
0200
0000
0320
0000
2030
0000
0000
0000
0000
0000
0000
0000
3200
0300
2000
3000
,
0200
0300
0020
0030
0200
0000
0000
0000
0000
0000
0000
0000
0000
0000
0000
0000
,
2300
0000
0000
3020
0000
0000
0032
0000
0000
0000
0000
0000
0000
0000
0000
0000
0000
0000
0023
0000
0000
0000
0230
0000
,
0000
0000
0000
0000
2300
0000
0000
0000
0000
0000
0000
0000
3020
0000
0000
0000
0000
0000
0000
0000
0000
0030
0000
0000
0020
0000
0000
0000
0000
0000
0000
0000
0000
0030
0000
0000
0020
0000
0000
0000
0000
0000
0000
0000
0000
0030
0000
0000
,
0020
0000
0000
0030
0200
0000
0000
0000
0000
0000
0000
0000
0000
0000
0000
0000
,
0000
0000
2300
0000
3010
1000
0002
0000
,
0103
0020
0000
1030
0200
0000
0010
0001
,
1300
0010
0100
0000
1100
0000
0000
0000
0100
0000
0001
0000
2000
0000
0000
0000
,
3010
0200
0000
0301
0020
0000
0100
0100
,
1030
1000
0110
0000
0010
1000
0200
0300
,
0010
0200
0000
2300
0000
3002
0000
0000
,
0020
0000
0000
0000
0000
0000
0000
0000
0000
0000
0000
0000
0130
0000
0003
0000
0000
0000
0000
0000
0000
0000
0000
0000
1000
0000
0000
0010
0000
0000
0000
0000
0000
0000
0000
0000
0002
0000
0000
0000
0000
0000
0000
0000
0000
0000
0000
0000
,
0013
2000
0000
3100
0020
0000
0100
0000
,
0130
0000
1001
0000
1000
0100
0002
0000
,
0103
2000
0000
0020
3000
0230
0010
0301
,
1000
0010
0100
0000
1100
0000
0000
0000
0001
0010
0000
0000
1000
0000
0000
0000
,
0010
0002
0000
0103
0020
0000
0100
0000
,
0130
0000
0110
0000
0001
0100
0020
0000
,
1030
0000
0020
0000
0000
0000
0230
0000
0000
0000
0302
0000
0000
0000
0100
0010
,
1003
0010
0100
0001
0010
0000
0000
0000
1000
0000
0001
0000
0020
0000
0000
0000
,
0130
0010
1100
1100
1100
1100
1100
1100
,
1100
0000
1100
0000
0220
0000
0000
0000
0330
0000
0110
0000
0110
0000
1000
1000
,
0100
0000
0010
0000
2020
0000
0000
0000
3030
0000
1010
0000
1010
0000
1000
1000
,
0100
0010
0220
0000
0330
0110
0110
0000
,
0101
0000
0000
0000
0022
0000
0000
0000
0033
0000
0011
0000
0011
0000
1000
1000
,
1010
0000
1100
0000
0220
0000
0000
0000
0330
0000
0110
0000
0110
0000
1000
1000
,
0100
0000
0010
0000
2020
0000
0000
0000
3030
0000
1010
0000
1010
0000
1000
1000
,
0100
0010
0220
0000
0330
0110
0110
0000
,
1001
0000
0000
0101
0000
0000
2100
0000
0000
0000
0000
0000
0001
0000
0000
0000
0000
0000
3001
0010
0100
1000
0000
0000
,
0010
0100
0000
0000
0000
0000
0000
0000
0000
0000
0000
0000
0220
0000
0000
0000
0000
0000
0000
0000
0000
0000
0000
0000
0330
0000
0000
0000
0000
0000
0110
0000
0000
0000
0000
0000
0110
0000
0000
0000
0000
0000
1000
0000
0000
1000
0000
0000
,
0100
0000
0010
0000
2020
0000
0000
0000
3030
0000
1010
0000
1010
0000
1000
1000
,
0100
0010
0220
0000
0330
0110
0110
0000
,
0101
0000
0000
0000
0022
0000
0000
0000
0033
0000
0011
0000
0011
0000
1000
1000
,
1010
0000
1100
0000
0220
0000
0000
0000
0330
0000
0110
0000
0110
0000
1000
1000
,
0100
0000
0010
0000
2020
0000
0000
0000
3030
0000
1010
0000
1010
0000
1000
1000
,
0100
0010
0220
0000
0330
0110
0110
0000
,
1001
0101
1100
1010
0000
1010
2020
0000
,
0000
3030
1100
1010
0000
0110
0011
0202
,
0000
0303
0000
1001
0000
1001
2002
0000
,
3003
0000
0001
0001
0001
0000
0010
0010
0010
0000
0100
0100
0100
0000
1000
1000
,
1000
0001
1100
1010
0000
1010
2020
0000
,
0000
3030
1100
1010
0000
0110
0011
0202
,
0000
0303
0000
1001
0000
1001
2002
0000
,
3003
0000
0001
0001
0001
0000
0010
0010
0010
0000
0100
0100
0100
0000
1000
1000
,
1000
0010
1000
0100
0000
0010
0001
0000
,
1100
0000
0001
0010
0000
0100
1000
0100
,
0000
0010
0001
1000
0200
0000
0000
0000
,
0300
0000
0001
0001
0001
0000
0010
0010
0010
0000
0100
0100
0100
0000
1000
1000
,
1000
0001
0100
0010
0000
1000
0001
0000
,
0000
0000
0010
1000
0100
0010
0100
1000
,
0000
0200
0300
0020
0000
2030
0000
0000
,
0000
0000
3001
0001
0001
0000
0010
0010
0010
0000
0100
0100
0100
0000
1000
1000
,
1000
0010
1100
1010
0000
1010
2020
0000
,
0000
3030
1100
1010
0000
0110
0011
0202
,
0000
0303
0000
1001
0000
1001
2002
0000
,
3003
0000
0001
0001
0001
0000
0010
0010
0010
0000
0100
0100
0100
0000
1000
1000
,
1000
0001
1100
1010
0000
1010
2020
0000
,
0000
3030
1100
1010
0000
0110
0011
0202
,
0000
0303
0000
1001
0000
1001
2002
0000
,
3003
0000
0001
0001
0001
0000
0010
0010
0010
0000
0100
0100
0100
0000
1000
1000
,
1000
0010
0100
0001
0100
1000
0020
0030
,
1100
0000
0100
0010
1000
0010
0001
0200
,
0000
1300
0001
0020
0000
0000
0000
0000
,
0000
0000
0031
0001
0001
0000
0010
0010
0010
0000
0100
0100
0100
0000
1000
1000
,
1000
0001
2000
3010
0000
0020
0031
0000
,
0000
0000
0001
0010
0100
1000
0100
0010
,
0000
0002
0003
2002
0000
0000
0000
0000
,
0003
0000
3001
0001
0001
0000
0010
0010
0010
0000
0100
0100
0100
0000
1000
1000
,
1000
0010
1000
1000
1000
1000
2020
0000
,
0000
3030
1000
1000
1000
1000
0011
0202
,
0000
0000
1303
1000
1000
1000
2002
0000
,
3003
0000
0001
0001
0001
0000
0010
0010
0010
0000
0100
0100
0100
0000
1000
1000
,
1000
0001
1000
1000
1000
1000
2020
0000
,
0000
3030
1000
1000
1000
1000
0011
0202
,
0000
0000
1303
1000
1000
1000
2002
0000
,
3003
0000
0001
0001
0001
0000
0010
0010
0010
0000
0100
0100
0100
0000
1000
1000
,
1000
0010
2000
0000
0000
3002
0000
0000
,
0023
0000
0000
0230
0000
0000
0301
0010
,
0100
0100
2000
0000
0000
3020
0000
0000
,
0230
0000
0000
0302
0000
0000
0103
0010
,
1000
1000
2000
0000
0000
3002
0000
0000
,
0023
0000
0000
0230
0000
0000
0301
0010
,
0100
0100
2000
0000
0000
3020
0000
0000
,
0230
0000
0000
0000
0000
0000
0302
0000
0000
0000
0000
0000
2003
3000
0020
0030
,
0002
0003
0020
0030
2200
0300
0000
0000
0000
0000
3002
0000
0000
0000
0000
0000
,
0023
0000
0000
0230
0000
0300
0200
0300
,
0200
0300
1000
0100
0020
0000
0000
0030
0000
0000
0020
0000
0000
0030
0000
0000
,
0020
0000
0000
0030
0000
0000
0020
0000
0000
0030
0100
0001
2000
0000
0000
0000
,
3000
0000
0000
0020
0000
0230
0000
2300
0000
3020
0000
0230
,
0000
2300
0000
3020
0000
0230
0000
2300
0000
3002
0000
0000
,
1003
0000
0000
0010
0000
0000
0002
0000
0000
0000
0203
0000
0000
0000
0320
0000
0000
0000
2030
0000
0000
0000
3020
0000
,
0000
0230
0000
0302
0000
0023
0000
0230
0000
0320
0000
0230
,
0000
0000
2300
0000
0000
0000
3200
0000
0000
0000
0000
0000
0320
0000
0000
0000
0000
0000
0000
0000
0000
0130
0000
0000
,
1000
0000
0100
0000
0010
0000
0010
0001
1000
0000
0200
0000
0000
0000
0310
0000
,
0100
0000
1000
0000
0001
0000
1000
0010
0100
0001
1000
0010
0100
0001
1000
0010
,
0100
0001
1000
0010
0100
0001
1000
0010
0100
0001
1000
0010
0100
0001
1000
0010
,
0100
0001
1000
0100
1000
0010
0100
0010
1000
0001
0100
0001
0100
0010
1000
0001
,
0100
0001
0100
0010
1000
0010
0100
0010
1000
0001
0100
0001
0100
0010
1000
0001
,
0100
0000
0000
0001
0000
0000
0100
0000
0000
0010
0000
0000
0002
0000
0000
0000
0000
0000
0000
0000
0000
0003
0000
0000
0002
0000
0000
0000
0000
0000
0000
0000
0000
0000
0000
0000
0013
0000
0000
0000
0100
0000
0000
0000
0010
0000
0000
0000
,
1000
0001
1000
0001
0010
1000
0001
0100
1000
0010
0100
0001
,
1000
0000
0000
0000
0010
0000
0000
0000
0100
0000
0000
0000
2000
0000
0000
0000
0000
0000
0000
0000
0000
0000
0000
0000
3200
0000
0000
0000
0000
0000
0000
0000
0000
0000
0000
0000
0000
0000
0000
0000
0000
0000
1300
0000
0000
0010
0000
0000
,
0100
0010
1000
0010
0001
0010
0100
0001
,
0100
0000
0010
0000
2000
0000
0000
0000
3200
0000
0000
0000
0000
0000
1300
0010
,
0100
0010
1000
0100
0010
0001
0020
0000
,
0130
0000
0000
1000
0000
0000
0001
0000
0010
0000
0001
0000
0100
0000
1000
0000
0100
0000
0001
0000
0010
0000
0100
0000
,
0001
0100
1000
0010
1000
0100
1000
0001
1000
0010
0100
0010
,
1000
0010
0100
1000
0100
0001
0100
0010
0100
0001
0100
1000
,
0100
0010
0100
1000
0100
0001
0100
0010
0001
0010
0100
0010
,
0001
0010
0100
0010
0000
0000
0020
0000
0000
0030
0000
0000
0020
0000
0000
0030
0000
0000
0020
0000
0000
0030
0000
0000
,
0020
0000
0030
0000
0010
0100
0010
0100
0010
0100
0010
0100
0020
0000
0000
0000
,
0000
0000
0000
0000
0130
0000
0000
0000
0010
0000
0000
0000
0001
0000
0000
0000
0000
0000
0000
0000
0000
0000
0000
0000
1001
0000
0000
1001
0000
0000
0011
0000
0000
0000
0000
0000
0000
0000
0000
0000
0000
0000
1001
0000
0000
1001
0000
0000
,
0011
0000
0000
0000
1001
1001
0011
0000
0000
0000
0000
0000
0200
0000
0300
0000
,
0200
0000
0300
0000
0200
0000
0000
0000
0000
0000
0000
0000
0301
0010
0100
0000
,
0010
0000
0000
0100
0000
0000
1000
0010
1000
0100
0000
0000
0010
0000
0000
0001
0000
0000
0020
0000
0000
0000
0000
0000
,
1030
0000
0000
0100
0000
0000
0001
0000
0010
0000
0100
0000
0010
0000
0100
0000
1000
0000
0001
0000
0010
0000
0100
0000
,
0010
0000
0100
0000
1000
0000
0010
0000
0001
0000
0010
0000
0100
0000
1000
0000
0100
0000
0010
0000
0000
0001
0000
0000
,
1001
0000
0000
0000
1000
0100
0010
0100
1000
0010
1000
0010
1000
0100
1000
0100
,
0010
0100
1000
0010
1000
0100
0010
0100
1000
0010
1000
0010
1000
0100
1000
0100
,
0010
0100
1000
0010
1000
0001
0100
0010
1000
0001
0100
0010
1000
0001
0100
0010
,
1000
0001
0100
0010
1000
0001
0100
0010
1000
0001
0100
0010
1000
0001
0100
0010
,
1000
0001
0100
0010
0001
0100
0010
0100
0001
0010
0001
0010
0001
0100
0001
0100
,
0010
0100
0001
0010
0001
0100
0010
0100
0001
0010
0001
0010
0001
0100
0001
0100
,
0010
0100
0001
0100
0001
0010
0100
1000
0001
0010
0100
1000
0001
0010
0100
1000
,
0001
0010
0100
1000
0001
0010
0100
1000
0001
0010
0100
1000
0001
0010
0100
1000
,
0001
0000
0000
0010
0000
0000
0100
0000
0000
1000
0000
0000
0002
0000
0000
0000
0000
0000
0000
0000
0003
0000
0000
0000
0002
0000
0000
0000
0000
0000
0000
0000
0003
0000
0000
0000
0002
0000
0000
0000
0000
0000
0000
0000
0003
0000
0000
0000
,
0002
0000
0000
0000
0000
0000
0000
0000
0003
0000
0000
0000
0002
0000
0000
0003
0000
0000
0000
0000
0002
0000
0000
0000
0003
0000
0000
0000
0002
0000
0000
0000
0003
0000
0000
0000
0002
0000
0000
0000
0000
0000
0000
0000
0000
0000
0000
0000
,
1003
0100
1000
0001
0100
0010
1000
0010
0100
0001
0010
1000
,
0010
0100
1000
0001
0010
0001
0100
1000
0100
0001
0010
1000
,
0001
0100
1000
0010
0100
0010
1000
0100
1000
0010
1000
0001
,
0100
0010
1000
0001
0010
0100
0010
0100
1000
0200
0000
0300
,
1000
0000
0000
0000
0000
0000
0001
0000
0000
0100
0000
0000
0010
0000
0000
0000
0000
0000
0001
0000
0010
0000
0001
0000
0010
0000
0001
0000
0010
0000
0001
0000
0010
0000
0001
0000
0010
0000
0001
0000
0010
0000
0001
0000
0010
0000
0001
0000
,
0010
0001
0010
0001
0010
0001
0010
0001
0010
0001
0010
0001
0010
0001
0010
0002
0000
0000
1000
0000
0000
0000
0000
0000
,
1003
0000
0000
1000
0000
0100
0001
0000
0001
0100
0000
1000
,
0010
0000
0001
0010
0000
1000
0001
0000
0001
1000
0000
0010
,
0100
0000
0010
0000
1000
0100
0010
0100
1000
0001
0100
0010
0100
0001
1000
0100
,
0010
0001
0010
0100
1000
0001
0100
0001
0100
0001
1000
0001
1000
0100
0010
0001
,
0100
0000
0000
0001
0000
0000
0010
0000
0000
0001
0000
0000
1000
0000
0000
0000
0100
0000
0000
0000
0001
0000
0000
0000
0100
0000
0000
0000
0010
0000
0000
0000
0001
0000
0000
0000
0010
0000
0000
0000
0100
0000
0000
0000
0001
0000
0000
0000
,
0100
0000
0000
0000
0010
0000
0000
0000
1000
0000
0000
0000
0001
0000
0000
0100
0000
0000
0010
0000
0000
0100
0000
0000
0001
0000
0000
0010
0000
0000
0001
0000
0000
0010
0000
0000
0001
0000
0000
0100
0000
0000
0001
0000
0000
0100
0000
0000
,
0010
0100
0001
0100
0022
0000
0033
0000
0022
0000
0033
0000
0022
0000
0033
0000
,
0022
0033
0022
0033
0022
0033
0022
0033
,
0022
0033
0011
0000
0000
0000
0000
0000
;
