#TITLE:LOUDER!! LOUDER!!!! LOUDER!!!!!!;
#SUBTITLE:;
#ARTIST:The Quick Brown Fox;
#TITLETRANSLIT:;
#SUBTITLETRANSLIT:;
#ARTISTTRANSLIT:;
#CREDIT:Owem;
#BANNER:../banner.png;
#BACKGROUND:../bg.png;
#LYRICSPATH:;
#CDTITLE:../cdtitleowem.png;
#MUSIC:The Quick Brown Fox - Louder!! Louder!!!! Louder!!!!!!.ogg;
#OFFSET:-0.284;
#SAMPLESTART:26.784;
#SAMPLELENGTH:10.667;
#SELECTABLE:YES;
#BPMS:0.000=180.000,15.000=360.000,80.000=180.000,111.000=360.000,177.000=180.000,240.000=360.000,298.000=180.000,301.000=360.000,359.000=180.000;
#STOPS:;
#BGCHANGES:;
// cache tags:
#FIRSTBEAT:0.000;
#LASTBEAT:363.000;
#SONGFILENAME:Songs/Owem's Simfiles 08 1.1/LOUDER!! LOUDER!!!! LOUDER!!!!!! - [Owem]/LOUDER!! LOUDER!!!! LOUDER!!!!!!.sm;
#HASMUSIC:1;
#HASBANNER:1;
#MUSICLENGTH:87.745;
// end cache tags

//---------------dance-single - 1/1/1----------------
#NOTES:
     dance-single:
     1/1/1:
     Challenge:
     18:
     1.000,1.000,0.148,1.000,0.735,663.000,13.000,90.000,4.000,0.000:

1000
0020
0130
0001
0100
0002
1003
0020
,
0030
0200
0000
0300
000M
0000
M000
0000
0000
0M00
0000
00M0
0000
0000
0002
0000
,
0000
0000
0000
0000
0000
0000
2003
0000
0000
0000
0000
0000
3040
0000
0130
0001
,
1000
0010
0100
0001
1000
0010
0100
0001
1000
0010
0100
0001
1000
0100
0010
0001
,
1000
0000
0100
0000
0010
0000
0001
0100
,
0010
0000
1000
0001
0100
0010
2000
0000
,
3001
0000
0100
0000
0010
1000
0010
0000
,
0100
0002
1003
0001
0010
0000
0100
0000
,
1000
0001
1000
0000
0010
0000
0100
0001
,
0100
0000
0010
1000
0002
0000
0023
0000
,
0130
0000
1000
0000
0001
0100
0001
0000
,
1000
0000
0100
0010
0001
0000
2000
0000
,
3010
0000
0100
0000
0001
0000
1000
0100
,
0000
0010
0001
0000
1000
0000
0020
0000
,
0130
0000
0001
0000
1000
0100
0010
0000
,
0001
0000
0100
0010
1000
0000
0001
0000
,
1000
0100
0010
0000
0001
0000
0100
0010
,
1000
0000
0001
0100
0001
1000
0010
0000
,
0200
0000
0302
0000
,
1003
0010
0200
0300
0001
1000
0010
0100
0020
0030
1000
0001
1000
0100
0020
0000
,
0031
0000
1000
0010
0100
0000
0001
0000
1000
0100
0010
0000
0002
0000
0203
0000
,
0310
1000
0010
0000
0100
0001
1000
0000
0100
0010
0001
0000
0100
0010
0100
0000
,
0001
0000
0010
0100
1000
0000
0001
0000
1000
0010
0100
0000
0001
0000
1000
0000
,
0100
0000
0000
0010
0000
0000
0001
0000
0000
1000
0000
0000
0001
0000
0000
0000
0000
0000
1000
0000
0000
0001
0000
0000
0100
0000
0000
0000
0000
0000
0010
0000
0000
0100
0000
0000
0001
0000
1000
0000
0001
0000
1000
0000
0000
0000
0000
0000
,
0100
0000
0010
0001
0100
0000
0010
0000
1000
0001
1000
0000
0100
0000
0010
0000
,
0001
0000
0000
0100
0000
0000
0001
0000
0000
0000
0000
0000
1000
0000
0000
0100
0000
0000
0010
0000
0000
0000
0000
0000
0001
0000
0000
1000
0000
0000
0001
0000
0000
0000
0000
0000
0100
0000
0010
0000
1000
0000
0010
0000
0000
0000
0000
0000
,
0100
0000
0001
1000
0002
0000
0023
0000
0130
1000
0002
0000
0103
0000
0020
0000
,
1030
0000
0001
0000
0100
0000
0010
0000
1000
0000
0001
0000
1000
0000
0100
0010
0002
0000
0000
0000
0003
0000
0000
0000
2000
0000
0000
0000
0000
0000
0000
0000
,
3100
0010
0001
1000
0010
0000
0000
0000
0100
0000
0000
0000
0001
0000
0000
0000
,
1000
0010
0100
0000
0001
1000
0002
0000
,
0013
0000
0100
0000
1000
0000
0001
1000
,
0010
0000
0100
0000
0001
1000
0001
0000
,
0020
0000
0130
1000
0001
0000
1000
0000
,
0010
0100
0001
0000
1000
0100
0020
0000
,
0031
0000
0100
0000
0010
0000
1000
0001
,
1000
0000
0100
0010
0001
1000
0001
0000
,
0100
0010
1000
0001
,
0010
0100
1000
0000
0001
1000
0002
0000
,
0103
0000
0010
0000
1000
0000
0001
0010
,
0100
0000
1000
0000
0010
0100
0001
0000
,
2000
0000
3100
0010
0001
0000
1000
0000
,
0010
0100
0001
0000
1000
0100
0020
0000
,
0031
0000
1000
0010
0100
0001
1000
0001
,
0010
0000
0100
0000
1000
0010
0100
0000
0001
1000
0010
0100
0010
0000
0100
0001
,
1000
0000
0000
0000
0000
0000
0000
0000
0000
0000
0000
0000
0100
0000
0000
0000
0000
0000
0000
0000
0000
0000
0000
0000
0010
0000
0000
0000
0000
0000
0000
0000
0000
0000
0000
0000
0000
0000
0000
0000
0000
0000
0000
0000
0000
0000
0000
0000
0001
0000
0000
0000
0000
0000
0000
0000
0000
0000
0000
0000
0000
0000
0000
0000
0000
0000
0000
0000
0000
0000
0000
0000
0000
0000
0000
0000
0000
0000
0000
0000
0000
0000
0000
0000
0000
0000
0000
0000
0000
0000
0000
0000
0000
0000
0000
0000
1000
0000
0000
0000
0000
0000
0000
0000
0000
0000
0000
0000
0000
0000
0000
0000
0000
0000
0000
0000
0000
0000
0000
0000
0000
0000
0000
0000
0000
0010
0000
0000
0000
0000
0000
0000
0000
0000
0000
0000
0000
0000
0000
0000
0000
0000
0000
0000
0200
0000
0000
0000
0000
0000
0000
0000
0000
0000
0000
0000
0000
0000
0000
0000
0000
0000
0000
0000
0000
0000
0000
0000
0300
0000
0000
0000
0000
0000
0000
0000
0000
0000
0000
0000
0002
0000
0000
0000
0000
0000
0000
0000
0000
0000
0000
0000
,
0000
0003
2000
0000
0000
3000
0020
0000
0000
0030
0200
0000
0320
0000
0030
0000
,
1000
0000
0000
0000
0000
0000
0000
0000
0000
0000
0000
0000
0000
0000
0000
0000
0000
0000
0000
0000
0000
0000
0000
0000
0001
0000
0000
0000
0000
0000
0000
0000
0000
0000
0000
0000
0000
0000
0000
0000
0000
0000
0000
0000
0000
0000
0000
0000
1000
0000
0000
0000
0000
0000
0000
0000
0000
0000
0000
0000
0000
0000
0000
0000
0000
0000
0000
0000
0000
0000
0000
0000
0000
0000
0000
0000
0000
0000
0000
0000
0000
0000
0000
0000
0100
0000
0000
0000
0000
0000
0000
0000
0000
0000
0000
0000
0000
0000
0000
0000
0000
0000
0000
0000
0000
0000
0000
0000
0000
0000
0000
0000
0000
0000
0000
0000
0000
0000
0000
0000
0010
0000
0000
0000
0000
0000
0000
0000
0000
0000
0000
0000
0000
0000
0000
0000
0000
0000
0000
0000
0000
0000
0000
0000
0002
0000
0000
0000
0000
0000
0000
0000
0000
0000
0000
0000
0000
0000
0000
0000
0000
0000
0000
0000
0000
0000
0000
0000
0000
0000
0000
0000
0000
0003
0000
0000
0000
0000
0000
0000
2000
0000
0000
0000
0000
0000
0000
0000
0000
0000
0000
0000
,
0000
3000
0020
0000
0030
0000
0200
0000
0000
0000
0302
0000
2003
0000
3000
0000
,
0100
0000
0010
0000
0001
0000
0000
1000
0000
0000
0010
0000
0100
0000
0000
0001
,
0000
0000
2000
0000
0000
0000
3010
0000
0200
0000
0300
0001
0000
2000
0000
3000
,
0100
0000
0010
0000
0001
0000
0000
1000
0000
0000
0010
0000
0100
0000
0000
0001
,
0000
0000
0000
0000
1000
0000
0000
0000
0000
0000
0000
0000
0200
0000
0000
0000
0000
0000
0000
0000
0320
0000
0000
0000
0031
0100
0010
1000
0001
1000
0100
0010
,
0001
1000
0010
0100
0001
1000
0001
0010
0200
0000
0000
0000
0000
0000
0000
0000
1300
0000
0000
0000
2200
0000
0000
0000
3300
0000
0000
0000
0210
0000
0000
0000
,
0310
0022
0033
1002
1003
1010
2020
3030
,
0020
0030
0200
0000
0301
0202
0303
0120
,
1030
2020
3030
0010
0100
0101
0202
0303
,
2000
0000
3000
0000
1020
0000
0130
0001
2000
0000
3002
0000
0013
0100
2000
0000
,
3020
0000
0130
0000
0001
1000
0002
0000
0023
0000
0230
0300
2000
3000
0020
0030
,
0100
0001
1000
0000
0200
0000
0310
0001
1000
0000
0001
0000
0100
0010
2000
0000
,
3002
0000
0023
0000
0000
0030
0100
0000
0000
0000
1000
0000
0001
0000
0100
0000
,
0010
1000
0001
1000
0100
0010
0001
1000
0010
0000
0000
0000
0100
0000
0001
0000
,
1000
0000
0100
0000
0010
0001
0100
0000
,
0010
1000
0010
1000
0002
0000
0013
0100
,
1000
0000
0010
0100
0001
0000
1000
0000
,
0001
1000
0001
1000
0100
0000
0010
0001
,
0100
0000
0010
0000
1000
0001
1000
0000
,
0100
0000
0000
0000
0010
0001
1000
0001
0100
0000
0000
0000
0010
0000
0000
0000
,
1000
0000
0010
0100
0001
0000
1000
0100
,
0010
0000
0001
0000
1000
0010
0100
0001
1000
0000
0100
0000
0010
0000
0001
0000
,
0100
0010
1000
0001
1000
0100
0010
0001
,
0100
0000
0010
0000
1000
0001
1000
0010
0100
0000
0001
0000
1000
0000
0100
0000
,
0010
0000
0001
0000
1000
0010
0100
0001
0100
0000
0010
1000
0001
0000
0100
0000
,
0010
0100
0010
1000
0001
0000
0010
0000
0200
0000
0000
0000
1300
0000
0001
0100
,
0020
0000
1030
0001
1000
0100
0010
0001
,
1000
0000
0010
0000
1000
0000
0001
0000
0100
0000
0010
0000
0100
0000
0001
0000
1000
0000
0100
0000
0010
0000
0001
0000
1000
0000
0001
0000
0100
0000
0010
1000
,
0002
0000
0000
0000
0000
0003
0000
0000
2000
0000
0000
0000
0000
0000
0000
0000
3100
0000
0010
0000
0001
0000
1000
0000
0010
0000
0000
0000
0000
0000
0000
0000
,
0100
0000
0001
0000
1000
0001
1000
0000
,
0010
0100
0002
0000
1003
0000
0100
0000
,
0010
0000
0001
0100
0001
0000
1000
0000
,
0100
0010
0001
0000
1000
0000
0010
0100
,
0001
0000
1000
0000
0100
0010
0001
0000
,
1000
0010
0200
0000
0301
0000
1000
0000
,
0100
0000
0010
0001
0100
0000
0010
0000
,
1000
0001
1000
0000
0100
0000
0010
0001
,
1000
0000
0001
0000
0010
0000
0100
0000
1000
0001
0100
0010
0100
0000
0001
0000
,
1000
0010
1000
0000
0100
0000
0010
0001
1000
0000
0001
0000
0010
0000
0100
0000
,
1000
0000
0001
0000
1000
0000
0010
0000
0100
0001
1000
0000
0100
0010
0001
1000
,
0010
0000
0100
0000
0001
0000
1000
0000
0200
0000
0000
0000
0310
0000
0001
1000
,
0001
0000
0100
0010
1000
0000
0001
0100
0001
0010
0100
1000
0001
0100
0010
1000
,
0010
0100
0001
1000
0100
0010
0001
1000
0010
0100
0001
1000
0100
0000
0000
0010
,
0000
0000
0000
0000
0000
0000
0000
0000
0000
0002
0000
0000
0000
0000
0000
0000
0000
0000
0000
0000
0000
0000
0000
0000
0003
0000
0000
0000
0000
0000
0000
0000
;
