#TITLE:Abducted;
#SUBTITLE:;
#ARTIST:MonstDeath;
#TITLETRANSLIT:Abducted;
#SUBTITLETRANSLIT:;
#ARTISTTRANSLIT:MonstDeath;
#CREDIT:MonstDeath;
#BANNER:Banner.png;
#BACKGROUND:AlbumCover.png;
#LYRICSPATH:;
#CDTITLE:../CDTitleJose.png;
#MUSIC:Abducted.ogg;
#OFFSET:0.000;
#SAMPLESTART:78.989;
#SAMPLELENGTH:9.648;
#SELECTABLE:YES;
#DISPLAYBPM:199.000;
#BPMS:0.000=199.000,60.000=398.000,60.250=199.000,61.000=398.000,61.250=199.000,62.000=398.000,62.250=199.000,63.000=398.000,63.250=199.000,94.000=398.000,94.125=199.000,94.500=398.000,94.625=199.000,95.000=398.000,95.125=199.000,95.500=398.000,95.625=199.000,120.000=398.000,120.250=199.000,120.500=398.000,120.750=199.000,121.000=398.000,121.250=199.000,121.500=398.000,121.750=199.000,122.000=398.000,122.250=199.000,122.500=398.000,122.750=199.000,123.000=398.000,123.250=199.000,123.500=398.000,123.750=199.000,124.000=398.000,124.500=199.000,125.500=398.000,125.750=199.000,260.000=398.000,261.000=199.000,285.000=398.000,285.250=199.000,285.500=398.000,285.750=199.000,286.000=398.000,286.250=199.000,286.500=398.000,286.750=199.000,287.000=398.000,287.250=199.000,287.500=398.000,287.750=199.000,288.000=398.000,288.250=199.000,288.500=398.000,288.750=199.000,289.000=398.000,289.250=199.000,290.500=398.000,290.750=199.000,357.000=398.000,357.250=199.000,357.500=398.000,357.750=199.000,358.000=398.000,358.250=199.000,358.500=398.000,358.750=199.000,359.000=398.000,359.250=199.000,359.500=398.000,359.750=199.000,360.000=398.000,360.250=199.000,360.500=398.000,360.750=199.000,361.000=398.000;
#STOPS:60.250=0.036
,61.250=0.038
,62.250=0.039
,63.250=0.034
,94.125=0.022
,94.625=0.018
,95.125=0.018
,95.625=0.018
,120.250=0.036
,120.750=0.038
,121.250=0.038
,121.750=0.040
,122.250=0.038
,122.750=0.037
,123.250=0.038
,123.750=0.036
,124.000=0.076
,125.750=0.035
,260.000=0.451
,285.250=0.041
,285.750=0.036
,286.250=0.038
,286.750=0.039
,287.250=0.039
,287.750=0.039
,288.250=0.036
,288.750=0.035
,289.250=0.038
,290.750=0.040
,357.250=0.100
,357.500=0.100
,358.000=0.100
,361.000=0.050
,361.125=0.050
,361.250=0.050
,361.375=0.050
,361.500=0.050
,361.625=0.050
,361.750=0.050
,361.875=0.050
,362.000=0.050
,362.125=0.050
,362.250=0.050
,362.375=0.050
,365.000=0.050
,365.125=0.050
,365.250=0.050
,365.375=0.050
,365.500=0.050
,365.625=0.050
,365.750=0.050
,365.875=0.050
,366.000=0.050
,366.125=0.050
,366.250=0.050
,369.000=0.050
,369.125=0.050
,369.250=0.050
,369.375=0.050
,369.500=0.050
,369.625=0.050
,369.750=0.050
,369.875=0.050
,370.000=0.050
,370.125=0.050
,372.000=0.050
,372.125=0.050
,372.250=0.050
,373.000=0.050
,373.125=0.050
,373.250=0.050
,373.375=0.050
,373.500=0.050
,373.625=0.050
,373.750=0.050
,373.875=0.050
,374.000=0.050
,374.125=0.050
,374.250=0.050
,374.375=0.050
,374.500=0.050
,374.625=0.050
,374.750=0.050
,374.875=0.050
,375.000=0.050
,375.125=0.050
,375.250=0.050
,375.375=0.050
,375.500=0.050
,380.000=0.050
,380.125=0.050
,380.250=0.050
,381.000=0.050
,381.125=0.050
,381.250=0.050
,381.375=0.050
,381.500=0.050
,381.625=0.050
,381.750=0.050
,381.875=0.050
,382.000=0.050
,382.125=0.050
,382.250=0.050
,382.375=0.050
,382.500=0.050
,382.625=0.050
,382.750=0.050
,382.875=0.050
,383.000=0.050
,383.125=0.050
,383.250=0.050
,383.375=0.050
,383.500=0.050
,383.625=0.050
,383.750=0.050
,383.875=0.050
,384.000=0.050
,384.125=0.050
,384.250=0.050
,384.375=0.050
,384.500=0.050
,384.625=0.050
,384.750=0.050
,384.875=0.050
,385.000=0.050
,385.125=0.050
,385.250=0.050
;
#BGCHANGES:;
// cache tags:
#FIRSTBEAT:16.000;
#LASTBEAT:386.000;
#SONGFILENAME:Songs/Index Tesseract/Abducted - [Jose Varela]/Abducted.sm;
#HASMUSIC:1;
#HASBANNER:1;
#MUSICLENGTH:122.355;
// end cache tags

//---------------dance-single - Jose_Varela----------------
#NOTES:
     dance-single:
     Jose_Varela:
     Challenge:
     15:
     1.000,1.000,0.204,0.114,1.000,1060.000,25.000,14.000,77.000,0.000:
0000
0000
0000
0000
,
0000
0000
0000
0000
,
0000
0000
0000
0000
,
0000
0000
0000
0000
,
0010
0100
1000
0010
0100
0001
0100
0010
,
1000
0010
0100
0001
0010
0100
1000
0000
,
0011
0000
0010
0100
1000
0002
1003
0010
,
0100
0001
0010
0100
1000
0010
0100
0001
,
1000
0010
1000
0010
0100
0001
0010
0001
1000
0100
1000
0100
0010
0001
0010
0001
,
1000
0100
0010
0001
0010
0001
0100
0010
1000
0010
1000
0100
0010
0100
1000
0010
,
0100
0010
0100
0001
0010
0001
0010
0100
1000
0001
0100
0010
0100
0001
1000
0001
,
1000
0100
0010
0100
0010
0001
0100
0001
0100
0010
1000
0010
1000
0001
0010
0001
,
0010
0100
1000
0100
1000
0010
0100
0001
0100
0001
0010
0100
0010
0100
1000
0001
,
1000
0001
0010
0100
0010
0001
1000
0010
1000
0001
0010
0001
0010
0100
1000
0100
,
0010
0001
0010
0001
1000
0100
1000
0001
0010
0001
0010
0100
1000
0100
1000
0010
,
0200
0300
0000
0000
0202
0303
0000
0000
0002
0003
0010
0000
0200
0300
1000
0000
,
0001
0010
0001
0100
0010
0100
0001
0010
0100
1000
0001
1000
0100
0010
0001
0100
,
0001
1000
0010
1000
0001
0100
0001
1000
0010
0100
0001
0010
0100
1000
0010
1000
,
0001
0010
0100
1000
0001
0010
0001
0100
0010
1000
0100
0010
0100
1000
0010
0100
,
0001
0100
0001
0010
0100
1000
0010
0100
0001
1000
0100
1000
0100
0010
0001
0100
,
0001
0010
0100
1000
0001
0100
0010
1000
0001
1000
0010
0100
0001
0010
0100
0010
,
0001
0100
0010
0100
0001
0010
0100
1000
0001
0100
0010
1000
0010
0100
0001
0100
,
0001
0010
0100
1000
0010
1000
0010
0100
0001
1000
0010
0100
0010
0100
0001
0010
,
0100
0010
0100
1000
0010
0100
0010
0100
0001
0010
0100
0010
0001
1000
0100
0010
,
0001
0010
0001
0100
0010
1000
0100
0010
0001
0010
0100
1000
0010
0100
0001
0010
,
0100
0010
0001
0100
0001
1000
0100
1000
0010
0100
0001
0010
0100
0010
0001
0100
,
0010
1000
0100
0010
0001
0100
0001
1000
0100
0010
0001
0010
0100
1000
0010
1000
,
0100
0010
0001
0100
0001
0010
0100
1000
0100
0010
0001
0010
0001
0100
0010
1000
,
0100
0010
0001
0010
0001
0100
0010
1000
0010
1000
0100
0010
0100
0010
0001
0100
,
0010
0100
0001
0010
0100
0010
0001
0100
0010
0100
0001
0010
0001
0100
0010
1000
,
0100
0100
0100
0100
0010
0010
0010
0010
,
0001
0000
1000
0100
0010
0001
1000
0000
1000
0010
0100
0001
1000
0000
0010
0000
,
1M10
0M00
0M00
0M01
0M11
0M00
0M00
0M00
,
1M00
1010
0010
0100
0101
0001
0010
0100
,
100M
000M
000M
001M
101M
000M
000M
000M
,
100M
0000
1100
0000
0100
0000
0010
0000
0001
0000
1000
0010
0100
0000
0001
0000
,
M010
M000
M000
M100
M110
M000
M000
M000
,
M001
0011
0010
0100
1100
1000
0010
0100
,
0001
0000
0000
1000
1010
0000
0000
0000
,
1000
0000
1010
0000
0010
0000
0100
0000
0101
0000
0010
0100
1000
0000
0010
0000
,
0101
00M0
00M0
10M0
11M0
00M0
00M0
00M0
,
00M1
0101
0100
0010
1010
1000
0100
0010
,
M001
M000
M000
M100
M101
M000
M000
M000
,
M001
0000
0011
0000
0010
0000
0100
0000
1000
0000
0001
0100
0010
0000
1000
0000
,
010M
000M
000M
001M
011M
000M
000M
000M
,
100M
1100
0100
0010
0011
0001
0100
0010
,
1000
0000
0000
0001
0101
0000
0001
0000
,
0010
0100
1000
0010
0100
0001
0010
0000
,
1000
0001
1000
0001
,
0100
0010
0100
0010
,
1000
0010
1000
0010
,
0100
0001
0100
0001
,
0010
0100
1000
0010
0100
0001
0010
0100
,
1000
0100
0010
0001
0100
0010
1000
0001
,
0010
0100
1000
0010
0100
0001
0010
0100
1000
0010
0100
0001
0100
0010
1000
0100
,
0040
0000
0000
0004
0000
0000
0000
0000
0000
0000
0000
0000
0000
0000
0000
0000
0000
0000
0033
0000
0000
0000
0000
0000
0010
0000
0100
0000
1000
0000
0010
0000
0000
0000
0000
0000
1000
0000
0010
0000
0100
0000
0001
0000
0000
0000
0000
0000
,
0001
0100
0010
1000
0001
0100
0010
0100
0001
1000
0100
0010
0001
1000
0100
1000
,
0001
1000
0001
0010
0001
1000
0010
0100
0001
0010
0001
1000
0100
0010
0001
1000
,
0010
1000
0100
1000
0001
0010
0001
0100
0001
1000
0100
0010
0001
1000
0001
0010
,
0100
0010
0001
0010
0100
1000
0001
0100
0001
0010
0100
0010
0001
0010
0100
1000
,
0010
0100
0001
0100
0010
0100
0010
1000
0001
0010
0001
0010
0100
1000
0100
1000
,
0100
0010
0001
0100
0010
0100
0010
0100
0001
0010
0100
1000
0001
1000
0100
1000
,
0100
0010
0001
1000
0001
0010
0100
0010
0100
1000
0100
1000
0010
0100
0010
0100
,
0001
0000
0000
0100
0000
0000
0010
0000
0000
1000
0000
0000
0010
0000
0000
0100
0000
0000
0001
0000
0000
0100
0000
0000
0010
0000
0000
1000
0000
0000
0001
0000
0000
0010
0000
0000
0001
0000
0000
0010
0000
0000
0001
0000
0010
0000
0100
0000
,
1000
0010
0100
0001
1000
0100
0010
0001
1000
0010
0000
0000
1000
0100
0010
0001
0000
0000
0100
0010
1000
0001
0000
0000
,
0000
0000
0000
0000
0010
0100
0010
0100
1000
0100
1000
0001
0100
0010
1000
0010
,
1000
0001
1000
0010
0100
0001
0010
0100
0010
0001
0100
0001
1000
0001
1000
0010
,
0100
0001
1000
0010
0100
0001
0100
0010
1000
0010
1000
0001
0010
0001
0100
0001
,
0100
0010
1000
0100
0010
0100
1000
0100
0010
0001
0100
0001
0010
0100
0010
0100
,
0010
0001
0100
0010
0100
0010
1000
0001
1000
0001
0100
0010
0100
0010
0100
0001
,
1000
0010
0100
0010
0100
0001
0100
0010
1000
0100
0010
0001
0010
0100
0010
0001
,
0100
0010
0100
0010
1000
0000
1000
0000
1000
0000
1000
0000
0001
0000
0001
0000
,
0001
0000
0001
0000
1000
0000
0010
0100
0001
0100
0010
0000
1000
0010
0100
0001
,
1000
0000
0001
0000
1000
0100
0010
0001
1000
0100
0010
0100
1000
0010
0100
0001
,
1000
0100
0010
0100
1000
0100
0010
0001
0100
0010
0100
0001
0010
0100
0010
0100
,
1000
0100
1000
0001
0100
0010
0100
0010
1000
0010
1000
0100
0010
0001
1000
0100
,
0010
0001
1000
0001
0100
0010
1000
0100
0010
0100
0010
0001
1000
0100
1000
0010
,
0100
0010
0100
0010
1000
0001
0100
0010
0100
0001
0100
0001
0010
0001
0100
0010
,
0100
0010
1000
0001
0100
0001
0010
0100
0010
0100
0010
0001
0100
0001
1000
0001
,
0010
0100
1000
0010
0100
0001
1000
0001
1000
0001
0010
0100
0010
0001
1000
0001
,
1000
0100
0010
0001
1000
0010
1000
0010
0100
0001
0010
0001
0100
0010
1000
0100
,
0010
0100
0010
0001
0010
0001
0100
0010
1000
0001
0100
0010
0100
0001
0010
0100
,
1000
0010
0100
0001
1000
0010
1000
0010
0100
0001
0010
0100
0010
0100
0010
0001
,
0100
0001
0100
0001
0010
0100
0010
0001
0010
0100
1000
0100
1000
0001
1000
0001
,
0010
0001
1000
0010
0100
0010
0100
0001
0100
0010
1000
0010
1000
0001
0100
0001
,
0010
0100
0010
0001
0100
0010
1000
0100
0010
0001
0010
0100
1000
0010
0100
0010
,
1000
0001
1000
0001
0100
0001
1000
0100
1000
0001
0100
0010
1000
0001
1000
0100
,
0010
0001
0010
0100
1000
0100
1000
0010
0100
0001
0100
0010
1000
0001
0100
0001
,
0100
0010
1000
0010
0100
0000
0001
0000
0010
0000
0100
0000
1000
0010
0100
0001
,
1000
0001
0200
0000
00M0
0000
00M0
0000
,
0000
0320
M000
M000
,
0000
2030
0M00
0M00
,
0000
3200
00M0
00M0
,
032M
0032
0000
0000
,
M000
M000
00M0
00M0
,
2003
0000
302M
0M00
M000
000M
0M00
M000
,
000M
0M00
M000
003M
M000
0000
0000
0000
;
