#TITLE:Swallowing an Avalanche;
#SUBTITLE:;
#ARTIST:Nosrac;
#TITLETRANSLIT:;
#SUBTITLETRANSLIT:;
#ARTISTTRANSLIT:;
#CREDIT:Stepped by Synius;
#BANNER:;
#BACKGROUND:;
#LYRICSPATH:;
#CDTITLE:synius-cd2.png;
#MUSIC:Swallowing an Avalanche (Cut2).mp3;
#OFFSET:-0.072;
#SAMPLESTART:84.920;
#SAMPLELENGTH:12.280;
#SELECTABLE:YES;
#BPMS:0.000=179.900,119.000=177.900,120.000=86.900,121.000=84.880,122.750=44.950,122.875=179.900,151.000=179.900,152.000=359.601,156.000=179.902,184.000=359.764,186.000=89.941,187.000=179.901,203.000=89.941,203.500=179.901,213.500=359.762,215.500=90.200,216.500=179.901,230.500=89.940,231.500=179.901,239.500=89.940,241.500=179.881,244.500=44.970,244.625=97.880,244.750=111.920,244.875=179.901,273.000=359.782,278.000=179.903,302.000=89.941,302.250=179.883,302.750=89.941,303.000=179.883,303.500=89.941,303.750=179.903,307.750=89.941,308.000=179.903,309.000=359.766,311.000=179.903,312.000=44.991,312.250=179.902,312.750=44.975,313.000=179.901,315.500=89.951,317.000=359.802,319.000=179.901;
#STOPS:122.875=0.200
,152.000=0.160
,153.000=0.160
,154.000=0.160
,155.000=0.160
,184.000=0.160
,185.000=0.160
,213.500=0.160
,214.500=0.160
,273.000=0.160
,274.000=0.160
,275.000=0.160
,309.000=0.160
,310.000=0.160
;
#BGCHANGES:;
// cache tags:
#FIRSTBEAT:16.000;
#LASTBEAT:425.000;
#SONGFILENAME:Songs/toune 6/Swallowing an Avalanche/Swallowing an Avalanche (cut).sm;
#HASMUSIC:1;
#HASBANNER:0;
#MUSICLENGTH:148.688;
// end cache tags

//---------------dance-single - ----------------
#NOTES:
     dance-single:
     :
     Hard:
     12:
     1.000,1.000,1.000,0.706,1.000,915.000,280.000,105.000,58.000,92.000:
0000
0000
0000
0000
,
0000
0000
0000
0000
,
0000
0000
0000
0000
,
0000
0000
0000
0000
,
1001
0200
0000
0310
0000
1000
0002
0000
,
1003
0000
2002
0000
0000
3000
1003
0000
0000
0000
0000
0000
0000
0000
0000
0000
,
0022
1000
0000
0000
0000
0000
0000
0000
,
0033
0000
0022
0100
0000
0000
0033
0000
,
0100
0000
1010
0000
0100
1000
0121
0000
0000
0000
1130
0000
0000
0000
0000
0000
,
0001
0000
1010
0000
0001
1000
1021
0000
0000
0000
0131
0000
0000
0000
0000
0000
,
0202
0000
0000
0000
,
0003
0000
0300
1010
,
0001
0000
0011
0000
0010
0100
1012
0000
0000
0000
1103
0000
0000
0000
0000
0000
,
0010
0000
0000
0000
0101
0000
0000
0000
0010
0000
0001
0000
0211
0000
0000
0000
0000
0000
0000
0000
0311
0000
0000
0000
1100
0000
0000
0000
0011
0000
1000
0100
,
0001
0020
0030
0000
0000
0000
0000
0000
0000
0000
0000
0000
0000
0000
0000
0000
2200
0000
0000
0000
3000
0000
0000
0000
2000
0000
0000
0000
0310
0000
0000
0000
,
3102
0000
0010
0000
0203
0000
0300
0010
0000
0100
2000
0000
3000
0200
0000
0310
,
1001
0000
1000
0001
0010
0000
1100
0000
0100
0010
0100
0001
1000
0001
0110
1000
,
0101
0000
0010
1000
0100
0000
1001
0000
1000
0100
1001
0000
0001
1000
0101
0010
,
1100
0000
1000
0001
0010
0000
0110
0001
0100
0001
0100
0001
0100
0000
0100
0000
,
1010
0000
0100
1000
0001
0000
0010
0000
0001
0000
0010
0000
0200
0300
0000
0000
,
0101
0000
0010
0001
0100
0000
1010
0000
1000
0001
0100
0001
0010
1000
0001
0100
,
0011
0000
0100
0010
1000
0000
0011
0000
0100
1000
0011
0000
0001
0010
0101
1000
,
0011
0000
2220
0000
,
0000
0000
0001
0000
0001
0000
0001
0000
0001
0000
0001
0000
0001
3330
0000
0000
,
1100
0000
0100
0001
1000
0000
0101
0010
1000
0010
0101
1000
0100
0010
0100
0001
,
1010
0000
0001
1000
0010
0000
0110
1000
0100
1000
0110
0001
0100
0010
1000
0001
,
0110
0000
0001
0100
0010
0000
1000
0010
0100
0001
0100
0010
0100
0001
1000
0100
,
0010
0000
0100
0001
0010
0000
1000
0100
0001
0100
1000
0010
0100
0010
1000
0010
,
1001
0000
1000
0100
0001
0000
1010
0001
0100
0001
1010
0100
1000
0010
0001
0010
,
1100
0000
0001
0100
1000
0000
0011
0100
1000
0100
0011
0000
1001
0000
0000
0000
,
1001
0000
0000
0000
0000
0100
0000
0000
0000
0010
0000
0000
0000
1000
0000
0000
0000
0010
0000
0000
0000
0001
0000
0000
0000
1000
0000
0000
0000
0001
0000
0000
0000
0010
0000
0000
0000
0100
0000
0000
0000
0010
0000
0000
0000
0200
0000
0300
0000
0000
0000
0000
0000
0000
0000
0000
0000
0000
0000
0000
0000
0000
0000
0000
,
1011
0000
0100
0001
0100
0001
1010
0000
1110
0000
0001
1000
0001
1000
0011
0000
,
0021
0000
0000
0000
1000
0000
0100
0000
1030
0000
0000
0000
2010
0000
0000
0000
0100
0000
0001
0000
3100
0000
0000
1000
0100
0001
0000
0000
0000
0000
0000
0000
,
0111
0000
1000
0100
1000
0100
1010
0000
1011
0000
0100
0001
0100
0001
1100
0000
,
0210
0000
0000
0000
0001
0000
1000
0000
0301
0000
0000
0000
1002
0000
0000
0000
0010
0000
0100
0000
0013
0000
0000
0001
0010
0100
0000
0000
0000
0000
0000
0000
,
1101
0000
0010
0100
0010
0100
0011
0000
0111
0000
1000
0010
1000
0010
1100
0000
,
0012
0000
0000
0000
1000
0000
0100
0000
1003
0000
0000
0000
1020
0000
0000
0000
0001
0000
0100
0000
0031
0000
0000
1000
0010
0001
0000
0000
0000
0000
0000
0000
,
1110
0000
0001
0010
0001
0010
0101
0000
1101
0000
0010
0100
0011
0000
1110
0000
,
2200
3300
0000
0000
MM00
0000
0000
0000
0202
0303
0000
0000
0M0M
0000
0000
0000
0022
0033
0000
0000
00MM
0000
0000
0000
2020
3030
0000
0000
M0M0
0000
0000
0000
,
0111
0000
0001
0100
0001
0100
0011
0000
1011
0000
0011
0000
0010
1000
0101
0000
,
2100
0000
0000
0000
0010
0000
0100
0000
3001
0000
0000
0000
0201
0000
0000
0000
1000
0000
0001
0000
0310
0000
0000
0001
0010
0100
0000
0000
0000
0000
0000
0000
,
1101
0000
1000
0001
1000
0000
0110
0000
0111
0000
0110
0000
0100
0001
1100
0000
,
1200
0000
0000
0000
1000
0000
0010
0000
0301
0000
0000
0000
2001
0000
0000
0000
0001
0000
0010
0000
3100
0000
0000
0010
0100
0001
0000
0000
0000
0000
0000
0000
,
1011
0000
0000
0000
0100
0000
1000
0000
0001
0000
0000
0000
0101
0000
0000
0000
2202
3303
0000
0000
0000
0000
0000
0000
0100
0000
1000
0000
0011
0000
0000
0000
,
0210
0000
0000
0000
0001
0000
0010
0000
1300
0000
0000
0000
0102
0000
0000
0000
1000
0000
0010
0000
0103
0000
0000
0001
0010
1000
0000
0000
0000
0000
0000
0000
,
1110
0000
0100
0010
0001
0000
1100
0000
1101
0000
0010
0010
0100
0000
0010
0000
,
1100
MM00
0011
00MM
0220
0000
1330
0000
,
1100
0000
0110
0000
0000
0000
0010
0010
0101
0000
0010
1000
0001
0000
0101
1000
,
0001
0110
0000
0000
1100
0000
0000
0000
0001
0100
0010
1000
0101
0000
0000
0000
,
1010
0000
0101
0000
0000
0000
1000
1000
0110
0000
0100
0001
0010
0000
1010
0100
,
0010
0000
1001
0000
0000
0000
0000
0000
0101
0000
0000
0000
0000
0000
0000
0000
1000
0000
0100
0000
0010
0000
0001
0000
2200
0000
0000
3300
1100
0000
0000
0000
,
1000
0000
1100
0000
0010
0001
1010
0000
0001
1000
0100
0000
0110
0001
0010
1100
,
0000
0000
1010
0000
0010
0010
1000
0100
0011
0000
0100
0010
1100
0000
0101
0000
,
0001
0000
0100
0000
1010
0000
0000
0000
0101
0000
0000
0000
1100
0000
0000
0000
MM00
0000
0000
0000
0110
0000
0000
0000
0MM0
0000
0000
0000
0001
0010
0100
0000
,
0001
0010
0100
0000
1001
0000
0000
0000
0000
0000
0000
0000
1001
0000
0000
0000
0101
0000
0000
0000
0000
0000
0000
0000
0100
0000
0100
0000
1010
0000
0000
0000
,
0001
1000
0100
0000
1001
0010
1000
0101
0000
0000
1100
0000
0000
0000
0001
0100
,
0010
1000
0021
0000
0000
0000
0031
0000
1010
0000
0000
0000
1000
1000
0101
0000
,
0010
0100
1000
0000
0011
1000
0010
1100
0000
0000
0220
0000
0000
0000
1331
0000
,
0000
0000
1001
0000
1001
0010
1100
0000
0000
0000
0110
0000
0100
0010
1000
0000
,
1100
0010
0100
1001
0000
0000
0110
0000
0001
0100
0010
0100
1000
0000
1002
0010
,
1203
1000
0321
0001
2130
0100
3021
0000
0001
0000
0000
0031
0000
0200
1000
0000
,
1300
0000
0000
0000
MM22
0000
0000
0033
11MM
0000
0000
0000
1000
0000
0100
0000
0001
0000
0000
0000
1100
0000
0000
0000
1101
0000
0000
0000
1100
0000
0000
0000
,
0010
0000
1000
0000
0101
0000
0000
0000
0211
0000
0000
0000
0010
0000
0001
0000
1300
0000
0000
0000
2011
0000
0000
0000
0100
0000
0001
0000
3010
0000
0000
0001
,
0100
1000
0000
0000
0000
0000
0000
0000
0101
0000
0000
0000
1000
0000
0010
0000
0100
0000
0000
0000
0101
0000
0000
0000
0111
0000
0000
0000
0101
0000
0000
0000
,
1000
0000
0001
0000
0110
0000
0000
0000
1210
0000
0000
0000
0010
0000
1000
0000
0301
0000
0000
0000
2101
0000
0000
0000
0001
0000
0010
0000
3100
0000
0000
0010
,
0100
1000
0000
0000
0000
0000
0000
0000
0011
0000
0000
0000
0100
0000
0010
0000
0001
0000
0000
0000
0011
0000
0000
0000
1011
0000
0000
0000
0011
0000
0000
0000
,
1000
0000
0100
0000
1010
0000
0000
0000
1120
0000
0000
0000
1000
0000
0100
0000
0031
0000
0000
0000
1201
0000
0000
0000
0010
0000
0001
0000
1300
0000
0000
0001
,
0010
0100
0000
0000
0000
0000
0000
0000
1001
0000
0000
0000
0010
0000
0100
0000
0001
0000
0000
0000
1010
0000
0000
0000
1011
0000
0000
0000
0100
0000
0010
0000
,
1001
0000
0000
1010
0000
0000
1101
0000
0000
MM0M
0000
0000
1011
0000
0000
M0MM
0000
0000
1101
0000
0000
MM0M
00M0
0M00
,
20M2
0000
0M00
0000
00M0
0000
0M00
0000
00M0
0000
0M00
0000
00M0
0000
0M00
0000
00M0
0000
0M00
0000
00M0
0000
0000
0000
3113
0000
0000
0000
0000
0000
1000
0000
0000
0001
0000
0000
0010
0000
0000
0000
0000
0000
1100
0000
0000
0000
0000
0000
,
1101
0000
1100
0000
0100
0010
1000
0001
2110
0000
0001
0100
3010
0000
1012
0000
,
1000
0000
0010
0000
0103
0000
0000
1000
0010
0100
0000
0000
0000
0000
0000
0000
1001
0000
0000
0000
1000
0000
0010
0000
0001
0000
0000
0000
0110
0000
0000
0000
,
0111
0000
0110
0000
0001
1000
0010
0100
2011
0000
0100
0001
3010
0000
1210
0000
,
0010
0000
1000
0000
0301
0000
0000
0001
0100
0010
0000
0000
0000
0000
0000
0000
0011
0000
0000
0000
0100
0000
0001
0000
1000
0000
0000
0000
0011
0000
0000
0000
,
1011
0000
0011
0000
1000
0010
0100
0001
2110
0000
0001
0100
3010
0000
1021
0000
,
1000
0000
0001
0000
0130
0000
0000
1000
0010
0100
0000
0000
0000
0000
0000
0000
0110
0000
1100
0000
0000
0000
0110
0000
1100
0000
0000
0000
0110
0000
1100
0000
,
0000
0011
0000
2002
0000
0000
3003
2002
3003
2020
3030
2002
3003
2000
3000
2000
,
3000
0000
0000
0000
0011
0000
0000
0000
0011
0000
0000
0000
0011
0001
0010
0100
,
0002
0000
1003
0000
0010
0000
0200
0000
0311
0000
0000
0000
MMMM
0000
0000
0000
0010
0000
0100
0000
1000
0000
0000
0000
1000
0000
0100
0000
0011
0000
M000
0M00
,
00M0
000M
1100
0000
000M
00M0
0M00
M000
0011
0000
0000
0000
0000
0000
0000
0000
0000
0000
0000
0000
0000
0000
0000
0000
1000
0000
0010
0000
0100
0000
0010
0000
,
2000
0000
0000
0000
3100
0001
0010
0001
0100
0000
0010
0000
1001
0000
0000
0000
,
1010
0000
0021
0000
0000
0000
2000
0000
3130
0000
0001
0000
1000
0100
0010
0000
,
0001
0100
0010
1000
0002
0000
0000
0000
0020
0000
0000
0000
1000
0000
0033
0100
,
2000
0000
0000
0001
0000
3001
0000
0001
0020
0000
0000
0130
0000
0100
0002
0000
,
0000
1003
0000
1000
0200
0000
0000
0002
0000
0000
0000
0000
0000
0000
0000
0000
,
0000
0000
0000
0003
000M
000M
000M
000M
,
0302
0000
0000
0000
0013
0000
0100
0000
0010
0000
1100
0000
1010
0000
0010
1000
,
0100
0000
0110
0000
0100
0001
0100
0001
1010
0000
0010
1000
0100
0000
0110
0000
,
0100
0001
0100
0001
1010
0000
0000
0000
0001
0000
0001
0000
0101
0000
0010
0100
,
0001
0000
1100
0000
0100
1000
0100
1000
0101
0000
0010
0100
0001
0000
1100
0000
,
0100
1000
0100
1000
0101
0000
0000
0000
0010
1000
0010
0000
0110
0000
1000
0100
,
0001
0000
1010
0000
0100
0001
0100
0001
0110
0000
1000
0100
0001
0000
1010
0000
,
0100
0001
0100
0001
0110
0000
0000
0000
0100
0001
0100
0000
1001
0000
0010
0100
,
1000
0000
0011
0000
1000
0010
1000
0010
1001
0000
0010
0100
1000
0000
0011
0000
,
1000
0010
1000
0010
1001
0000
0000
0000
1011
0000
1100
0000
1011
0000
0001
0010
,
0100
0000
1110
0000
0010
1000
0001
0100
1011
0000
0001
0010
0100
0000
1110
0000
,
0010
1000
0001
0100
1011
0000
0000
0000
1110
0000
0110
0000
1110
0000
0100
0010
,
1000
0000
1101
0000
1000
0010
0100
0001
1110
0000
0100
0010
2000
0000
0101
0000
,
0000
3000
0100
0001
1110
0000
0000
0000
1011
0000
1100
0000
1011
0000
0001
0100
,
1000
0000
0111
0000
0010
0001
1000
0100
1011
0000
0001
0100
1000
0000
0111
0000
,
0010
0001
1000
0100
1011
0000
0000
0000
1110
0000
1100
0000
1110
0000
0001
0100
,
0010
0000
1011
0000
1000
0100
0010
0001
1110
0000
0001
0100
0010
0000
1011
0000
,
1000
0100
0010
0001
1110
0000
0000
0000
2000
0000
0001
0000
0010
0000
0100
0000
,
0000
0100
3000
0000
0020
0000
0000
0000
,
0000
0000
0000
0000
,
0000
0000
0000
0000
,
0000
0030
0000
0000
;
