#TITLE:Will The Sun Rise;
#SUBTITLE:Episode (1996);
#ARTIST:Stratovarius;
#TITLETRANSLIT:;
#SUBTITLETRANSLIT:;
#ARTISTTRANSLIT:;
#CREDIT:;
#BANNER:Will The Sun Rise.png;
#BACKGROUND:Will The Sun Rise.jpg;
#LYRICSPATH:;
#CDTITLE:KS.png;
#MUSIC:Will The Sun Rise.mp3;
#OFFSET:-0.700;
#SAMPLESTART:33.293;
#SAMPLELENGTH:11.940;
#SELECTABLE:YES;
#BPMS:0.000=139.980,329.000=139.000,332.500=139.980;
#STOPS:;
#BGCHANGES:;
// cache tags:
#FIRSTBEAT:14.500;
#LASTBEAT:381.000;
#SONGFILENAME:Songs/Astronomic Metal Collection 2/(KangXIX) Will The Sun Rise/Will The Sun Rise.sm;
#HASMUSIC:1;
#HASBANNER:1;
#MUSICLENGTH:165.041;
// end cache tags

//---------------dance-single - ----------------
#NOTES:
     dance-single:
     :
     Hard:
     11:
     0.953,0.951,0.206,0.236,1.000,1028.000,34.000,39.000,0.000,0.000:
0000
0000
0000
0000
,
0000
0000
0000
0000
,
0000
0000
0000
0000
,
0000
0000
0000
0000
0000
1001
0000
0000
,
1001
0000
0110
0110
0000
0000
0000
0000
,
0000
0000
0000
0000
,
0000
0000
1001
1000
1000
1000
1000
0100
,
1000
0000
0001
0000
0100
0000
0010
0000
0001
0000
1000
0100
0010
0001
1000
0010
,
0100
0001
1000
0100
0010
0000
0100
0001
0100
0001
2000
0000
3000
0000
0100
0001
,
0100
0001
0100
0001
1000
0000
0100
0010
0100
0010
0001
0000
0010
0100
0010
0100
,
1000
0000
0100
1000
0010
0000
1000
0001
1000
0001
0200
0000
0300
0000
1000
0001
,
1000
0001
1000
0001
0010
0000
0100
1000
0100
1000
0002
0000
0000
0000
0000
0000
,
0203
0000
0300
0000
1000
0000
0001
0010
0001
0010
0200
0000
0300
0000
0010
0001
,
0010
0001
0010
0001
1000
0000
0010
0100
0010
0100
0001
0000
1000
0100
1000
0100
,
0020
0030
1001
1000
1001
0001
1001
0100
,
1100
0000
0010
0000
0011
0000
1000
0000
1010
0000
0100
0001
1000
0010
0100
0001
,
0010
0100
1000
0001
0200
0000
0000
0000
0000
0000
0320
0000
0000
0000
0000
0000
,
0000
0000
0000
0030
0010
0000
0001
0100
0001
0100
0020
0000
1030
0000
0100
0010
,
0000
0010
0100
0000
1000
0000
0100
0001
0100
0001
1000
0010
0000
0010
1000
0000
,
0001
0000
1000
0000
0100
0000
0010
0001
0010
0001
0200
0000
0310
0000
1000
0100
,
0000
0100
1000
0000
0010
0000
0100
0000
0001
0000
1000
0001
0000
0001
1000
0000
,
0200
0000
0300
0000
0010
0000
1000
0001
1000
0001
0020
0000
0130
0000
1000
0001
,
0000
0001
1000
0000
0010
0000
0100
0001
0100
0001
0010
0100
0000
0100
0010
0000
,
0100
0000
1000
0000
0001
0000
0010
1000
0010
1000
0001
0000
0010
0000
0100
1000
,
0000
1000
0100
0000
0010
0000
0001
0000
1000
0010
0100
0010
0100
0010
0100
0010
,
0100
0010
0100
0010
2000
0000
0000
0000
0010
0000
0000
0000
0001
0000
0000
0000
,
0100
3000
0002
0000
0010
0000
1000
0000
,
0100
0000
0003
0000
1000
0000
0100
1000
0100
1000
0100
1000
0100
1000
0001
1000
,
0010
1000
0001
1000
0100
1000
0010
1000
0001
1000
0100
1000
0010
1000
0001
1000
,
0010
1000
0100
1000
0002
0000
0000
0000
0010
0000
0000
0000
1000
0000
0000
0000
,
0100
0003
2000
0000
0100
0000
0001
0000
,
0010
0000
3000
0000
0100
0010
0100
0010
0100
0010
0100
0010
0100
0010
0100
0010
,
0100
0010
0100
0010
0001
1000
0001
1000
0001
1000
0001
1000
0001
0000
0000
0000
,
0000
0000
0000
0000
1000
0100
0010
0001
1000
0100
0010
0001
1000
0010
0100
0001
,
1000
0100
0010
0100
1000
0100
0010
0001
0010
0100
1000
0010
0100
0001
1000
0010
,
0100
0001
1000
0100
1000
0010
0100
0001
1000
0100
0010
0001
0010
0100
1000
0010
,
0100
0001
0100
0001
1000
0010
1000
0010
1000
0010
1000
0001
0010
0100
0010
0100
,
1000
0010
0100
0001
1000
0100
0010
0001
0010
0100
1000
0010
0100
0001
1000
0001
,
0010
0100
1000
0001
1000
0100
0010
0100
1000
0010
0100
0010
1000
0001
0010
0100
,
1000
0001
0010
0100
1000
0000
1001
0000
1000
0000
1001
0000
1000
0000
0101
0000
,
0001
0000
0011
0000
1000
0000
0110
0000
0001
0000
1000
0010
0100
0001
1000
0100
,
0010
0001
0010
0100
1000
0100
0010
0001
1000
0100
0010
0001
0100
0010
1000
0001
,
0010
0001
1000
0010
0100
0001
1000
0010
0100
0001
0010
0100
1000
0010
0100
0010
,
1000
0001
0010
0001
0100
0010
1000
0001
0100
0010
1000
0100
0010
0001
1000
0001
,
0100
0010
0100
0010
1000
0001
1000
0001
1000
0001
1000
0001
0010
0100
0010
0100
,
1000
0100
0010
0001
1000
0010
0100
0001
0010
0001
0100
0010
1000
0010
0100
0001
,
0010
0001
1000
0100
0010
0001
0010
0100
1000
0010
0100
0001
1000
0100
0010
0001
,
1000
0100
0010
0001
1100
0000
1000
0000
1100
0000
1000
0000
1100
0000
0010
0000
,
0110
0000
0001
0000
0011
0000
1000
0000
1010
0000
0001
0010
0100
1000
0010
0100
,
0001
0010
0100
1000
0002
0000
0000
0000
0000
0000
2003
0000
0000
0000
0000
0000
,
0000
0000
3000
0000
0010
0000
0100
0001
0100
0001
0020
0000
0130
0000
1000
0001
,
0000
0001
1000
0000
0001
0000
0100
1000
0100
1000
0001
0100
0000
0100
0001
0000
,
1000
0000
0010
0000
0100
0000
0010
0001
0010
0001
0200
0000
0310
0000
1000
0100
,
0000
0100
1000
0000
0001
0000
0010
0000
0100
0000
1000
0010
0000
0010
1000
0000
,
0002
0000
0003
0000
1000
0000
0100
0010
0100
0010
2000
0000
3100
0000
0010
0001
,
0000
0001
0010
0000
0100
0000
1000
0001
1000
0001
0100
0010
0000
0010
0100
0000
,
0001
0000
1000
0000
0010
0000
1000
0001
1000
0001
0010
0100
0000
0100
0010
0100
,
0000
0100
0010
0000
0001
0000
1000
0000
0010
0100
0001
0100
0001
0100
0001
0100
,
0001
0100
0001
0100
0020
0000
0000
0000
1000
0000
0000
0000
0100
0000
0000
0000
,
0001
0030
2000
0000
0010
0000
0001
0000
,
0100
0000
3000
0000
0001
0000
0100
0001
0100
0001
0100
0001
0100
0001
1000
0001
,
0010
0001
1000
0001
0100
0001
0010
0001
1000
0001
0100
0001
0010
0001
1000
0001
,
0010
0001
0100
0001
2000
0000
0000
0000
0100
0000
0000
0000
0001
0000
0000
0000
,
0010
3000
0200
0000
1000
0000
0010
0000
,
0001
0000
0300
0000
1000
0010
1000
0010
1000
0010
1000
0010
1000
0010
1000
0010
,
1000
0010
1000
0010
0100
0001
0100
0001
0100
0001
0100
0001
0100
0000
0000
0000
,
0000
0000
0000
0000
0001
0010
0100
1000
0001
0010
0100
1000
0010
0100
0001
1000
,
0100
0010
0001
0010
0100
1000
0010
0100
0010
1000
0100
0010
0100
1000
0010
0100
,
0001
1000
0001
0010
0100
1000
0010
0100
0010
1000
0001
1000
0100
0010
0001
1000
,
0010
0100
0010
0100
0001
1000
0001
1000
0001
1000
0001
1000
0100
0010
0100
0010
,
0001
1000
0100
0010
0001
1000
0010
0100
0001
0010
0001
0100
0001
1000
0010
0100
,
0001
0010
0001
0100
0010
1000
0100
0010
0001
0100
0001
1000
0010
1000
0100
0010
,
0001
0100
0001
1000
0100
0000
0110
0000
0100
0000
0110
0000
0100
0000
0011
0000
,
0100
0000
1010
0000
0001
0000
1001
0000
0100
0000
0001
0010
0100
1000
0001
0010
,
0100
1000
0100
0010
0001
0010
0001
0010
0100
0010
0100
0010
0001
0100
0010
1000
,
0001
0100
0010
1000
0100
1000
0100
1000
0010
1000
0010
1000
0001
0100
0010
1000
,
0001
0100
0010
1000
0100
0010
0100
0010
0001
0010
0001
0010
0100
1000
0010
0100
,
0001
1000
0001
1000
0010
0100
0010
0100
0010
0100
0010
0100
0001
0010
0001
0010
,
0100
1000
0010
0100
0001
1000
0100
0010
0001
1000
0010
0100
0001
1000
0100
0010
,
0001
1000
0010
0100
0001
0010
0100
1000
0010
0100
0010
1000
0100
0010
0001
1000
,
0100
0010
0001
1000
0110
0000
0010
0000
0110
0000
0010
0000
0110
0000
0001
0000
,
0110
0000
1000
0000
1100
0000
0010
0000
0101
0000
1000
0010
0100
0001
1000
0010
,
0100
0001
0010
0100
2000
0000
0000
0000
0000
0000
0000
0000
0000
0000
0000
0000
,
0000
3100
0020
0000
0030
0100
0002
0000
,
0003
0000
1000
0000
0010
0100
0001
0010
0100
0010
0001
0100
0010
0000
1000
0000
,
0000
1000
0100
1000
0001
1000
0100
1000
0010
1000
0100
1000
0001
1000
0100
1000
,
0010
1000
0100
1000
0001
0010
0100
1000
0010
0100
0001
1000
0100
0000
1000
0000
,
0020
0000
0000
0000
0000
0030
1000
0100
1000
0000
0002
0000
0000
0003
0100
0000
,
2000
0000
0000
0000
0000
3000
0010
0100
0010
0000
0002
0000
0000
1003
0010
0100
,
0002
0000
0000
0000
0000
0003
1000
0100
0010
0000
0001
0000
0100
0000
0010
0000
,
1000
0000
0100
0000
0001
0100
0010
0100
0001
0010
0100
1000
0001
0000
0010
0000
,
1000
0000
0010
0000
0001
0000
1000
0010
2000
0000
0000
0000
3000
0001
1000
0001
,
0100
0001
1000
0100
0010
0000
0100
0000
1000
0000
0100
0000
0001
0010
0100
1000
,
0010
0100
0001
1000
0100
0010
0002
0000
0003
1000
0010
0100
0001
1000
0020
0000
,
0030
0000
0000
1000
0000
0000
0001
0000
0000
0010
0000
0000
0100
0000
0000
0000
0000
0000
1000
0000
0000
0000
0000
0000
0001
0000
1000
0000
0001
0000
0100
0000
0000
0000
0000
0000
2002
0000
0000
0000
0000
0000
0000
0000
0000
0000
0000
0000
,
0000
3003
0000
0000
0000
0000
0000
0000
;

//---------------dance-single - ----------------
#NOTES:
     dance-single:
     :
     Medium:
     9:
     0.650,0.865,0.103,0.442,0.264,661.000,17.000,73.000,0.000,0.000:
0000
0000
0000
0000
,
0000
0000
0000
0000
,
0000
0000
0000
0000
,
0000
0000
0000
0000
0000
1001
0000
0000
,
1001
0000
0100
0100
0000
0000
0000
0000
,
0000
0000
0000
0000
,
0000
0000
0001
0001
0001
0001
0001
0100
,
0001
0000
1000
0000
0100
0000
0010
0000
1000
0000
0001
1000
0001
1000
0001
1000
,
0001
1000
0001
1000
0001
0000
1000
0100
1000
0000
0002
0000
0000
0003
0100
0000
,
0100
0000
0100
0000
0010
0000
1000
0100
1000
0000
0001
0000
1000
0100
1000
0000
,
0100
0000
0000
0000
0010
0000
0001
0100
0001
0000
2000
0000
0000
3000
0010
0000
,
0010
0000
0010
0000
1000
0000
0001
0100
0001
0000
0020
0000
0000
0000
0000
0030
,
0200
0000
0000
0300
1000
0000
0010
0100
0010
0000
0002
0000
0000
0003
1000
0000
,
1000
0000
1000
0000
0010
0000
0100
0001
0100
0000
0001
0000
0100
0001
0100
0000
,
0010
0000
1001
0001
0001
0001
0001
0100
,
0001
0000
1000
0000
0100
0000
0010
0000
1000
0000
0001
1000
0001
1000
0001
1000
,
0001
1000
0001
1000
0002
0000
0000
0000
0000
0000
0000
0000
0000
0000
0000
0000
,
0000
0000
0003
0000
1000
0000
0100
0000
1000
0000
0001
0000
1000
0000
0010
0100
,
0000
0100
0010
0000
0100
0000
0001
0000
1000
0000
0001
0010
0000
0010
0001
0000
,
1000
0000
0001
0000
0100
0000
0010
0000
0100
0000
0001
0000
0100
0000
0010
0100
,
0000
0100
0010
0000
1000
0000
0100
0000
1000
0000
0001
0000
2000
0000
0000
3000
,
0020
0000
0000
0030
0100
0000
0001
0000
1000
0000
0001
0000
0010
0000
0001
1000
,
0000
1000
0001
0000
1000
0000
0010
0000
0100
0000
0001
0100
0000
0100
0001
0000
,
0100
0010
2200
3300
2020
3030
0220
0330
,
0022
0000
0033
0000
2002
0000
3003
0000
0000
0010
0100
0010
0100
0010
0100
0010
,
0100
0010
0100
0010
0200
0000
0000
0000
0001
0000
0000
0000
0010
0000
0000
0000
,
0001
0300
2000
0000
0001
0000
0100
0000
,
0001
3000
1000
0100
1000
0100
1000
0001
,
1000
0010
0100
0001
0010
0001
1000
0100
,
0010
0001
2000
0000
0001
0000
0010
0000
,
0001
3000
0020
0000
0100
0000
1000
0000
,
0100
0000
0030
0000
0002
0000
0000
0000
0000
0000
0000
0003
0020
0000
0000
0030
,
0200
0000
0000
0300
1000
0001
1000
0001
1000
0001
1000
0001
1000
0000
0000
0000
,
0000
0000
1000
0100
0010
0001
1000
0010
,
0100
0001
1000
0100
0010
0100
1000
0001
,
0100
0010
1000
0001
0010
0100
1000
0100
,
0020
0000
0030
0000
2002
0000
0000
0000
0000
0000
3003
0000
0200
0000
0000
0300
,
1000
0001
1000
0010
0100
0001
1000
0001
,
0010
0100
0010
0001
1000
0010
0100
0001
,
0010
0100
1000
1000
1000
1000
1000
0100
,
1000
0000
0001
0000
0100
0000
0010
0000
0001
0000
1000
0001
1000
0001
1000
0001
,
1000
0001
1000
0001
1000
0000
0010
0000
0100
0000
0001
0000
1000
0000
0100
0000
,
0010
0001
0010
0100
1000
0001
0100
0001
,
0010
0001
1000
0010
0100
0001
1000
0100
,
0020
0000
0000
0030
2002
0000
0000
0000
0000
0000
0000
3003
0200
0000
0000
0300
,
0010
1000
0001
1000
0100
0010
0100
1000
,
0010
0100
0001
1000
0010
0100
0001
0010
,
0100
1000
0001
0001
0001
0001
0001
0100
,
0001
0000
1000
0000
0100
0000
0010
0000
1000
0000
0010
0100
0010
0100
0010
0100
,
0010
0100
0010
0100
0002
0000
0000
0000
0000
0000
0000
0000
0000
0000
0000
0000
,
0000
0000
0000
0003
0100
0000
0001
0000
1000
0000
0001
0000
0010
0000
0001
1000
,
0000
1000
0001
0000
0010
0000
0100
0000
0010
0000
1000
0001
0000
0001
1000
0000
,
0010
0000
0100
0000
0001
0000
1000
0000
0010
0000
1000
0000
0100
0000
1000
0100
,
0000
0100
1000
0000
0010
0000
0100
0000
0001
0000
1000
0000
0200
0000
0000
0300
,
0020
0000
0000
0030
0001
0000
1000
0000
0001
0000
0010
0000
0001
0000
1000
0010
,
0000
0010
1000
0000
0100
0000
0010
0000
0100
0000
1000
0001
0000
0001
1000
0000
,
0100
0010
0022
0033
0220
0330
2020
3030
,
2200
0000
3300
0000
2002
0000
3003
0000
0000
0010
0100
0010
0100
0010
0100
0010
,
0100
0010
0100
0010
0200
0000
0000
0000
1000
0000
0000
0000
0010
0000
0000
0000
,
0001
0300
2000
0000
0010
0000
0001
0000
,
0100
3000
0001
0100
0001
0100
0001
1000
,
0010
0100
0001
1000
0100
1000
0010
0100
,
0001
1000
0200
0000
1000
0000
0010
0000
,
0001
0300
0020
0000
0001
0000
0100
0000
,
1000
0000
0030
0000
0002
0000
0000
0000
0000
0000
0000
0003
0020
0000
0000
0030
,
0200
0000
0000
0300
1000
0001
1000
0001
1000
0001
1000
0001
1000
0000
0000
0000
,
0000
0000
0001
0100
0010
1000
0100
1000
,
0010
0100
0001
1000
0100
0010
0001
0010
,
0100
1000
0010
0100
0001
1000
0100
0010
,
0002
0000
0003
0000
2020
0000
0000
0000
0000
0000
3030
0000
0200
0000
0000
0300
,
0001
1000
0100
0010
0001
0010
0100
1000
,
0010
1000
0001
0100
0001
1000
0010
0100
,
0001
0100
1000
1000
1000
1000
1000
0100
,
1000
0000
0001
0000
0100
0000
0010
0000
0001
0000
1000
0001
1000
0001
1000
0001
,
1000
0001
1000
0001
1000
0000
0010
0000
0100
0000
0001
0000
1000
0000
0100
0000
,
1000
0010
0100
0001
1000
0001
0010
0001
,
0100
0010
1000
0100
0010
0001
0010
0100
,
2000
0000
3000
0000
0022
0000
0000
0000
0000
0000
0033
0000
0200
0000
0000
0300
,
0001
0010
0001
1000
0010
0100
0001
1000
,
0100
0010
0100
1000
0010
0100
0001
0010
,
0100
1000
0001
0001
0001
0001
0001
0100
,
0001
0000
1000
0000
0100
0000
0010
0000
1000
0000
0010
0100
0010
0100
0010
0100
,
0010
0100
0010
0100
0020
0000
0000
0000
0000
0000
0000
0000
0000
0000
0000
0000
,
0000
0000
0130
0000
2000
0000
0000
0000
0000
3000
0100
0000
0002
0000
0000
0000
,
0000
0003
1000
0000
0001
0000
1000
0100
0010
0000
0100
0010
0001
0000
1000
0000
,
0000
1000
0001
0010
0001
1000
0001
0100
,
0001
0010
0100
1000
0010
0100
0001
0100
,
0020
0000
0000
0000
0000
0030
1000
0100
1000
0000
0002
0000
0000
0003
0100
0000
,
0020
0000
0000
0000
0000
0030
0001
1000
0001
0000
0200
0000
0300
0010
0100
0010
,
0200
0000
0000
0000
0000
0300
0100
0001
0010
0000
0100
0000
1000
0000
0010
0000
,
1000
0100
0001
0010
1000
0010
0001
0100
,
1000
0000
0010
0000
0001
0000
1000
0001
2000
0000
0000
0000
3000
0000
0001
0000
,
0010
0100
1000
0100
0001
0100
0010
0100
,
1000
0000
0010
0000
0001
0000
0020
0000
0000
0030
0010
0000
0100
0000
0002
0000
,
0000
0003
1000
0000
0100
0000
0010
0000
1000
0001
1000
0000
0200
0000
0000
0000
,
0000
0300
0000
0000
0000
0000
0000
0000
;

//---------------dance-single - ----------------
#NOTES:
     dance-single:
     :
     Easy:
     7:
     0.550,0.720,0.121,0.697,0.003,500.000,20.000,115.000,0.000,0.000:
0000
0000
0000
0000
,
0000
0000
0000
0000
,
0000
0000
0000
0000
,
0000
0000
0000
0000
0000
1000
0000
0000
,
1000
0000
0001
0001
0000
0000
0000
0000
,
0000
0000
0000
0000
,
0000
0000
0001
1000
0001
1000
0001
0010
,
0001
1000
0100
0010
0001
1000
0100
0010
,
0001
1000
0001
0100
0100
0020
0000
0030
,
1000
1000
0100
1000
1000
0001
0000
0000
,
0100
0000
1000
0100
0100
0020
0000
0030
,
0001
0001
1000
0001
0001
0020
0000
0030
,
0200
0300
1000
0001
0001
0020
0000
0030
,
0001
0001
1000
0010
0010
0100
0000
0000
,
0001
0000
1000
0100
1000
0100
1000
0001
,
1000
0010
0100
0001
1000
0010
0100
0001
,
1000
0010
0200
0000
0001
0000
0001
0000
,
0001
0300
1000
0100
0100
1000
0100
0000
,
0010
0000
0001
0100
0100
0001
0100
0000
,
0010
0000
1000
0001
0001
1000
0001
0000
,
0010
0000
2200
0000
0000
3300
0220
0330
,
0022
0033
1000
0010
0010
1000
0010
0000
,
0100
0000
0001
0010
0010
0001
0010
0000
,
0100
0000
2200
3300
0220
0330
0022
0033
,
0202
0303
2002
0000
0000
3003
0001
0001
,
0001
0001
2000
0000
0010
0000
0001
0000
,
0100
3000
0002
0000
0010
0000
1000
0000
,
0100
0003
1000
0000
0100
1000
0100
1000
,
0001
1000
0010
1000
0001
0010
0100
1000
,
0001
0010
0200
0000
0001
0000
0010
0000
,
1000
0300
0002
0000
0010
0000
1000
0000
,
0100
0003
1000
0001
1000
0001
1000
0001
,
1000
0001
0100
0100
0100
0100
0100
0000
,
1000
0001
2000
3000
0200
0000
0310
0000
,
0001
1000
0002
0003
0020
0000
0130
0000
,
0100
1000
0200
0300
0020
0000
0031
0000
,
0002
0003
2002
0000
0000
3003
0200
0300
,
0001
1000
0002
0003
0200
0000
0310
0000
,
1000
0010
2000
3000
0200
0000
0310
0000
,
0001
1000
0010
0100
0010
0100
0010
1000
,
0010
0100
0001
0010
0100
1000
0001
0010
,
0100
1000
0020
0030
0200
0000
0301
0000
,
1000
0010
0200
0300
0002
0000
1003
0000
,
0100
0010
0002
0003
2000
0000
3010
0000
,
0200
0300
0022
0000
0000
0033
2000
3000
,
0001
0100
0020
0030
0200
0000
0301
0000
,
1000
0100
0020
0030
0200
0000
1300
0000
,
0010
1000
0001
0100
0001
0100
0001
1000
,
0001
0010
0100
1000
0010
0100
0001
1000
,
0010
0100
0002
0000
1000
0000
1000
0000
,
1000
0003
1000
0100
0100
1000
0100
0000
,
0010
0000
0001
1000
1000
0001
1000
0000
,
0010
0000
0100
0001
0001
0100
0001
0000
,
0010
0000
0220
0000
0000
0330
0202
0303
,
0022
0033
1000
0010
0010
1000
0010
0000
,
0100
0000
0001
1000
1000
0001
1000
0000
,
0100
0000
0022
0033
0220
0330
2200
3300
,
0202
0303
2002
0000
3003
0010
0010
0010
,
0010
0010
2000
0000
0010
0000
0001
0000
,
0100
3000
0002
0000
0010
0000
1000
0000
,
0100
0003
0001
0000
0001
0100
0001
0100
,
0010
1000
0100
0010
0001
1000
0100
0010
,
0001
0100
0020
0000
0001
0000
0100
0000
,
1000
0030
0200
0000
1000
0000
0010
0000
,
0001
0300
0100
1000
0100
1000
0100
1000
,
0100
1000
0001
0001
0001
0001
0001
0000
,
1000
0010
2000
3000
0200
0000
0310
0000
,
0001
0010
0002
0003
0200
0000
0310
0000
,
1000
0100
2000
3000
0020
0000
0130
0000
,
0002
0003
2020
0000
0000
3030
0200
0300
,
0001
1000
0002
0003
0020
0000
0130
0000
,
1000
0010
2000
3000
0002
0000
0013
0000
,
0100
1000
0010
0100
0010
0100
0010
1000
,
0010
0100
0001
0010
0100
1000
0001
0010
,
0100
1000
0002
0003
0200
0000
0310
0000
,
1000
0100
0020
0030
0002
0000
1003
0000
,
0010
0100
0002
0003
2000
0000
3010
0000
,
0200
0300
2002
0000
0000
3003
0020
0030
,
1000
0001
0200
0300
0020
0000
1030
0000
,
0100
0001
0020
0030
0200
0000
1300
0000
,
0010
0100
0001
0100
0001
0100
0001
1000
,
0001
0010
0100
1000
0001
0010
0100
1000
,
0010
0100
0002
0000
0000
0000
0000
0000
,
0000
1003
0020
0000
0030
1000
0002
0000
,
0003
1000
0100
1000
0001
1000
0010
0100
,
0000
0100
0001
0100
0010
0100
0001
0100
,
0010
0100
0001
0000
1000
0000
0100
0010
,
0002
0000
0003
0100
0010
2000
3000
0100
,
0020
0000
0030
0001
0100
0020
0030
1000
,
0200
0000
0300
0010
0001
1000
0100
1000
,
0010
0100
0001
0000
0010
0000
0100
0010
,
0100
0010
0001
0000
2000
0000
3000
0010
,
0100
0001
1000
0100
0010
0100
1000
0000
,
0010
0000
0100
0002
0000
0003
1000
0020
,
0000
0000
0030
0000
1000
0000
0001
0000
0100
0010
0100
0000
0002
0000
0000
0000
,
0000
0003
0000
0000
0000
0000
0000
0000
;

//---------------dance-single - ----------------
#NOTES:
     dance-single:
     :
     Beginner:
     4:
     0.370,0.462,0.224,0.345,0.006,333.000,37.000,57.000,0.000,0.000:
0000
0000
0000
0000
,
0000
0000
0000
0000
,
0000
0000
0000
0000
,
0000
0000
0000
0000
,
0000
0000
0001
0001
0000
0000
0000
0000
,
0000
0000
0000
0000
,
0000
1001
0001
0001
,
1000
0000
0001
0000
0010
0000
0100
1000
,
0100
1000
0100
0000
0000
0002
0000
0003
,
0100
0000
1000
0000
0000
0010
0000
0000
,
0100
0000
0001
0000
0000
2000
0000
3000
,
0010
0000
0100
0000
0000
0002
0000
0003
,
2000
3000
0001
0000
0000
0020
0000
0030
,
0100
0000
0001
0000
0000
1000
0000
0000
,
0010
0100
0100
0100
,
0001
0000
0100
0000
0010
0000
1000
0001
,
1000
0001
2000
0000
0000
0000
0000
0000
,
0000
3000
0001
0000
0010
0000
0100
0000
,
1000
0010
0100
0001
,
1000
0000
0000
0000
0010
0000
0000
0000
1000
0000
0000
0000
0100
0000
0000
0010
,
0000
0001
2000
0000
0001
0000
3002
0003
,
0020
0030
1000
0000
0010
0000
0100
0000
,
0001
0010
0100
1000
,
0010
1001
1001
1001
,
1001
0000
0220
0000
0000
0330
0001
1000
,
0001
1000
0001
0000
1000
0000
1000
0000
,
1000
1000
0001
0001
,
0001
0000
0020
0000
0000
0030
0200
0000
,
0000
0300
0001
0000
0001
0000
1000
0000
,
1000
0001
1000
0000
0010
0000
0010
0000
,
0010
0010
0100
0100
,
0100
0000
0002
0000
0000
0003
2000
3000
,
0020
0030
0100
0001
0100
0001
0100
0000
,
0000
0001
0010
0100
,
1000
0010
0100
0001
,
1000
0100
0010
0100
,
0001
0000
0220
0000
0000
0330
2002
0000
,
3003
0000
0000
0010
0000
0100
0000
0001
,
0000
0010
0000
0100
0000
1000
0000
0010
,
0000
1001
1000
1001
,
0001
1001
1000
0010
,
0100
0001
0010
0100
,
1000
0010
0100
0001
,
1000
0010
0100
0001
,
1000
0000
2002
0000
0000
3003
0220
0000
,
0330
0000
0000
1000
0000
0010
0000
0100
,
0000
0001
0000
1000
0000
0100
0000
0010
,
0000
1001
1001
1001
,
1001
0000
1001
0000
1001
0000
1000
0001
,
1000
0001
2000
0000
0000
0000
0000
0000
,
0000
3000
0001
0000
0010
0000
0100
0000
,
1000
0010
0100
0001
,
1000
0000
0000
0000
0100
0000
0000
0000
0010
0000
0000
0000
1000
0000
0000
0001
,
0000
1000
0002
0000
1000
0000
0203
0300
,
0020
0030
1000
0000
0001
0000
0100
0000
,
0010
1000
0100
0010
,
0001
1001
1001
1001
,
1001
0000
0220
0000
0330
0000
0001
1000
,
0001
1000
0001
0000
0010
0000
0010
0000
,
0010
0010
0100
0100
,
0100
0000
0002
0000
0000
0003
2000
0000
,
0000
3000
0010
0000
0100
0000
0001
0000
,
0001
1000
0001
0000
1000
0000
1000
0000
,
1000
1000
0010
0010
,
0010
0000
0200
0000
0000
0300
0002
0003
,
0020
0030
0100
1000
0100
1000
0100
0000
,
0000
0010
0100
1000
,
0010
0100
0001
1000
,
0100
0010
0001
0010
,
0100
0000
2002
0000
0000
3003
0220
0000
,
0330
0000
0000
0001
0000
0100
0000
0010
,
0000
1000
0000
0100
0000
0010
0000
0001
,
0000
1001
0001
1001
,
1000
0000
1001
0000
0001
0000
1000
0001
,
1000
0001
1000
0000
0010
0000
0100
0000
,
0001
1000
0100
0010
,
0100
1000
0010
0100
,
0001
0000
0220
0000
0000
0330
2002
0000
,
3003
0000
0000
0010
0000
0100
0000
0001
,
0000
1000
0000
0100
0000
0010
0000
0001
,
0000
1001
1001
1001
,
1001
0000
1001
0000
1001
0000
0010
0100
,
0010
0100
0020
0000
0000
0000
0000
0000
,
0000
0030
0002
0000
0003
0000
2000
0000
,
3000
0000
0020
0030
0200
0300
0001
1000
,
0000
0001
0010
0100
,
1000
0010
0100
0001
,
2000
0000
0000
3000
0002
0000
0000
0003
,
0020
0000
0000
0030
0200
0000
0000
0300
,
0002
0000
0000
0003
1000
0000
0001
0000
,
0010
1000
0010
0100
,
0001
0000
1000
0000
0020
0000
0000
0030
,
0100
0001
1000
0100
,
0010
0000
0002
0000
0000
0003
2000
0000
,
0000
3000
0010
0000
0100
0010
0200
0000
,
0000
0300
0000
0000
;
