#TITLE:Dragon Blade;
#SUBTITLE:;
#ARTIST:Kozo Nakamura;
#TITLETRANSLIT:;
#SUBTITLETRANSLIT:;
#ARTISTTRANSLIT:;
#CREDIT:;
#BANNER:Dragon Blade.png;
#BACKGROUND:;
#LYRICSPATH:;
#CDTITLE:;
#MUSIC:Dragon Blade.mp3;
#OFFSET:-0.055;
#SAMPLESTART:27.170;
#SAMPLELENGTH:12.980;
#SELECTABLE:YES;
#BPMS:0.000=240.000;
#STOPS:;
#BGCHANGES:;
// cache tags:
#FIRSTBEAT:0.000;
#LASTBEAT:364.000;
#SONGFILENAME:Songs/mike songs/Dragon Blade/Dragon Blade.sm;
#HASMUSIC:1;
#HASBANNER:1;
#MUSICLENGTH:91.149;
// end cache tags

//---------------dance-single - Official SN Steps----------------
#NOTES:
     dance-single:
     Official SN Steps:
     Hard:
     8:
     0.628,0.649,0.044,0.022,0.044,395.000,4.000,2.000,0.000,0.000:

0000
0000
0000
0000
,
0000
0000
0000
0000
,
0000
0000
0000
0000
,
0000
0000
0000
0000
,
1000
0100
1000
0010
,
0100
0001
0010
0001
,
1000
0100
0010
0001
,
0100
0000
0010
0000
1000
0001
1000
0000
,
0001
0000
0001
0000
1000
0001
0000
0100
,
0010
0000
0010
0000
0100
0010
0000
1000
,
0001
0100
0001
0000
1000
0010
1000
0000
,
0001
0100
0010
1000
,
0001
0010
0001
0000
1000
0100
1000
0000
,
0001
0010
0100
1000
,
0010
0100
0010
0000
1000
0001
1000
0000
,
0100
0010
0100
0000
1000
0001
1000
0000
,
0010
1000
0000
1000
0000
1000
0000
0100
,
0000
0001
0000
0001
0000
0001
0000
0000
,
0100
1000
0100
0000
0010
0001
0010
0000
,
0001
0100
0010
1000
,
0001
0100
0001
0000
1000
0010
1000
0000
,
0001
0010
0100
1000
,
0010
0100
0010
0000
1000
0000
0100
0010
,
0000
0001
1000
0000
0001
0000
0100
0000
,
0010
1000
0010
0000
1000
0000
1000
0000
,
0001
0100
0001
0000
0100
0000
0100
0000
,
0010
0000
0010
0000
1000
0001
1000
0001
,
0000
0100
0100
0100
,
0010
0000
1000
0100
0000
0100
0010
0000
,
0000
0001
0100
0001
,
0010
0000
0001
1000
0001
0000
0100
0000
,
0010
0000
1000
0001
1000
0000
0100
0000
,
0010
0000
1000
0001
1000
0000
0100
0000
,
0010
0000
0001
1000
0001
0000
0100
0000
,
0010
0000
1000
0000
0001
0100
0000
0010
,
0000
0100
0000
0001
0000
1000
0000
0010
,
0100
0000
0000
0100
0000
0000
0100
0000
,
0010
1000
0001
0100
,
0010
0000
1000
0100
1000
0000
0001
1000
,
0001
0000
0010
0001
0010
0000
0100
0000
,
0010
0001
0000
0001
1000
0000
1000
0010
,
0000
0010
0100
0000
0001
0000
1000
0000
,
0001
1000
0000
0010
0100
0000
0001
1000
,
0000
0100
0010
0100
,
1000
0001
0000
0000
0100
0000
0010
0000
,
1000
0000
0001
0000
0010
0100
0000
0000
,
1000
0001
0000
0000
0100
0000
0010
0000
,
1000
0001
0100
0000
,
0010
0100
0000
0000
0001
1000
0000
0000
,
0010
0100
0000
0000
0001
1000
0000
0000
,
0001
0001
1000
1000
,
0010
0100
0010
0000
0100
0000
0000
0000
,
0010
1000
0100
1000
,
0010
1000
0010
0001
,
0010
1000
0001
0100
,
0010
1000
0010
0000
0001
0000
0001
0000
,
0010
0001
0100
0001
,
0010
0001
0010
1000
,
0010
0001
1000
0100
,
0010
0001
0010
0000
1000
0000
1000
0000
,
0010
0100
0001
1000
,
0100
0000
0010
0001
0000
0001
0010
0000
,
0001
1000
0010
0100
,
0001
0000
1000
0100
0000
0100
1000
0000
,
0010
0100
0001
1000
,
0100
0000
0010
0001
0000
0001
0010
0000
,
0001
1000
0010
0100
,
0001
0100
0001
0000
1000
0010
1000
0000
,
0010
0000
0010
0000
1000
0100
0000
0100
,
0010
0000
0010
0000
0001
1000
0000
0000
,
0101
0000
0000
1001
0000
0000
1010
0000
,
0000
0000
0100
0010
0100
0000
0000
0000
,
0001
0100
0001
0000
1000
0010
1000
0000
,
0001
0100
0010
1000
,
0001
0010
0001
0000
1000
0100
1000
0000
,
0001
0010
0100
1000
,
0010
0100
0010
0000
1000
0001
1000
0000
,
0100
0010
0100
0000
1000
0001
1000
0000
,
0010
1000
0000
1000
0000
1000
0000
0100
,
0000
0001
0000
0001
0000
0001
0000
0000
,
0100
1000
0100
0000
0010
0001
0010
0000
,
0001
0100
0010
1000
,
0001
0100
0001
0000
1000
0010
1000
0000
,
0001
0010
0100
1000
,
0010
0100
0010
0000
1000
0000
0100
0010
,
0000
0001
1000
0000
0001
0000
0100
0000
,
0010
1000
0010
0000
1000
0000
1000
0000
,
0001
0000
0100
0000
0001
0000
1000
0000
0010
0000
1000
0000
,
0001
0000
1000
0000
0001
0000
0010
0000
0100
0000
0010
0000
,
0000
0000
0000
0000
,
2002
0000
0000
0000
,
3003
0000
0000
0000
;

//---------------dance-single - M0dz0r Rhye edit----------------
#NOTES:
     dance-single:
     M0dz0r Rhye edit:
     Challenge:
     11:
     0.922,1.000,0.384,0.099,0.362,544.000,35.000,9.000,0.000,0.000:
1000
0010
0100
0001
0000
0000
0101
0101
,
0000
0000
0001
0100
0010
1000
0000
0000
,
0100
0001
1000
0010
0000
0000
1010
1010
,
0000
0000
1000
0100
0010
0001
0010
0100
,
1000
0010
0001
0010
,
1000
0100
0010
0100
,
1000
0010
1000
0010
,
0001
0000
0010
0000
1000
0100
0010
0100
,
1000
0000
0010
0000
0100
0001
0000
0001
,
0010
0100
0010
0000
0001
0100
0000
0100
,
0010
1000
0100
0010
0001
0100
0010
1000
,
0000
0001
0100
1000
0100
0001
0000
1000
,
0100
0010
0001
0010
0100
0010
0001
0100
,
1000
0100
0001
1000
0100
0000
0000
0000
,
0010
0100
1000
0000
0010
0100
1000
0000
,
1000
0100
0010
0000
1000
0100
0010
0000
,
0001
0100
0000
0010
0000
1000
0000
0100
,
0010
0000
0001
0000
0000
0000
0010
0000
0000
0000
0100
1000
0100
0000
0000
0000
,
0010
0100
1000
0100
0001
0100
0010
0100
,
0000
1000
0010
0100
0010
1000
0000
0001
,
0100
1000
0100
0010
1000
0100
1000
0001
,
0010
0100
1000
0001
0100
0000
0000
0000
,
0010
1000
0100
0010
0100
1000
0010
0100
,
0000
0001
0100
1000
0100
0010
1000
0000
,
0100
1000
0100
1000
0100
0000
0010
0001
0010
0001
0010
0000
,
0100
1000
0001
0010
0001
0000
0010
0001
1000
0100
1000
0000
,
0001
0000
0000
0000
0100
0010
0100
0001
,
0000
0000
0010
0100
1000
0100
0001
0100
,
0010
0000
0001
0100
0000
0100
0010
0000
,
0000
0000
0100
0010
1000
0100
0010
0000
,
0100
0000
0010
0001
0100
0010
0100
0001
,
0101
0000
0010
1000
0100
0010
0100
1000
,
1100
0000
0100
1000
0010
0100
0010
1000
,
1010
0000
0100
0001
0010
0100
0010
0001
,
0011
0000
0000
0000
1000
0100
0010
0001
,
0000
1000
0000
0010
0000
0100
0000
0001
,
0100
0000
0000
0000
0000
0000
0000
0000
0000
0010
0000
0000
0000
0000
0000
0000
0000
0000
1000
0000
0001
0000
1000
0000
,
0000
0001
0100
0010
0100
0001
0010
0000
,
0100
0000
0010
0001
0010
0000
0100
1000
,
0010
0000
0100
1000
0100
0000
0001
0010
,
1100
1100
0000
0101
0101
0000
1010
1001
,
0000
0101
1001
0000
0100
0000
0010
0000
,
1001
0101
0000
1010
0110
0000
1100
0011
,
0000
0000
1000
0100
0010
0001
1000
0000
,
0010
0100
0000
0000
0010
0100
1000
0100
,
0001
0100
0010
0000
1000
0100
0000
0000
,
0100
0010
0000
0000
0100
1000
0010
0100
,
0001
0010
0100
0000
0010
0000
0000
0000
,
0100
1000
0000
0000
0010
0100
0000
0000
,
0001
0010
0000
0000
0100
1000
0000
0000
,
0001
0101
1000
1010
,
0100
0010
0100
0001
0100
0000
0000
0000
,
0010
0100
0010
0100
0010
0000
1000
0010
1000
0010
1000
0000
,
0001
1000
0001
1000
0001
0000
0100
0001
0100
0001
0100
0000
,
0010
1000
0010
1000
0010
0000
0100
0001
0100
0001
0100
0000
,
1000
0100
0001
0100
0010
0001
0100
0010
,
0100
0001
0100
0001
0100
0000
0010
1000
0010
1000
0010
0000
,
1000
0001
1000
0010
1000
0000
0001
0100
0001
1000
0001
0000
,
0100
0001
1000
0010
1000
0000
0001
0100
0010
1000
0010
0000
,
0100
0001
0010
0001
1000
0100
1000
0010
,
1000
0100
0010
0100
,
0010
0001
1000
0010
0000
0100
0001
0000
,
2010
0010
0100
3001
,
0020
0030
0000
0200
0300
0000
1000
0000
,
1200
0010
0001
1300
,
0002
0003
0000
0200
0300
0000
0010
0000
,
1020
1000
0100
0031
,
0001
0010
0100
0010
1000
0100
0010
0000
,
0100
0000
1000
0000
0001
0100
0000
0001
,
0010
0100
1000
0000
0001
0100
0000
0010
,
1010
0000
0000
0011
0000
0000
0101
0000
,
0000
0000
0010
1000
0001
0000
0000
0000
,
0100
0010
0100
1000
0100
0001
0010
0100
,
0000
0010
1000
0010
0001
0100
0000
0010
,
1000
0100
1000
0001
0100
0001
0010
1000
,
0010
0001
0100
0010
1000
0000
0000
0000
,
0100
0010
0001
0000
0100
0010
0001
0000
,
0001
0010
0100
0000
0001
0010
0100
0000
,
1000
0100
0000
0010
0000
0001
0000
0100
,
0010
0000
1000
0000
0000
0000
0010
0000
0000
0000
0100
0001
0100
0000
0000
0000
,
0010
0100
0001
0100
1000
0100
0010
0100
,
0000
0001
0010
0100
0010
0001
0000
1000
,
0100
0001
0100
0010
0001
0100
0001
1000
,
0010
0100
0001
1000
0100
0000
0000
0000
,
0010
0001
0100
0010
0100
0001
0010
0100
,
0000
1000
0100
0001
0100
0010
0001
0000
,
0100
0001
0100
0001
0100
0000
0010
1000
0010
1000
0010
0000
,
1010
0000
0100
0000
0010
0000
0101
0000
0001
0000
0010
0000
,
0011
0000
0100
0000
1000
0000
1100
0000
0010
0000
0001
0000
,
0000
0000
0000
0000
,
2002
0000
0000
0000
,
3003
0000
0000
0000
;
