#TITLE:Toxic Children;
#SUBTITLE:;
#ARTIST:Imil & Slaughtered Panda Mask;
#TITLETRANSLIT:;
#SUBTITLETRANSLIT:;
#ARTISTTRANSLIT:;
#CREDIT:;
#BANNER:toxic children bn.png;
#BACKGROUND:toxic children bg.png;
#LYRICSPATH:;
#CDTITLE:;
#MUSIC:Toxic Children.ogg;
#OFFSET:-0.543;
#SAMPLESTART:115.746;
#SAMPLELENGTH:12.800;
#SELECTABLE:YES;
#BPMS:0.000=300.000;
#STOPS:;
#BGCHANGES:;
// cache tags:
#FIRSTBEAT:0.000;
#LASTBEAT:784.000;
#SONGFILENAME:Songs/Speedcore Rejects/Toxic Children - [Tyler]/Toxic Children.sm;
#HASMUSIC:1;
#HASBANNER:1;
#MUSICLENGTH:158.949;
// end cache tags

//---------------dance-single - T. Moore----------------
#NOTES:
     dance-single:
     T. Moore:
     Challenge:
     11:
     0.763,1.000,0.522,0.365,0.381,694.000,83.000,58.000,6.000,1.000:
1000
0000
0000
0000
,
0000
0000
0000
0000
,
0000
0000
0000
0000
,
0001
0000
0010
0100
,
0000
0000
0000
0000
,
0000
0000
0000
0000
,
0000
0000
0000
0000
,
1000
0000
0001
0100
,
0000
0000
0000
0000
,
0000
0000
0000
0000
,
0000
0000
0000
0000
,
0010
0000
1000
0100
,
0000
0000
0000
0000
,
0000
0000
0000
0000
,
0000
0000
0000
0000
,
4000
0000
0000
0000
0000
0000
0000
3000
,
1002
0000
0000
0000
,
0000
0000
0000
0000
,
0000
0000
0000
0003
,
0010
0000
0001
1000
,
0000
0000
0000
0000
,
0000
0000
0000
0000
,
0000
0000
0000
0000
,
0010
0000
1000
0001
,
0000
0000
0000
0000
,
0000
0000
0000
0000
,
0000
0000
0000
0000
,
0010
0000
0001
0100
,
0000
0000
0000
0000
,
0000
0000
0000
0000
,
0000
0000
0000
0000
,
0000
0000
0000
0000
1000
0100
0010
0001
,
1000
0000
0000
0000
0000
0000
0000
0000
0000
0000
0000
0000
0000
0000
0000
0000
0000
0000
0000
0001
0000
0000
0000
0000
0100
0000
0000
0000
0000
0000
0000
0000
0000
0000
0000
0000
0000
0000
0000
0000
0000
0000
0000
0010
0000
0000
0000
0000
,
1000
0000
0000
0000
0000
0000
0000
1000
0000
0000
0000
0000
0010
0000
0000
0000
0000
0000
0000
0000
0000
0000
0000
0000
0100
0000
0000
0000
0000
0000
0000
0000
0000
0000
0000
0000
0010
0000
0000
0000
0000
0000
0000
0000
0000
0000
0000
0000
,
1000
0000
0000
0000
0000
0000
0000
0000
0000
0000
0000
0000
1000
0000
0000
0000
0000
0000
0000
0001
0000
0000
0000
0000
1000
0000
0000
0000
0000
0000
0000
1000
0000
0000
0000
0000
0100
0000
0000
0000
0000
0000
0000
0000
0000
0000
0000
0000
,
0010
0000
0000
0000
0000
0000
0000
0001
0000
0000
0000
0000
1000
0000
0000
0000
0000
0000
0000
0000
0000
0000
0000
0000
0010
0000
0000
0000
0000
0000
0000
0000
0000
0000
0000
0000
0010
0000
0000
0000
0000
0000
0000
0000
0000
0000
0000
0000
,
0010
0000
0000
0000
0000
0000
0000
0000
0000
0000
0000
0000
1000
0000
0000
0000
0000
0000
0000
0010
0000
0000
0000
0000
0100
0000
0000
0000
0000
0000
0000
0000
0000
0000
0000
0000
0001
0000
0000
0000
0000
0000
0000
0100
0000
0000
0000
0000
,
0001
0000
0000
0000
0000
0000
0000
0001
0000
0000
0000
0000
1000
0000
0000
0000
0000
0000
0000
0000
0000
0000
0000
0000
0100
0000
0000
0000
0000
0000
0000
0000
0000
0000
0000
0000
0010
0000
0000
0000
0000
0000
0000
0000
0000
0000
0000
0000
,
0001
0000
0000
0000
0000
0000
0000
0000
0000
0000
0000
0000
1000
0000
0000
0000
0000
0000
0000
0001
0000
0000
0000
0000
1000
0000
0000
0000
0000
0000
0000
1000
0000
0000
0000
0000
0100
0000
0000
0000
0000
0000
0000
0000
0000
0000
0000
0000
,
0010
0000
0000
0000
0000
0000
0000
0001
0000
0000
0000
0000
0010
0000
0000
0000
0000
0000
0000
0000
0000
0000
0000
0000
0100
0000
0000
0000
0000
0000
0000
0000
0000
0000
0000
0000
0100
0000
0000
0000
0000
0000
0100
0000
0000
0000
0000
0000
,
1000
0000
0000
0000
0000
0000
0000
0000
0000
0000
0000
0000
0001
0000
0000
0000
0000
0000
0000
0001
0000
0000
0000
0000
0100
0000
0000
0000
0000
0000
0000
0000
0000
0000
0000
0000
0010
0000
0000
0000
0000
0000
0000
1000
0000
0000
0000
0000
,
0010
0000
0000
0000
0000
0000
0000
0010
0000
0000
0000
0000
0100
0000
0000
0000
0000
0000
0000
0000
0000
0000
0000
0000
0001
0000
0000
0000
0000
0000
0000
0000
0000
0000
0000
0000
0100
0000
0000
0000
0000
0000
0000
0000
0000
0000
0000
0000
,
0010
0000
0000
0000
0000
0000
0000
0000
0000
0000
0000
0000
0010
0000
0000
0000
0000
0000
0000
1000
0000
0000
0000
0000
0010
0000
0000
0000
0000
0000
0000
0010
0000
0000
0000
0000
0100
0000
0000
0000
0000
0000
0000
0000
0000
0000
0000
0000
,
0001
0000
0000
0000
0000
0000
0000
0001
0000
0000
0000
0000
1000
0000
0000
0000
0000
0000
0000
0000
0000
0000
0000
0000
0100
0000
0000
0000
0000
0000
0000
0000
0000
0000
0000
0000
0100
0000
0000
0000
0000
0000
0000
0000
0000
0000
0000
0000
,
0100
0000
0000
0000
0000
0000
0000
0000
0000
0000
0000
0000
0010
0000
0000
0000
0000
0000
0000
0010
0000
0000
0000
0000
0001
0000
0000
0000
0000
0000
0000
0000
0000
0000
0000
0000
1000
0000
0000
0000
0000
0000
0000
0001
0000
0000
0000
0000
,
1000
0000
0000
0000
0000
0000
0000
1000
0000
0000
0000
0000
0010
0000
0000
0000
0000
0000
0000
0000
0000
0000
0000
0000
0100
0000
0000
0000
0000
0000
0000
0000
0000
0000
0000
0000
0010
0000
0000
0000
0000
0000
0000
0000
0000
0000
0000
0000
,
1000
0000
0000
0000
0000
0000
0000
0000
0000
0000
0000
0000
0001
0000
0000
0000
0000
0000
0000
0001
0000
0000
0000
0000
1000
0000
0000
0000
0000
0000
0000
0001
0000
0000
0000
0000
1000
0000
0000
0000
0000
0000
0000
0000
0000
0000
0000
0000
,
0100
0000
0100
0000
0100
0010
0100
0010
,
0002
0000
0000
0000
0000
0000
0003
0000
0000
0000
0000
0000
0000
0000
0000
0000
0000
0000
0000
1000
0000
0000
0000
0000
0010
0000
0000
0000
0000
0000
0000
0000
0000
0000
0000
0000
0000
0000
0000
0000
0000
0000
0000
1000
0000
0000
0000
0000
,
0001
0000
0000
0000
0000
0000
0000
0001
0000
0000
0000
0000
2000
0000
0000
0000
0000
0000
3000
0000
0000
0000
0000
0000
0010
0000
0000
0000
0000
0000
0000
0000
0000
0000
0000
0000
1000
0000
0000
0000
0000
0000
0000
0000
0000
0000
0000
0000
,
0200
0000
0000
0000
0000
0000
0300
0000
0000
0000
0000
0000
0000
0000
0000
0000
0000
0000
0000
0010
0000
0000
0000
0000
0001
0000
0000
0000
0000
0000
0000
0001
0000
0000
0000
0000
1000
0000
0000
0000
0000
0000
0000
0000
0000
0000
0000
0000
,
0001
0000
0000
0000
0000
0000
0000
0100
0000
0000
0000
0000
0002
0000
0000
0000
0000
0000
0003
0000
0000
0000
0000
0000
1000
0000
0000
0000
0000
0000
0000
0000
0000
0000
0000
0000
0200
0000
0000
0000
0000
0000
0300
0000
0000
0000
0000
0000
,
0200
0000
0000
0000
0000
0000
0300
0000
0000
0000
0000
0000
0010
0000
0000
0000
0000
0000
0000
0100
0000
0000
0000
0000
1000
0000
0000
0000
0000
0000
0000
0000
0000
0000
0000
0000
0000
0000
0000
0000
0000
0000
0000
0001
0000
0000
0000
0000
,
0010
0000
0000
0000
0000
0000
0000
0010
0000
0000
0000
0000
0200
0000
0000
0000
0000
0000
0300
0000
0000
0000
0000
0000
1000
0000
0000
0000
0000
0000
0000
0000
0000
0000
0000
0000
0100
0000
0000
0000
0000
0000
0000
0000
0000
0000
0000
0000
,
0020
0000
0000
0000
0000
0000
0030
0000
0000
0000
0000
0000
0001
0000
0000
0000
0000
0000
0000
0000
0000
0000
0000
0000
0010
0000
0000
0000
0000
0000
0000
0010
0000
0000
0000
0000
0100
0000
0000
0000
0000
0000
0000
0000
0000
0000
0000
0000
,
2000
3000
2000
3000
0001
0100
0020
1030
,
0020
0000
0000
0000
0000
0000
0030
0000
0000
0000
0000
0000
0000
0000
0000
0000
0000
0000
0000
1000
0000
0000
0000
0000
0001
0000
0000
0000
0000
0000
0000
0000
0000
0000
0000
0000
0000
0000
0000
0000
0000
0000
0000
1000
0000
0000
0000
0000
,
0100
0000
0000
0000
0000
0000
0000
0100
0000
0000
0000
0000
0020
0000
0000
0000
0000
0000
0030
0000
0000
0000
0000
0000
0100
0000
0000
0000
0000
0000
0000
0000
0000
0000
0000
0000
1000
0000
0000
0000
0000
0000
0000
0000
0000
0000
0000
0000
,
0002
0000
0000
0000
0000
0000
0003
0000
0000
0000
0000
0000
0000
0000
0000
0000
0000
0000
0000
1000
0000
0000
0000
0000
0010
0000
0000
0000
0000
0000
0000
0010
0000
0000
0000
0000
0100
0000
0000
0000
0000
0000
0000
0000
0000
0000
0000
0000
,
0001
0000
0000
0000
0000
0000
0000
0001
0000
0000
0000
0000
2000
0000
0000
0000
0000
0000
3000
0000
0000
0000
0000
0000
0100
0000
0000
0000
0000
0000
0000
0000
0000
0000
0000
0000
0020
0000
0000
0000
0000
0000
0030
0000
0000
0000
0000
0000
,
0020
0000
0000
0000
0000
0000
0030
0000
0000
0000
0000
0000
0001
0000
0000
0000
0000
0000
0000
0010
0000
0000
0000
0000
0100
0000
0000
0000
0000
0000
0000
0000
0000
0000
0000
0000
0000
0000
0000
0000
0000
0000
0000
1000
0000
0000
0000
0000
,
0100
0000
0000
0000
0000
0000
0000
0100
0000
0000
0000
0000
0020
0000
0000
0000
0000
0000
0030
0000
0000
0000
0000
0000
0001
0000
0000
0000
0000
0000
0000
0000
0000
0000
0000
0000
1000
0000
0000
0000
0000
0000
0000
0000
0000
0000
0000
0000
,
2002
0000
0000
0000
,
0000
0000
3003
0000
,
1100
0011
1001
1010
,
0101
0000
1001
0000
1000
0100
0010
0001
,
1000
1010
0101
1001
,
0110
0000
0000
0011
0000
0000
1000
0001
1000
0001
1000
0001
,
1000
1010
0101
1001
,
1100
0000
0011
0000
1000
0001
1000
0001
,
0100
0110
1010
1001
,
2200
3300
2200
3300
,
0011
1001
1010
0101
,
0110
0000
1010
0000
0001
0010
0100
1000
,
0001
0110
1001
1100
,
0011
0000
0000
1001
0000
0000
1000
0000
0000
4040
0000
3030
,
0101
1001
1100
0011
,
1001
0000
0000
1010
0000
0000
0100
0001
0100
0001
0100
0001
,
0100
0110
1001
1100
,
2002
0000
0000
3003
2002
0000
0000
3003
,
1000
0010
0101
0001
,
1000
0000
0100
0000
0011
0000
0001
1000
,
0010
0100
1001
0001
,
0010
0000
0000
0100
0000
0000
4004
0000
0000
0000
0000
0003
,
3001
0100
1010
1000
,
0001
0000
0000
0010
0000
0000
0100
1000
0100
1000
0100
1000
,
0100
0010
0011
0001
,
1000
0010
0100
0001
2000
0000
0000
3000
,
1000
0010
0101
0001
,
0010
0000
0100
0000
1000
0001
1000
0001
,
0100
0010
1010
1000
,
0001
0000
0000
0010
0000
0000
0100
1000
0100
1000
0100
1000
,
0100
0010
1001
0001
,
1000
0000
0010
0000
0400
0301
4000
3100
,
0010
0001
1001
1000
,
0010
0000
0000
0400
0000
0000
0301
0000
0000
0400
0000
0300
,
0110
0010
1010
1000
,
0001
0000
0011
0000
0100
1000
0010
0100
,
0001
1000
1100
0010
,
0001
0000
0000
1000
0000
0000
0010
1000
0010
1000
0010
1000
,
0010
0100
0101
0001
,
1000
0100
0011
0004
,
1003
0010
0101
0100
,
0010
0000
0000
1010
0000
0000
1000
0001
1000
0001
1000
0001
,
1000
0100
0011
0001
,
1000
0000
0010
0000
0100
0001
0100
0001
,
1000
0100
0011
0001
,
1000
0000
0000
0000
0000
0000
0001
0000
0000
0000
0000
0000
1000
0000
0010
0000
1000
0000
0004
0000
0000
0013
0000
0000
,
0100
1000
1001
0001
,
0100
0000
0010
0000
1000
0010
1000
0001
,
0011
0010
0110
0100
,
2002
3003
0220
0330
,
2002
0000
3003
0000
,
0000
0000
0000
0000
,
0000
0000
0000
0000
,
1000
0000
0001
0010
,
0000
0000
0000
0000
,
0000
0000
0000
0000
,
0000
0000
0000
0000
,
1000
0000
0010
0100
,
0000
0000
0000
0000
,
0000
0000
0000
0000
,
0000
0000
0000
0000
,
1000
0000
0100
0010
,
0000
0000
0000
0000
,
0000
0000
0000
0000
,
0000
0000
0000
0000
,
0000
0000
0000
0000
,
2001
3000
0000
0000
0001
0000
0000
0000
,
0100
0000
0100
0000
,
0010
0000
0010
0000
,
2000
3000
0000
0000
0002
0003
0020
0030
,
0100
0000
0100
0000
,
1000
0000
1000
0000
,
0001
0000
0001
0000
,
0200
0000
0300
0000
0000
0000
0000
0000
0M20
000M
1M30
0000
00M2
0000
1M03
0000
,
0100
0000
0100
0000
,
0010
0000
0010
0000
,
0001
0000
0001
0000
,
0200
0300
0000
0000
0020
0030
2000
3000
,
0100
0000
0100
0000
,
0010
0000
0010
0000
,
0002
0000
0000
0000
,
0000
0000
0000
0000
0000
0000
0000
0000
0000
0000
0000
0000
0000
0000
0000
0000
2003
3000
0000
0000
0200
0300
0000
0000
0020
0030
0000
0000
0002
0003
0000
0000
,
2000
3000
0000
0000
0001
0000
0000
0000
0100
0000
0000
0000
0010
0000
0000
0000
1000
0000
0000
0000
0010
0000
0000
0000
0100
0000
0000
0000
0001
0000
0000
0000
,
1000
0001
0010
0100
1000
0000
0004
0003
,
1000
0100
0010
0001
1000
0001
0100
0010
,
1000
0000
0000
0010
0000
0000
0100
0000
0000
0001
0000
0000
1000
0000
0001
0000
1000
0000
0001
0000
1000
0000
0001
0000
,
1000
0100
0010
0001
1000
0001
0010
0100
,
1000
0000
0000
0001
0000
0000
0100
0000
0000
0001
0000
0000
1000
0000
0010
0000
1000
0000
0004
0000
0000
0003
0000
0000
,
1000
0010
0100
0001
1000
0001
0100
0001
,
1000
0100
0010
0001
0400
0000
0300
0000
,
0001
0010
0100
1000
0001
1000
0100
0010
,
0001
1000
0010
0100
0001
0100
0010
4000
,
3001
1000
0010
0100
0001
1000
0100
0010
,
0001
0100
0010
1000
0100
0000
0100
0000
,
1000
0001
0100
0010
1000
0010
0100
0001
,
1000
0100
0010
0001
1000
0001
0010
0100
,
1000
1000
1010
0010
,
0210
0300
0001
0000
,
1000
0001
0100
0001
0010
0001
1000
0100
,
0010
0001
1000
0001
0100
0000
0040
0030
,
0100
0001
1000
0001
0010
0100
1000
0100
,
0010
0000
0000
0001
0000
0000
0100
0000
0000
0010
0000
0000
1000
0000
0010
0000
1000
0000
0010
0000
1000
0000
0010
0000
,
1000
0001
0100
0001
1000
0001
0010
0100
,
1000
0100
0010
0001
0100
0010
4000
3000
,
0010
0100
0001
1000
0100
1000
0001
0100
,
0010
1000
0100
0010
0001
0000
0001
0000
,
1000
0001
1000
0010
0100
0001
1000
0001
0100
0010
1000
0001
,
1000
0000
0000
0000
0001
0000
0000
0000
0100
0000
0000
0000
0001
0000
0000
0000
1000
0000
0000
0000
0001
0000
0000
0000
0010
0000
0000
0000
0100
0000
0000
0000
1000
0000
0000
0000
0010
0000
0000
0000
0000
0000
4000
0000
0000
3000
0000
0000
,
0100
0010
0001
1000
0001
0010
0100
1000
0001
1000
0100
1000
,
0001
0010
0100
1000
0001
1000
0040
0000
0000
0030
0000
0000
,
1000
0001
0100
0001
1000
0001
0010
0100
1000
0001
1000
0100
,
0010
0000
0001
0000
1000
0000
0010
0000
0100
0000
0001
0000
1000
0000
0000
0100
0000
0000
1000
0000
0000
0010
0000
0000
,
0200
0300
0001
0000
,
4000
0400
0000
0000
0000
0000
0000
3300
,
2222
0000
3000
0000
,
0003
0000
0000
0000
0000
0330
0000
0000
,
0000
0000
0000
0000
,
0001
0000
0100
0010
,
0000
0000
0000
0000
,
0000
0000
0000
0000
,
0000
0000
0000
0000
,
0001
0000
0010
0100
,
0000
0000
0000
0000
,
0000
0000
0000
0000
,
0000
0000
0000
0000
,
1000
0000
0100
0010
,
0000
0000
0000
0000
,
0000
0000
0000
0000
,
0000
0000
0000
0000
,
0000
0000
0000
0000
,
0000
0000
0000
0000
,
0000
0000
0000
0000
,
0000
0000
0000
0000
,
0000
0000
0000
0000
,
000M
0000
0000
0000
;
