#TITLE:SHOOTING STAR;
#SUBTITLE:- Happy 2B Hardcore Mix;
#ARTIST:BANG!;
#TITLETRANSLIT:;
#SUBTITLETRANSLIT:;
#ARTISTTRANSLIT:;
#CREDIT:;
#BANNER:SHOOTING STAR.png;
#BACKGROUND:SHOOTING STAR-bg.png;
#LYRICSPATH:;
#CDTITLE:./CDTITLES/DANCE MANIA SPEED.PNG;
#MUSIC:Happy 2B Hardcore Chapter 3 - 07 - Shooting Star - Bang!.mp3;
#OFFSET:-0.012;
#SAMPLESTART:23.000;
#SAMPLELENGTH:12.000;
#SELECTABLE:YES;
#DISPLAYBPM:170.000;
#BPMS:0.000=172.020;
#STOPS:;
#BGCHANGES:;
// cache tags:
#FIRSTBEAT:4.500;
#LASTBEAT:859.000;
#SONGFILENAME:Songs/keyboard/SHOOTING STAR - Happy 2B Hardcore/SHOOTING STAR-HHM.sm;
#HASMUSIC:1;
#HASBANNER:1;
#MUSICLENGTH:301.126;
// end cache tags

//---------------dance-single - BASIC----------------
#NOTES:
     dance-single:
     BASIC:
     Easy:
     6:
     0.433,0.604,0.173,0.292,0.000,771.000,52.000,88.000,0.000,14.000:
0000
0000
0000
0000
,
0000
0000
0000
0000
,
0000
0011
0000
0000
0000
0000
0000
0000
,
0000
0000
0000
0000
,
0001
0100
1000
0000
0001
0000
0001
0000
,
0000
1000
0001
1000
,
0001
1000
0001
0000
0001
0000
0001
0000
,
0000
1000
0001
0100
,
0020
0001
0000
0000
0000
0000
0000
0030
,
1000
0000
1000
0001
1000
0000
1000
0000
,
0022
0000
0000
0003
,
0000
0100
0000
0100
0000
0100
0000
0130
,
2000
0000
0000
0000
,
0001
0100
0001
0000
0001
0000
0000
3001
,
0001
1000
0000
0001
0000
1000
0010
0000
,
0001
0001
0000
0000
0000
0000
0000
0000
,
2001
0000
0000
0000
,
0000
0000
0000
0000
,
3120
0000
0000
0000
,
0000
0000
0000
0030
0000
0000
0000
2012
,
0000
0000
0000
0000
,
0000
0000
3003
0000
0000
0000
0000
0122
,
0000
0000
0000
0000
,
0000
0000
0000
0000
,
0003
0000
0000
0000
,
0000
0000
0000
0000
,
2030
0000
0000
0000
,
0000
0000
0000
3021
,
0230
0000
0000
0000
,
0000
0000
0000
0000
0000
0000
0000
2310
,
0000
0000
0000
0000
,
0000
0000
0000
0000
0000
0000
0000
3000
,
0001
1001
0001
1001
,
0001
0000
0000
0001
0001
0000
0001
0000
,
1000
0001
1000
0001
0000
0000
0001
0000
,
0000
1000
0001
1000
0001
0000
1001
0000
,
1000
0000
0010
0000
0010
0000
0010
0001
,
0010
0100
0010
0010
0010
0000
0000
0000
,
1000
0100
1000
0100
1000
0100
1000
0100
,
1000
0100
1000
0100
1000
0100
1000
0000
,
0022
0000
0000
0000
,
0000
0000
0000
0000
0000
0000
0003
0030
,
0220
0000
0000
0000
,
0000
0000
0000
0330
,
0011
0000
1100
0000
0010
0000
0010
0001
,
0010
0010
0010
0010
,
1000
0010
1000
0000
0100
0010
0100
0000
,
0001
0100
0001
0000
0010
0000
0110
0000
,
0110
1001
0010
0010
,
1001
0110
0001
0001
,
1010
0100
0100
0100
,
0101
0011
1100
0010
,
0200
1000
0000
0000
0001
0000
0000
0000
,
0001
0000
0001
0000
0001
0300
0000
0000
,
0001
1000
0010
0100
,
0001
1000
0001
0000
0001
0000
1000
1000
,
0010
0100
0010
0100
0010
0000
0010
0000
,
0110
0000
0010
0100
0010
0000
1000
1000
,
0110
0000
0010
0100
0010
0000
0010
0000
,
0011
0000
0010
0100
0010
0001
0001
0000
,
1001
0000
1000
0100
1000
0000
1000
0000
,
0100
0100
0010
0000
0110
0000
0110
0000
,
0001
0001
1000
1000
0010
0000
0010
1000
,
1000
0000
0001
0001
0010
0010
0000
0000
,
0100
0010
0100
1000
1000
0000
0001
0000
,
0110
0000
0000
0001
0000
0000
0000
0000
,
0100
0010
0000
0002
0000
0000
0000
0000
,
0020
0000
0000
0000
0033
0100
0000
0000
,
1000
0000
0010
0100
0000
0000
0001
0000
,
0010
0010
0000
0100
0000
0000
1000
0000
,
0100
0100
0000
0010
0000
0000
0001
0000
,
0001
0010
0100
1000
0000
1000
0000
0000
,
1000
0100
0010
0002
0000
2000
0000
0020
,
0000
0000
0000
0000
0000
0000
0033
3000
,
0001
0000
0100
0010
0000
1000
0000
0200
,
0000
0000
0000
0000
0000
0300
0010
0000
,
0001
0000
0000
0000
1000
0000
0000
0010
,
0000
0000
0100
0001
,
1000
0000
0100
0010
0000
0001
0000
1000
,
0100
0010
0100
1000
0100
0010
0100
1000
,
0100
0010
0100
0010
0100
0000
0100
0000
,
0100
0100
0100
0100
,
0010
0001
1000
0010
0000
0010
0000
0010
,
0000
0010
0100
0001
0000
0000
0011
0000
,
0100
0000
1100
0000
0100
0110
0000
0000
,
0010
1001
0000
0000
0001
0010
0100
0010
,
0001
0000
0000
1100
1000
0100
0000
1100
,
0000
0100
0000
0100
0010
0010
0001
1001
,
0000
1000
0010
0010
0100
0100
0001
0001
,
1000
1000
0100
0100
0010
0000
0010
0001
,
1001
0000
1000
0010
0010
0100
0000
0101
,
0000
1001
0000
1000
0100
0100
0010
0000
,
0001
1000
0100
0010
0001
1000
0000
0100
,
0010
0001
1000
0100
0010
0001
1000
0010
,
0010
0100
0000
0000
0001
1000
0000
0000
,
0000
0010
0000
0010
0000
0010
0000
0010
,
0000
0010
0000
0010
0000
0010
0000
0010
,
0000
0010
0000
0010
0000
0100
0000
0100
,
0000
0100
0000
0100
0100
0000
0000
0001
,
0001
0001
0001
1000
,
1000
1000
1000
1000
,
1000
0000
0000
0000
,
1000
0000
1000
0000
0000
1000
0000
1000
,
0100
0010
0001
0010
0100
0010
0100
0110
,
0010
0100
1000
0100
1000
0100
1000
0100
,
0000
0001
0000
0001
0000
0010
0100
1000
,
0000
0000
0010
0000
0000
0100
0000
0002
,
0000
0000
0000
0000
0000
0000
0000
1003
,
0000
0000
0100
0000
0000
0010
0001
2000
,
0000
0000
0000
0000
0000
0010
0010
0100
,
0000
0000
0000
0001
0000
0000
0000
3000
,
0000
0000
0000
0000
0000
0100
0000
0010
,
0001
1000
0100
0010
0100
1000
0000
1000
,
0100
0010
0001
1000
0010
0100
0000
0001
,
1000
0100
0010
0001
0000
1001
0000
0010
,
0100
0001
0010
0000
0100
0110
0000
0100
,
1000
0001
0000
0010
0000
0010
0000
0010
,
0100
0010
0100
0010
0000
0110
0000
0001
,
1000
0000
0010
0000
0010
0000
0100
0001
,
0000
0000
0000
0000
1000
0000
0000
0020
,
0000
0000
0000
0200
,
0000
0000
0000
0300
0031
1000
0010
0000
,
0010
0000
0010
0000
0100
0001
0001
0000
,
0001
0000
0002
0000
2000
0000
0000
0020
,
0000
0000
0000
0003
,
3000
0000
0000
0130
0001
0100
0001
0000
,
0001
0000
0100
0000
0010
1000
0002
0000
,
0000
0000
0000
0000
0000
0020
0000
0003
,
0000
0000
0000
0000
0000
0000
0000
2000
,
0000
0000
0000
0000
0000
0030
0000
0000
,
0200
3000
0000
0000
0002
0000
0300
0000
,
0000
0020
0003
0000
0000
0200
0030
0000
,
0000
2000
0000
0300
0000
0020
3000
0000
,
0000
0200
0000
0030
0000
0020
0300
0000
,
0000
0200
0000
0030
0000
0020
0000
0300
,
0000
0000
0000
0000
0000
0000
0000
2000
,
0000
0000
0000
0000
,
0000
0000
0000
0030
,
0000
0000
0000
0000
,
0000
0002
0200
0003
,
0000
0000
0000
0000
,
0000
0000
0000
3000
,
0000
0000
0000
0000
,
0000
0000
0000
0000
0000
0000
0000
0002
,
0000
0000
0000
0000
,
0000
0300
2000
0003
,
0000
0000
0000
0000
,
0000
0000
0000
0020
0200
0000
0030
0000
,
0000
0000
0000
0000
,
0000
0000
0000
3000
,
0000
0000
0000
0000
,
0000
0000
0000
0000
0000
0300
0000
1001
,
0000
0100
0010
0000
0001
1000
0000
1000
,
0000
1000
0000
0010
0010
0010
0010
0000
,
0000
0000
0000
0000
0100
0100
0000
0000
,
0100
0000
0100
0000
0000
0001
2000
0000
,
0000
0000
0000
3010
0000
0010
0000
0010
,
0000
0100
0000
0001
0001
0001
0000
0000
,
1000
1000
1000
0000
0010
0010
0010
0000
,
0100
0100
0100
0100
0100
0100
0002
0000
,
0000
0000
0000
0020
0000
0200
0000
0000
,
0000
0000
0000
0030
,
2000
0303
0000
0020
0000
0230
0000
0000
,
0000
0000
0000
3000
0000
0310
2000
0000
,
0000
0002
0000
3000
,
0000
0000
0200
0000
0003
0300
0001
0000
,
1000
0100
0000
0100
0000
0020
0000
0000
,
0000
0030
0000
0000
0001
1000
0001
0000
,
0000
0000
0000
0000
0000
0000
0100
1000
,
0100
0000
0000
0000
0000
0000
0001
0010
,
0001
0000
1000
0100
1000
0000
0001
0010
,
0001
0000
1000
0010
1000
0000
0010
0100
,
0010
0000
0001
1000
0001
0000
0010
0100
,
0010
0000
0001
1000
0100
0000
1000
0100
,
0010
0001
0001
1000
0100
0000
0010
0100
,
1000
0001
0010
1000
1000
0000
1000
0010
,
0010
0100
0000
0100
0001
1000
0100
0010
,
0001
1000
0000
1000
0100
0010
0001
1000
,
0010
0100
1000
0100
0010
0100
1000
0100
,
0010
0100
0000
0001
0010
0100
0000
1000
,
0000
1000
0000
0001
0010
0100
1000
0010
,
0000
0010
0000
0010
0000
0010
0100
0001
,
0010
0100
0000
0100
1000
0001
0010
0000
,
0010
0010
0020
0000
0000
0000
0002
0000
,
0000
0003
0000
0002
0000
0003
0002
0000
,
0003
0002
0000
0003
0100
0000
0200
0000
,
0300
0200
0000
0300
0100
0000
0200
0000
,
0300
0200
0030
0020
0300
0200
0030
2000
,
0300
0002
3000
0200
0000
0023
0000
0300
,
2000
0030
0200
3000
2000
0300
0200
3000
,
2000
0300
3200
0000
2300
0000
3010
0100
,
0010
0100
0010
0100
0010
0000
1000
0000
,
0001
0010
0000
0100
1000
0000
1000
0100
,
0010
0001
0000
0011
0100
1000
0100
0000
,
1000
0000
0100
0011
0000
0000
0001
0010
,
0100
1000
0000
0000
0000
0000
1000
0100
,
0010
0001
0000
0000
0000
0000
0001
0110
,
1000
0000
0000
0000
0000
1000
0100
0000
,
0010
0001
1000
0100
0010
0001
1000
0100
,
0010
0001
1000
0100
0010
0000
0001
1000
,
0000
1000
0000
1000
0000
0001
0010
0100
,
0000
0100
0000
0100
0000
1100
0000
0100
,
0000
0100
0000
0100
0000
0010
0100
0100
,
0000
0100
0000
0100
0000
0011
0000
0100
,
0000
0100
1000
1000
0000
0001
0100
0000
,
0000
0010
1000
0000
0000
0001
0010
0000
,
0000
0100
1000
0000
0000
0010
0000
0100
,
1001
0000
0000
0000
0000
0100
1000
0100
,
0000
0100
0010
0100
0000
0001
0010
0001
,
0000
0100
1000
0100
0000
0010
0100
0010
,
0000
0001
0010
0001
0000
0001
0010
0001
,
0000
0010
0001
0010
0000
0100
0010
0100
,
0000
1000
0100
1000
0000
0002
0000
0200
,
2000
0000
0000
0303
0000
0000
0000
3100
;

//---------------dance-single - ANOTHER----------------
#NOTES:
     dance-single:
     ANOTHER:
     Medium:
     6:
     0.426,0.604,0.083,0.252,0.000,796.000,25.000,76.000,0.000,35.000:
0000
0000
0000
0000
,
0000
0100
0000
0000
0000
0000
0000
0000
,
0010
0100
0000
0000
0000
0000
0000
0000
,
0000
0010
0000
0000
1000
0000
0001
0000
,
0010
0100
0000
0000
1000
0000
1000
0000
,
0001
0100
0000
0000
0010
0000
0000
0000
,
0000
0001
1000
0001
0000
0100
0000
0000
,
0010
0000
0001
1000
,
0000
0010
0100
0010
0100
0000
0010
0000
,
0010
1000
0001
0010
0100
0100
0000
0100
,
1000
0000
0001
0110
0000
0000
0100
0000
,
1000
0010
0101
0000
1000
0000
0010
0000
,
0000
0100
0001
0000
1000
0000
1000
0000
,
1000
0000
1000
0000
1000
0000
1000
1000
,
0000
0100
0010
0000
0001
0001
0000
0000
,
0001
0000
0001
0000
0001
0000
0001
0001
,
1000
0010
0010
0000
0100
0001
0000
1000
,
0000
0100
0000
0010
0000
0001
0000
2000
,
0000
0000
0000
0000
0000
0010
0010
0000
,
0001
0100
0000
0010
0000
0100
0000
0020
,
0000
0000
0000
0000
0000
0001
0001
0000
,
0100
0000
0001
0000
0100
0001
0000
0200
,
0000
0000
0000
0000
0000
0000
0000
0030
,
0000
0001
0000
0010
0000
0002
0000
0000
,
0000
0000
0000
0000
,
0000
0000
0000
0000
,
0020
0000
0000
0000
,
0000
0000
0000
0300
,
0000
3000
0000
0000
0000
0000
0000
0000
,
0000
0000
0000
0000
0000
0003
0000
0000
,
2000
0000
0000
0000
,
0000
0000
0000
0000
0000
0000
0000
3000
,
0030
0000
0000
0000
0002
0000
0000
0020
,
0000
0100
0000
0000
0000
2030
0000
0020
,
0000
0000
0000
0003
,
0000
0000
0000
0000
,
0200
0000
0000
0000
,
0000
0000
0000
0000
,
0002
0000
0003
0000
,
0030
0000
3000
0300
,
0002
0000
0000
0000
0000
2000
0000
3100
,
0000
0000
0010
0000
0010
0000
0010
0003
,
1000
0000
0010
0100
0000
0002
0000
0000
,
1000
0000
1000
0000
1000
0000
0013
0100
,
1000
0100
1000
0100
1000
0100
1000
0200
,
0000
2000
0000
0000
0000
0000
3310
0200
,
0010
0010
0010
0010
,
2000
0000
0000
0000
0000
0000
0000
0300
,
0001
0001
0001
0001
,
0010
0010
0010
0010
,
0100
0010
0100
0010
,
0001
0001
0010
0001
,
3200
0000
0010
0000
,
0001
0000
0000
0000
1000
0000
0301
1000
,
0001
0000
0010
0100
0000
1000
0000
1000
,
0000
1000
0100
0010
0100
0010
0100
0000
,
0001
1000
0100
0010
0001
1000
0010
0100
,
0001
0001
0000
1000
0000
1000
0100
0010
,
0001
1000
1000
1000
0000
1000
0010
0010
,
0100
0001
1000
0100
0000
0100
0010
0001
,
0000
0001
0000
1000
0000
1000
0010
0100
,
0001
1000
0200
0000
0000
0000
0300
0000
,
0010
0001
1000
0010
0000
0100
0010
0100
,
2000
0000
0020
0000
,
3000
0000
0000
0000
0000
0000
0000
0002
,
0000
0000
0000
0000
,
0033
0010
0000
0010
0000
0010
0000
1000
,
0001
0010
0000
0010
0000
0010
0000
0010
,
0100
1000
0100
0010
0100
1000
0100
0010
,
0100
1000
0100
0010
0100
1000
0100
0010
,
0100
0001
0100
1000
0100
0001
0100
1000
,
0100
0010
0100
1000
0100
0001
0100
1000
,
0001
0001
0001
0001
0001
0001
0001
0100
,
0000
0100
0000
0100
0000
0100
0000
0010
,
2000
0000
0001
0001
0000
0001
0020
0000
,
0000
0000
0000
0000
0000
3031
0100
0000
,
0020
0000
0000
0000
2000
0000
0000
0002
,
0000
0000
0000
0200
0000
0000
3333
0200
,
0000
0000
0010
0010
0000
0010
2000
0000
,
0000
0000
0000
0000
0000
0000
0000
0300
,
3000
0000
0001
1000
0000
0000
0100
0000
,
0010
0001
1000
0100
,
0010
0001
1000
0100
0000
0010
0000
0010
,
0000
0010
0001
1000
0100
0010
0000
0000
,
0020
0000
0000
0000
0002
0000
0000
0030
,
0000
0000
0000
0003
0000
0000
0000
0000
,
1000
0000
0100
0010
0000
0001
0000
2000
,
0000
0000
0000
0000
0000
3000
0000
0000
,
1001
0000
0000
0010
0000
0010
0000
1000
,
0011
0000
0000
0100
0100
0000
0000
0000
,
1001
0000
0000
0010
0010
0000
0000
0000
,
0100
0100
0010
0000
0100
0000
0000
0000
,
0011
0000
1000
0100
0000
0010
0000
0000
,
0101
0000
1000
0000
0100
0000
0000
0110
,
0000
0000
1000
0001
0000
0000
0000
0000
,
0110
0000
0000
1001
0000
0000
0000
0000
,
0110
0001
0000
0000
0001
0001
0000
0010
,
0100
0001
0000
1000
0000
1000
0010
0000
,
0101
0000
0110
1000
0010
0100
0010
1000
,
0010
0100
0010
1000
0001
0010
0000
1100
,
0000
0000
0011
0000
0000
0100
1000
0020
,
0000
0000
0200
0000
0000
0000
0000
0030
,
0000
0001
0300
1000
0000
0100
0000
0010
,
0001
1000
0100
0010
0001
1000
0000
1000
,
0000
0100
0011
1000
0100
0010
0001
1000
,
0010
0100
1000
0100
0010
1000
0001
0010
,
0100
1000
0001
0010
0010
1000
0000
0000
,
1000
1000
0000
1000
0000
1000
0000
1000
,
0010
1000
0001
0010
0100
1000
0001
0010
,
0100
1000
0010
0100
1000
1000
0010
1000
,
0100
0010
0100
0010
0001
1000
0100
0010
,
0000
0001
0000
1000
0000
0010
0000
0100
,
0000
0000
0001
0000
1000
0000
0000
0100
,
0000
0000
0010
0000
0000
0001
0000
1000
,
0000
0000
0010
0000
0000
0100
0000
0001
,
1000
0001
0000
0010
0010
0000
0000
0100
,
0100
1000
1000
0000
0001
0001
0000
0100
,
0100
0010
0010
0000
1000
1000
0001
0001
,
0010
0010
0100
0100
1000
0001
0010
0100
,
1000
0001
0010
0010
0100
0001
0000
2000
,
0000
0000
0000
0002
,
0000
0000
0000
3003
0100
0010
0100
0000
,
0010
0000
0010
0000
0100
0001
0010
0000
,
0010
0000
0010
0000
0010
0200
0000
2000
,
0000
0000
0000
0000
0000
0000
0000
0300
,
0000
0000
3001
0010
,
0010
0000
0100
0000
0100
0001
1000
0100
,
0010
0100
0010
0100
0000
0020
0000
0002
,
0000
0000
0000
0000
0000
0000
0000
0003
,
0000
0000
0000
0030
0100
2000
0010
0000
,
0010
0000
0010
0000
0001
0001
0001
0000
,
0002
0000
0200
0000
0000
0003
0000
3000
,
0000
0000
0000
0000
0000
0000
0000
2000
,
0000
0000
0000
0000
3300
0002
0000
0020
,
0000
0000
0200
0000
0000
0000
0000
0003
,
0000
0000
0000
0000
0000
0000
0000
0330
,
0000
0000
0000
0000
,
0000
0000
0000
0002
,
0000
0000
0000
0000
,
0000
0000
0000
0000
0000
1000
0000
0020
,
0000
0000
0000
0000
,
0000
0000
0000
0000
0003
0001
0000
0200
,
0000
0000
0000
0000
,
0000
0000
1000
0002
,
0000
0000
0000
0000
,
0000
0300
0100
0000
2030
0000
0020
0000
,
0000
0000
0000
0000
,
0000
0030
0003
3002
0000
2000
0000
0020
,
0000
0000
0000
0000
,
0000
0000
0000
0000
3230
0003
0020
0000
,
0000
0000
0000
0000
0000
0330
0001
0000
,
1000
0000
0100
0000
0010
0000
0001
0010
,
0100
1000
0100
0010
0001
0000
1000
0100
,
0010
0001
1100
0010
0001
1000
0100
1000
,
0100
0010
0001
0010
0001
0010
0100
1000
,
0100
0000
1100
0010
0001
0010
0001
0010
,
0100
1000
0001
0010
0100
1000
0001
0010
,
0100
1000
0001
0010
0100
1000
0010
0100
,
0001
1000
0010
0000
0000
1001
0000
0100
,
0000
0000
0010
0000
0000
0000
1000
0001
,
0000
0001
0000
0001
0000
1000
0000
0100
,
0000
0100
0000
0100
0000
0100
0010
0001
,
0000
0001
0000
0001
0000
0001
1000
0010
,
0000
0010
0000
0010
0000
0010
0100
0001
,
0000
0001
0000
0001
0000
0001
1000
0100
,
0000
0100
0000
0100
0000
0100
0010
0001
,
0000
0001
0000
0001
0000
1000
0010
0100
,
0000
0100
0100
0000
0000
0110
0000
0000
,
0010
0000
0000
0010
0000
0000
0001
0000
,
0000
0001
0000
0000
0001
0000
1000
0000
,
0000
1000
0000
1000
0000
0000
0100
0000
,
0000
0010
0000
0010
0001
1000
0010
0000
,
0010
0000
0000
0010
0100
0001
1000
0000
,
0000
1000
0000
1000
0100
0100
0010
0001
,
1000
0100
0100
0010
0001
1000
0100
0100
,
0100
0100
0100
0100
0100
0100
0010
0001
,
1000
0010
0100
0001
0001
1000
0010
0100
,
0000
0100
0000
0002
2000
0000
0200
0000
,
0300
0020
0003
3130
0010
0100
0020
0000
,
0000
0100
0000
1000
1030
1000
0000
0001
,
0000
1000
0000
0010
0100
0001
0001
0001
,
0000
0100
0000
0010
0010
0100
1000
1000
,
0000
0010
0000
1000
0010
0000
1000
0000
,
0010
0000
0100
0000
0001
0002
0000
0000
,
0000
0000
0020
0000
,
0000
0000
0000
0000
0000
0003
0000
0000
,
0000
0000
0000
2000
,
0000
0000
0000
0030
0000
3020
0000
0000
,
0000
0000
0000
0000
0000
0200
0000
0000
,
0000
0000
0000
0300
,
0200
0000
0000
0000
0000
0030
0000
0000
,
0000
0000
0300
0002
,
0000
0000
0000
0020
0000
0200
0000
0000
,
0000
0000
0000
0000
0000
0030
0000
0000
,
2000
0000
0003
0000
,
0000
0000
0000
0300
0000
3000
0000
0000
,
0000
0010
0000
0100
,
0000
0001
0000
0000
1000
0100
0010
0000
,
0001
1000
0100
0010
0001
1000
0010
0100
,
0001
1000
0100
0010
0001
1000
0000
0100
,
0010
0001
1000
0010
0100
0001
0000
0001
,
0000
0001
0000
0001
0000
1000
0100
0000
,
0010
0000
0000
0010
0010
0000
0001
0000
,
1000
0110
0001
0000
1010
0100
0000
0100
,
0000
0100
0000
0100
0000
0100
0000
0100
,
0000
0100
0000
0100
0000
0100
0001
0001
,
0001
0000
0000
0001
0001
0000
0100
0010
,
1000
0001
0010
0100
0000
1001
0000
0000
,
0110
0000
0000
0001
0000
1000
0000
0000
,
1000
0100
0100
0000
0000
0010
0001
0000
,
0001
0000
0001
0000
0100
1000
0010
0000
,
0010
0000
0010
0000
0001
0100
0010
0000
,
1000
0000
1000
0000
1000
0100
0010
0000
,
0010
0000
0010
0000
0001
1000
0000
0000
,
1100
0000
0000
0000
;

//---------------dance-single - MANIAC----------------
#NOTES:
     dance-single:
     MANIAC:
     Hard:
     7:
     0.524,0.606,0.080,0.309,0.000,988.000,24.000,93.000,0.000,10.000:
0000
0000
0000
0000
,
0000
0000
0000
0000
,
0000
0000
0000
0000
,
0000
0000
0000
0000
,
0001
0001
0001
0001
,
0000
0001
0001
0001
,
1000
1000
1000
1000
,
0000
1000
1000
1000
,
0020
0000
0000
0000
,
0000
0000
0000
0030
,
2000
0000
0000
0000
,
0000
0000
0000
0000
0000
3000
0001
0010
,
0200
0000
0000
0000
,
0000
0000
0000
0000
0000
0300
0001
1000
,
0100
0010
0010
0010
,
0010
0000
0000
0010
0000
1000
0001
0000
,
2002
0000
0000
0000
,
0000
0000
0000
0000
0000
0000
0000
3023
,
0000
0000
0000
0000
,
0000
0000
0000
0230
,
2000
0000
0000
0000
,
0000
0000
0000
0000
0000
0000
0000
3302
,
0000
0000
0000
0000
,
0203
0000
0000
0000
0320
0000
0000
0030
,
2000
0000
0000
0000
,
0000
0000
0000
0000
3000
0000
0000
0202
,
0000
0000
0000
0000
,
0000
0000
0000
0000
0000
0000
0000
0003
,
0000
0000
0000
0000
,
0000
0000
0000
0000
0000
0000
0000
2300
,
0000
0000
0000
0000
,
0000
0000
0000
0000
0000
0000
3010
1000
,
0001
0010
0010
0010
,
0000
0010
0000
0010
0000
0010
0100
1000
,
0001
0000
0100
0000
,
0001
0000
0000
0000
0000
0010
0100
1000
,
0010
0000
0100
0000
,
0100
0000
0000
0001
0000
1000
0000
0000
,
0010
0100
0011
0110
,
1001
0000
0010
0000
0100
0001
0010
0100
,
1000
0100
0010
0001
1000
0010
0100
0001
,
1000
0010
0100
0001
0001
0000
0001
0000
,
1000
0010
0100
0100
0010
0100
0010
0100
,
0010
0100
0100
1000
0001
0100
0010
0000
,
1000
0001
1000
0001
1000
0001
1000
0001
,
1000
0001
1000
0001
1000
0010
0100
0000
,
0001
0000
0001
0010
0000
0100
0000
0100
,
0000
1000
0001
0010
0100
1000
0100
1000
,
0010
0000
0000
0010
0100
0000
0001
0000
,
1000
0010
0100
0001
0010
0000
0010
0000
,
0100
1000
0001
0100
0010
1000
0010
1000
,
0100
1000
0010
1000
0100
0000
0100
0000
,
0010
0001
0010
0000
0100
1000
0100
0000
,
0010
0001
0010
0000
0100
0010
0100
0010
,
0100
0000
1000
0010
0100
0001
1000
0100
,
0010
0001
0001
1000
,
0010
0100
0001
0010
0100
0100
1000
0010
,
0100
0001
0001
0000
0000
0010
0100
1000
,
0010
0100
0001
0001
0000
0010
0100
0020
,
0000
0200
0030
0301
0000
1000
0100
0000
,
0001
0000
0001
0000
0010
1000
0000
0001
,
0001
0001
0000
0010
0000
0100
1000
0010
,
0100
0100
0001
0000
0001
0010
0010
0100
,
0000
0100
1000
0000
0010
0010
0100
0001
,
0000
0010
0010
0100
0000
1000
0010
0000
,
0100
0100
0000
0010
0000
0100
1000
0010
,
0000
0100
0001
0010
0100
1000
0001
0000
,
0001
0001
0000
0100
0001
0001
0010
0200
,
0000
0000
0000
0000
,
0320
0000
0000
0000
0100
0030
1000
0001
,
0020
0000
0130
0100
0000
1000
0000
0000
,
0001
0100
0100
0000
0100
0010
1000
0000
,
0001
0010
0100
2000
0000
3010
0200
0000
,
0000
0000
0000
0000
0000
0300
0000
0002
,
0000
1003
0010
0000
0200
0000
0000
0000
,
0000
0000
0300
0000
0000
0001
1000
0100
,
0000
0000
0001
0000
0001
0001
0000
0001
,
0000
0001
0000
0000
0000
1100
0000
0110
,
0000
0001
0020
0000
0130
0000
2000
0000
,
0000
0000
0000
0000
3000
0001
0010
0202
,
0000
0000
1303
0010
,
0100
0001
1000
0010
0000
0100
0000
2020
,
0000
0000
3030
0200
0000
0000
0300
0002
,
0000
0000
0003
0020
0000
0000
0030
1000
,
0000
0001
0000
0010
0000
0100
0000
1000
,
0000
0100
0000
0010
0000
0001
0000
1000
,
0000
1000
0000
1000
0000
1000
0000
0010
,
0000
0010
0000
0100
0100
0100
0000
0002
,
0000
0000
0000
0000
0000
0000
0000
2003
,
0000
0000
0000
3020
0000
0130
0000
0002
,
0000
0000
0000
0020
0003
0000
0000
0230
,
0000
0000
2300
0000
0000
3010
0000
0202
,
0000
0000
0000
0000
0000
0000
0003
0320
,
0000
0000
2030
0000
3100
0010
0001
2000
,
0000
0000
0000
3020
0000
0000
0000
0130
,
0001
0010
0001
0010
0000
0100
0000
1000
,
0100
1000
0100
1000
0010
1000
0100
1000
,
0010
0100
0010
0100
0010
0100
0001
0100
,
0001
0100
0001
0100
0001
0100
0010
0100
,
1000
0100
0010
0100
0010
1000
0010
1000
,
0100
1000
0100
1000
0100
1000
0100
1000
,
0010
1000
0100
1000
0010
0100
0001
0100
,
0001
1000
0001
1000
0001
1000
0001
1000
,
0001
0001
0001
0001
0001
0001
0000
0010
,
0100
1000
0010
0000
0100
0001
0010
0100
,
1000
0010
0100
0000
0100
0001
0010
0100
,
0010
0100
0010
0100
0010
0100
0010
0100
,
1000
0001
0100
0000
0010
1000
0010
1000
,
0010
1000
0100
1000
0010
0100
0010
1000
,
0000
0010
0000
0010
0000
0010
1000
0001
,
0010
0000
0010
0000
0010
0000
0100
1000
,
0010
0000
0100
0000
0100
0000
0001
0010
,
0001
0010
0001
0000
0100
1000
0100
1000
,
0100
1000
0000
0010
0100
0010
0100
0000
,
0010
0100
0001
0100
0001
0100
0000
0010
,
1000
0000
0010
0000
1000
0100
0010
0001
,
0010
0100
0000
1000
0100
0000
0010
0001
,
0010
0001
0000
0010
0100
0000
1000
0010
,
1000
0010
0000
0100
0010
0000
1000
0001
,
0000
0010
0000
0100
0000
1000
0000
1000
,
0010
0100
0001
0010
0100
2000
0000
0000
,
0000
0000
0000
3010
0100
0001
0000
0010
,
0000
0100
0000
0000
0100
1000
0201
0000
,
0010
0010
0000
0301
1000
0010
0200
0000
,
0000
0000
0000
0000
0000
0000
0300
0002
,
0000
0000
0003
1000
0100
0100
0010
0000
,
0010
0010
0000
0010
1000
0000
1000
0000
,
0010
0000
0000
0001
1000
0101
0202
0000
,
0000
0000
0000
0000
0000
0300
0003
2000
,
0000
0000
0000
3010
0100
0001
0020
0000
,
0130
0000
0100
1000
0010
0200
0002
0300
,
0000
0000
0003
0010
0100
1000
0000
0010
,
0010
0000
0010
0000
1000
0001
0010
0100
,
0000
1000
1000
0001
0010
0100
1000
0000
,
1000
1000
0000
0010
0100
0001
0010
0000
,
0010
0000
0000
0100
0001
0000
2000
0000
,
0000
0000
0000
3002
,
0000
0023
0230
2300
,
0000
0000
0000
3200
,
0000
0300
0010
0000
0001
0000
1000
0000
,
0010
0100
0001
0100
,
0100
0000
0100
0000
0100
0000
0010
0100
,
0010
0000
0001
1000
0001
0000
0010
0100
,
0010
0100
1000
0000
0001
0000
0001
0100
,
0000
0010
0000
0010
0000
1000
0001
0010
,
0000
0010
0000
0010
0000
0100
1000
0010
,
0100
0000
0100
0000
0100
0000
0001
0001
,
0000
0010
0000
0010
0000
0100
0100
1000
,
0000
1000
0000
1000
0000
0010
0010
0010
,
0000
0100
0000
0100
0000
0000
0000
0001
,
0001
0000
1000
1000
1000
0000
0100
0100
,
0100
0000
0010
0010
0010
0000
0001
1000
,
0010
0100
0001
0010
0000
0100
0000
0100
,
0000
1000
0000
0001
0100
0010
2000
0000
,
0000
3000
0000
0002
0020
0000
0000
0000
,
0033
0000
0000
0100
1000
0001
0200
0000
,
0010
0010
0010
0010
,
0010
0000
0010
0300
0001
1000
0010
0000
,
0100
0001
1000
0010
0000
0100
0000
0000
,
0101
0000
0011
0000
0100
1000
0010
0100
,
0010
0100
0010
0100
0001
2000
0000
0000
,
0000
0000
0000
0000
0000
3200
0000
0000
,
0310
0001
0000
1000
0220
0000
0000
0000
,
0000
0000
0000
0330
0001
1000
0020
0000
,
0000
0000
0000
0000
,
0000
0000
0000
0130
1000
0001
0020
0000
,
0130
2000
0000
0002
3000
0023
0000
0000
,
0000
0000
0000
0130
0002
2020
0003
0000
,
0000
3200
0032
0000
,
0000
0000
0000
0000
0000
0323
0000
0200
,
0030
0020
0302
0000
2030
0003
0000
0000
,
0000
0000
0000
3100
0010
0002
0000
0000
,
0000
0200
0003
0000
0000
0000
0020
0000
,
0000
0000
0000
0300
0031
2000
0010
3200
,
0000
0002
0323
0000
0230
0000
0300
1001
,
0100
0010
1000
0001
0000
0110
1000
0001
,
0000
1000
0001
1000
0001
1000
0000
1000
,
0001
1000
0001
1000
0000
1000
0100
0010
,
0100
0010
0100
0010
0100
0010
0100
0010
,
0100
0010
0100
0010
0100
1000
0001
1000
,
0001
0000
0101
0010
0100
0010
0000
0010
,
0100
0010
0100
0000
0010
0100
0001
1000
,
0001
1000
0100
0000
0110
0001
1000
0001
,
0010
0100
1000
0001
0000
0000
0100
0010
,
0001
1000
0100
0010
0000
0000
0000
0000
,
0100
0100
0000
0100
0000
0001
0010
0100
,
1000
0001
0010
0100
1000
0001
0000
0100
,
0000
0100
0000
0100
0000
0000
0100
0010
,
0001
0010
0100
1000
0001
0010
0100
1000
,
0001
0010
0000
0100
0000
0100
1000
0001
,
0010
0100
1000
0001
0010
0100
1000
0001
,
0010
0100
0000
0001
0000
1000
0100
0010
,
0001
1000
0100
0010
0000
0001
1000
0100
,
0000
1000
0000
0000
0000
1000
0100
0010
,
0001
1000
0100
0010
0001
1000
0100
0010
,
0001
1000
0100
0010
0001
1000
0100
0010
,
0001
1000
0100
0010
0001
1000
0100
0010
,
0001
1000
0100
0010
0001
1000
0100
1000
,
0010
0100
0100
1000
0010
0100
0010
0100
,
0010
0100
0010
0100
0001
1000
0100
0000
,
0010
0001
1000
0010
0000
0100
0001
0000
,
0010
0100
1000
0010
0100
0000
0001
1000
,
0010
0100
0001
1000
0100
0010
0000
0001
,
0000
0001
0000
0001
0000
1000
0010
0100
,
0000
0001
0010
0100
0000
1000
0010
0100
,
0001
1000
0000
0100
0000
0010
0001
0010
,
0000
1100
0000
0010
0100
0001
0000
0011
,
0000
0100
0000
1000
0010
0100
0000
0001
,
0001
0000
1000
0010
0100
0001
0000
0001
,
0000
0001
1000
0010
0000
0100
0001
1000
,
0010
0000
0100
0000
0100
0001
1000
0000
,
0100
0000
0100
0000
0010
0001
1000
0010
,
0100
0001
1000
0100
0010
0001
1000
0010
,
0100
0001
1000
0100
1000
0100
1000
0100
,
1000
0100
1000
0100
1000
0000
0110
0000
;

//---------------dance-double - BASIC----------------
#NOTES:
     dance-double:
     BASIC:
     Easy:
     4:
     0.083,0.097,0.017,0.000,0.000,171.000,5.000,0.000,0.000,0.000:
00000000
00000000
00000000
00000000
,
00000000
00000000
00000000
00000000
,
00000000
00000000
00000000
00000000
,
00000000
00000000
00000000
00000000
,
00010000
00000000
00000000
00000000
,
00000001
00000000
00000000
00000000
,
00001000
00000000
00000000
00000000
,
10000000
00000000
00100000
00000000
,
01000000
00000000
00000000
00000000
,
00001000
00000000
00010000
00000010
,
00000100
00000000
00000100
00000001
,
00001000
00000000
00000100
00010000
,
00001000
00000000
01000000
00100000
,
10000000
00010000
01000000
00100000
,
10000000
00100000
01000000
00001000
,
00010000
00000000
00010000
00000010
,
00001000
00000000
00001000
00001001
,
00000100
00000000
00010000
00000000
,
00001000
00000000
01000000
00100000
,
10000000
00000000
00000000
00010000
,
01000000
00000000
01000000
00001000
,
00010000
00000000
01000000
00001000
,
00010000
00000010
00000100
00000001
,
00001000
00000000
00001000
00000110
,
00010000
00001000
01000000
00100000
,
10000000
00010000
01000000
01000000
,
00001000
00000000
00001000
00010000
,
00000010
00000000
00000000
00001000
,
00000001
00000000
00001000
00000010
,
00010000
00000000
00001000
01000000
,
00100000
10000000
00010000
01000000
,
00100000
00000000
00000000
00000000
,
00000100
00000000
00000000
00000100
,
00001001
00000100
00000000
00000100
,
00000001
00001000
00000010
00010000
,
00001000
00000000
00000000
00000000
,
01000000
00000000
00000000
00001000
,
00100000
00010000
10000000
01000000
,
10000000
00010000
00010000
01000000
,
00001000
00001000
00010000
00001000
,
00010000
00000000
00000000
00001000
,
00000010
00001000
00000001
00000100
,
00000010
00010000
00000100
00010000
,
00001000
01000000
00001000
00100000
,
00010000
10000000
00100000
01000000
,
00010000
00000000
00000000
00000000
,
00011000
00000000
00000000
00000010
,
00000100
00000001
00001000
00000010
,
00000100
00000000
00000000
00010000
,
00001000
01000000
00001000
00100000
,
00010000
10000000
00100000
01000000
,
00001000
00010000
00000010
00010000
,
00000100
00001000
00000001
00000010
,
00000001
00000000
00000000
00000000
,
00010000
00000000
00000000
10000000
,
00100000
01000000
00001000
00010000
,
00000010
00000000
00000000
00001001
,
00000100
00000000
00010000
00001000
,
01000000
00000000
00010000
10000000
,
00100000
00000000
00000000
00000000
,
00000010
00000000
00000000
00000000
,
01000000
00000000
00000000
00001000
,
00100000
00000000
00000000
00001000
,
00010000
00000000
00000100
00000000
,
00001000
00000010
00000100
00000001
,
00001000
00000000
00000000
00000000
;

//---------------dance-double - ANOTHER----------------
#NOTES:
     dance-double:
     ANOTHER:
     Medium:
     6:
     0.126,0.140,0.086,0.000,0.000,239.000,26.000,0.000,0.000,0.000:
00000000
00000000
00000000
00000000
,
00000000
00000000
00000000
00000000
,
00000000
00000000
00000000
00000000
,
00000000
00000000
00000000
00000000
,
00010000
01000000
00001000
01000000
,
00001000
00010000
00000010
00000100
,
00000001
00001000
00000010
00010000
,
00001000
00011000
01000000
01001000
,
00100000
00000000
10010000
01000000
,
00001000
00000000
00010000
00010000
,
00000100
00000000
00000100
00001000
,
00000001
00000000
00000100
00000010
,
00010000
00001000
01000000
00100000
,
10000000
00010000
01000000
00001000
,
00010000
00000100
00001000
00000001
,
00000100
00000010
00001000
00000010
,
00000001
00000000
00001010
00011000
,
01000000
00100000
10000000
10000000
,
00010000
00100000
00001000
00010000
,
00000100
00000000
00001000
00000001
,
00000100
00000000
00000010
00000000
00010000
00000000
00001000
00010000
,
00001000
00010000
00000000
00000000
01000000
00000000
00001000
00000000
,
00010000
00000000
00000010
00000000
00000100
00000000
00000001
00001000
,
00000100
00000000
00010000
00001000
,
00100000
00000000
00001000
00000000
01000000
00010000
10000000
00000000
,
10010000
01000000
00001000
00100000
,
00001000
00010000
00000010
00001000
,
00000001
00000000
00000100
00010100
,
00001000
00000000
01000000
00000000
00100000
00000000
10000000
00010000
,
01000000
00001000
00100000
00001000
,
00010000
00000100
00010000
00000010
,
00000100
00000000
00010000
00001000
,
00100000
00000000
00010000
00000000
10000000
00000000
01000000
00100000
,
00001000
00000000
00010000
00000010
,
00001000
00000001
00000100
00000010
,
00010000
00000000
00001000
00100000
,
00010000
00000000
10000000
00100000
,
01000000
00001000
00100000
00001000
,
00010000
00000000
00000100
00000000
00010000
00000000
00000010
00010000
,
00001000
00000000
00010000
00001000
01000000
00000000
10010000
00000000
,
01100000
00000000
00000000
00010000
,
00100000
00011000
00000100
00011000
,
01000000
00011000
00000010
00011000
,
00010000
00000000
00010000
00000000
00010000
00000010
00001000
00000000
,
00000100
00000000
00001000
00000000
00000001
00000000
00000010
00000001
,
00001000
00000000
00001001
00000000
,
00010000
00000000
00010100
00001000
,
01000000
00000000
00000000
00000000
00010000
00000000
10000000
00100000
,
01000000
00010000
00010000
00011000
,
00000010
00011000
01000000
00011000
,
00000100
00011000
00100000
00011000
,
00000010
00000000
00010000
00000000
00001000
00100000
00010000
10000000
,
01000000
00000000
10000000
00000000
00010000
00000000
10000000
00010000
,
01000000
00000000
10010000
00000000
,
00001000
00000000
00000000
00000000
00101000
00000000
00010000
00000100
,
00000010
00000000
00000000
00000000
00000100
00000000
00001000
00000010
,
00000100
00000001
00001000
00011000
,
00000100
00000000
00000000
00000000
00010000
00001000
00010000
00001000
,
01000000
00000000
00000000
00000000
00010000
10000000
00010000
10000000
,
00100000
01000000
00001000
01000000
,
00001000
00000000
00010000
00000000
00000010
00001000
00000010
00001000
,
00000001
00000000
00001000
00001001
,
00010000
00000000
00000000
10010000
,
01000000
00000000
00001000
01001000
,
00010000
00000000
00000010
00000000
00000100
00000000
00001000
00000001
,
00000100
00000000
00000000
00000000
;

//---------------dance-double - MANIAC----------------
#NOTES:
     dance-double:
     MANIAC:
     Hard:
     7:
     0.151,0.183,0.083,0.000,0.003,293.000,25.000,0.000,0.000,0.000:
00000000
00000000
00000000
00000000
,
00000000
00000000
00000000
00000000
,
00000000
00000000
00000000
00000000
,
00000000
00000000
00000000
00000000
,
10000000
00010000
00001000
00000001
,
00000010
00001000
00010000
01000000
,
10000000
00000000
10000000
00010000
,
01000000
00001000
00100000
00001000
,
00010000
00000010
00000010
00000010
,
00001000
00000000
00000100
00000000
00010000
00001000
00100000
00001000
,
01000000
00000000
00010000
10000000
,
00100000
10010000
01000000
10010000
,
01000000
00001000
00010000
00000010
,
00000100
00010000
01000000
00100000
,
10000000
00000000
00010000
00000000
01000000
00100000
01000000
00001000
,
00010000
00010100
00001000
00001001
,
00000100
00000000
00000100
00001001
,
00000010
00001000
00000010
00001000
00000010
00010000
00000010
00010000
,
00001000
00010000
00001000
00010000
00001000
01000000
00001000
01000000
,
00010000
01000000
00010000
01000000
00010000
10000000
00010000
10000000
,
00100000
01000000
00100000
01000000
00001000
01000000
00001000
01000000
,
00011000
00010000
00010010
00011000
,
01001000
00000000
00011000
00000000
00000010
00000000
00000100
00000010
,
00001000
00000001
00000000
00000100
,
00000001
00000000
00000100
00000010
00001000
00000000
00000001
00000000
,
00000000
00000100
00000100
00000100
00000010
00000000
00010000
00000000
,
00001000
00000000
01000000
00000000
00100000
00000000
10000000
00010000
,
01000000
01010000
00100000
00001000
,
00010000
00000000
00000010
00000000
00000100
00000001
00001000
00000010
,
00000100
00010100
00000000
00001000
,
00100000
00000000
00010000
00000000
01000000
00100000
00000000
10000000
,
00000000
00000000
01000000
01001000
,
00010000
00000000
00000010
00000000
00000100
00000001
00001000
00000010
,
00010000
00000000
00001000
01000000
,
00010000
00000000
10000000
00000000
00100000
01000000
00100000
10000000
,
00010000
00000000
00000000
00001000
,
00010000
00000000
00000000
00000010
,
00001000
00000000
00000001
00000100
00000010
00000000
00010000
00000000
,
00001000
00000000
01000000
00000000
00100000
10000000
00010000
01000000
,
00001000
00000000
00000000
00000000
00010000
00000000
00001000
00000000
00010000
00000000
00000010
00000000
00000000
00000000
00000000
00001000
,
00000000
00000000
00000000
00000001
00000000
00000000
00000000
00000000
00000000
00000000
00000000
00000000
00000100
00000000
00010000
00000000
,
00001000
01000000
00010000
00000010
,
00011000
00100000
00011000
00000100
,
00010000
00000000
00000010
00000000
00000100
00000001
00001000
00000010
,
00000100
00000000
00000010
00000000
00010000
00000100
00100000
00001000
,
01000000
00000000
10010000
00000000
,
00100000
00000000
00000000
00000000
00101000
00000000
00010000
00000100
,
00000010
00000000
00000001
00001000
00000010
00000000
00010010
00000000
,
00011000
00000000
00000000
00000000
01000000
00000000
01000000
00100000
,
10000000
00100000
01000000
00001000
,
00011000
00000010
00011000
01000000
,
00001000
00000000
00010000
00000000
00000100
00001000
00000010
00000100
,
00000001
00000000
00000010
00000000
00000100
00010000
00001000
00100000
,
01000000
00000000
10010000
01000000
,
00001000
00000000
00000000
00000000
00101000
00000000
00010000
00000010
,
00000100
00000000
00000001
00001000
00000010
00000000
00010010
00000000
,
00011000
00000000
00001000
00000000
00010000
00001000
00010000
00001000
,
01000000
00000000
00010000
00000000
00100000
00001000
00010000
00000100
,
00001000
00000000
00001000
00000000
00001000
00000001
00001000
00000010
,
00010000
00000000
00010000
00000000
00001000
00100000
00010000
01000000
,
00100000
00000000
00100000
00000000
10000000
00010000
01000000
00010000
,
00100000
00000000
00001000
00000000
00100000
00001000
00010000
00000100
,
00001000
00000000
00000001
00000000
00000100
00000010
00010000
00001000
,
01000000
00000000
01000000
00000000
01000000
00100000
10000000
00010000
,
00100000
00000000
00100000
00000000
00100000
00001000
00010000
00000100
,
00000010
00000000
00000000
00000000
;

//---------------dance-couple - ANOTHER----------------
#NOTES:
     dance-couple:
     ANOTHER:
     Medium:
     7:
     0.200,0.227,0.385,0.000,0.000,286.000,116.000,0.000,0.000,11.000:
00000000
00000000
00000000
00000000
,
00000000
00000000
00000000
00000000
,
00000000
00000000
00000000
00000000
,
00000000
00000000
00000000
00000000
,
01000000
00000000
01000000
00000000
01000000
00100000
10000000
00000000
,
00000010
00000000
00000010
00000000
00000010
00000100
00000001
00000000
,
10000000
00000000
00000001
00000000
,
01000000
00000000
00000010
00000000
,
00010001
01000100
00100010
10001000
,
00010001
10001000
00100010
01000100
,
00010000
00010000
00010000
00010000
,
00001000
00001000
00001000
00001000
,
00010000
00000000
01000000
00100000
10000000
00000000
00010000
00000000
,
00000001
00000000
00000100
00000010
00001000
00000000
00000001
00000000
,
10000000
00000000
00010000
01000000
00100000
10000000
00010000
01000000
,
00001000
00000000
00000001
00000100
00000010
00001000
00000001
00000100
,
00000000
00000000
10011001
10011001
,
10000000
00100000
10000001
00100000
01000000
00010000
01000001
00010000
,
10000000
01000000
10000001
01000000
00100000
00010000
00100001
00010000
,
10000000
10010001
00000000
01000001
,
00100000
00000000
10000001
00000000
00010000
00000000
01000001
00100000
,
10001000
10001000
10001000
00010001
,
01000100
01000100
00010001
01000100
,
00100010
00100010
10001000
00010001
,
01000100
00100010
10001000
00010001
,
00001000
00000010
10001000
00000010
00000100
00000001
10000100
00000001
,
00001000
00000100
10001000
00000100
00000010
00000001
10000010
00000001
,
00001000
10001001
00000000
10000100
,
00000010
00000000
10001000
00000000
00000001
00000000
10000100
00000010
,
00011000
00011000
00011000
10000001
,
01000100
01000100
10000001
01000100
,
00100010
00100010
00011000
10000001
,
01000100
00100010
00011000
10000001
,
00011000
00000000
00000010
00000100
,
00100000
01000000
00010001
10001000
,
00100010
00000000
00000000
00001000
,
10000000
00000000
00000000
00000000
01000100
01000100
01000100
00000000
,
10000000
00100000
01000000
00010000
,
00001000
00000010
00000100
00000001
,
10001000
00000000
00010001
01000100
00100010
00000000
10001000
00000000
,
10011001
10011001
00000000
01000100
,
01000000
10010000
00100000
10010000
,
01000000
00100000
01000000
00100000
10000000
00100000
10000000
00100000
,
00000100
00001001
00000010
00001001
,
00000100
00000010
00000100
00000010
00001000
00000010
00001000
00000010
,
01000000
00000000
00000100
00000000
,
00100000
00000000
00000010
10011001
,
10000000
00010000
00000001
00001000
,
10000001
00000000
00100100
00000000
01000010
00011000
01000010
00011000
,
00000001
00000110
00001000
00000110
,
00001000
00000100
00001000
00000100
00000010
00000001
00000010
00000001
,
00010000
01100000
10000000
01100000
,
10000000
01000000
10000000
01000000
00100000
00010000
00100000
00010000
,
00000001
00000000
00010000
00000000
,
00001000
00000000
10000000
10011001
,
00010001
10001000
00100010
01000100
,
00010001
00000000
01000100
00000000
00100010
10001000
00100010
10001000
,
00010001
00000000
00000000
00000000
00001000
00000100
00001000
00000100
,
00100010
00000000
00000000
00000000
10000000
00100000
10000000
00100000
,
01000100
00000000
00000000
00000000
00000001
00001000
00000001
00001000
,
00100010
00000000
00000000
00000000
01000000
00010000
01000000
00010000
,
10001000
00000000
00000010
00000000
00000100
00000001
00001000
00000010
,
01000100
00000000
01000000
00000000
00010000
10000000
00100000
01000000
,
00010001
00000000
10001000
00000000
00100010
10001000
00010001
01000100
,
00100010
00100010
10011001
10011001
,
01100110
00000000
00000000
00000000
;

//---------------dance-solo - BASIC----------------
#NOTES:
     dance-solo:
     BASIC:
     Easy:
     4:
     0.083,0.097,0.017,0.000,0.000,171.000,5.000,0.000,0.000,0.000:
000000
000000
000000
000000
,
000000
000000
000000
000000
,
000000
000000
000000
000000
,
000000
000000
000000
000000
,
000010
000000
000000
000000
,
001000
000000
000000
000000
,
000001
000000
000000
000000
,
010000
000000
001000
000000
,
100000
000000
000000
000000
,
000001
000000
001000
000010
,
100000
000000
100000
000001
,
001000
000000
000100
100000
,
000010
000000
001000
000001
,
010000
000100
100000
001000
,
100000
000100
001000
000001
,
100000
000000
100000
000100
,
001000
000000
000100
001100
,
100000
000000
000010
000000
,
001000
000000
000001
010000
,
001000
000000
000000
100000
,
000100
000000
000100
001000
,
000010
000000
100000
000001
,
001000
000010
100000
000001
,
010000
000000
010000
100001
,
000100
001000
000001
100000
,
000010
001000
000001
000001
,
010000
000000
010000
001000
,
100000
000000
000000
000001
,
001000
000000
000010
100000
,
000001
000000
010000
001000
,
100000
000100
001000
000001
,
100000
000000
000000
000000
,
000010
000000
000000
000010
,
001000
100001
000000
001000
,
000100
100000
000001
001000
,
000100
000000
000000
000000
,
001000
000000
000000
000010
,
100000
000001
010000
000010
,
001000
000001
000001
100000
,
000010
000010
001000
000100
,
100000
000000
000000
000001
,
001000
000100
001000
000010
,
100000
000001
010000
000001
,
100000
000100
001000
000001
,
100000
000100
001000
000001
,
100000
000000
000000
000000
,
100001
000000
000000
001000
,
000100
100000
000001
001000
,
000100
000000
000000
010000
,
000001
001000
000010
100000
,
000100
100000
000001
001000
,
000010
001000
000001
010000
,
000100
100000
000001
001000
,
000010
000000
000000
000000
,
100000
000000
000000
000001
,
001000
000100
100000
000010
,
001000
000000
000000
100001
,
001000
000000
000010
010000
,
000001
000000
100000
000100
,
001000
000000
000000
000000
,
000010
000000
000000
000000
,
001000
000000
000000
000001
,
010000
000000
000000
000100
,
100000
000000
000001
000000
,
001000
000001
100000
000010
,
010000
000000
000000
000000
;

//---------------dance-solo - ANOTHER----------------
#NOTES:
     dance-solo:
     ANOTHER:
     Medium:
     5:
     0.126,0.140,0.086,0.000,0.000,239.000,26.000,0.000,0.000,0.000:
000000
000000
000000
000000
,
000000
000000
000000
000000
,
000000
000000
000000
000000
,
000000
000000
000000
000000
,
000010
001000
000001
001000
,
000100
100000
000001
010000
,
000100
100000
000001
001000
,
000100
100100
001000
001001
,
000010
000000
100010
000001
,
001000
000000
000100
000100
,
100000
000000
000001
001000
,
000100
000000
100000
000010
,
001000
000001
010000
000100
,
100000
000001
001000
000010
,
100000
000100
001000
000001
,
010000
001000
100000
000100
,
001000
000000
001010
001001
,
100000
000100
001000
001000
,
000001
000100
000001
100000
,
001000
000000
100000
000010
,
001000
000000
000001
000000
010000
000000
001000
010000
,
001000
010000
000000
000000
000001
000000
100000
000000
,
000010
000000
001000
000000
000001
000000
100000
000100
,
001000
000000
000010
100000
,
000001
000000
010000
000000
000100
001000
000001
000000
,
010001
001000
100000
000100
,
001000
000010
100000
000001
,
001000
000000
000010
100010
,
000001
000000
001000
000000
000100
000000
100000
000010
,
001000
000001
100000
000100
,
001000
000010
100000
000010
,
001000
000000
000001
100000
,
000100
000000
010000
000000
000001
000000
100000
000010
,
001000
000000
000001
100000
,
000100
001000
000010
100000
,
000001
000000
010000
001000
,
100000
000000
000001
001000
,
000010
100000
000001
001000
,
000100
000000
100000
000000
000001
000000
010000
000100
,
001000
000000
000001
100000
001000
000000
100001
000000
,
001100
000000
000000
000010
,
001000
001010
010000
011000
,
100000
100010
000001
010001
,
001000
000000
001000
000000
001000
000100
100000
000000
,
000001
000000
001000
000000
000100
000000
100000
000010
,
001000
000000
001100
000000
,
010000
000000
011000
100000
,
000001
000000
000000
000000
001000
000000
000001
100000
,
000100
001000
001000
001001
,
000010
100010
010000
010001
,
000010
001010
010000
011000
,
000010
000000
100000
000000
000001
001000
000100
100000
,
000001
000000
001000
000000
000100
000000
100000
000010
,
001000
000000
100001
000000
,
001000
000000
000000
000000
001010
000000
000001
010000
,
001000
000000
000000
000000
000010
000000
100000
000001
,
001000
000100
100000
100001
,
001000
000000
000000
000000
000010
001000
000010
001000
,
000001
000000
000000
000000
010000
000001
010000
000001
,
100000
000100
001000
000001
,
100000
000000
000100
000000
001000
000001
001000
000001
,
010000
000000
000100
001100
,
100000
000000
000000
100001
,
001000
000000
000010
001010
,
000001
000000
001000
000000
000100
000000
100000
000010
,
001000
000000
000000
000000
;

//---------------dance-solo - MANIAC----------------
#NOTES:
     dance-solo:
     MANIAC:
     Hard:
     8:
     0.151,0.183,0.083,0.000,0.002,293.000,25.000,0.000,0.000,0.000:
000000
000000
000000
000000
,
000000
000000
000000
000000
,
000000
000000
000000
000000
,
000000
000000
000000
000000
,
100000
000010
010000
000001
,
001000
000001
100000
000100
,
001000
000000
001000
000010
,
100000
000001
010000
001000
,
100000
000100
000100
000100
,
001000
000000
000010
000000
100000
000001
010000
000001
,
001000
000000
000010
100000
,
000001
001100
100000
001100
,
100000
000010
001000
000010
,
001000
000001
100000
000010
,
001000
000000
000100
000000
100000
000010
100000
000001
,
010000
010001
001000
001010
,
100000
000000
100000
100100
,
001000
000001
001000
000001
001000
000010
001000
000010
,
100000
000010
100000
000010
100000
000100
100000
000100
,
010000
000100
010000
000100
010000
001000
010000
001000
,
000100
001000
000100
001000
000100
000001
000100
000001
,
001100
001000
001010
001100
,
011000
000000
001100
000000
000001
000000
100000
000100
,
001000
000001
000000
100000
,
000010
000000
001000
000100
100000
000000
000001
000000
,
000000
010000
010000
010000
000100
000000
100000
000000
,
000010
000000
001000
000000
000100
000000
100000
000001
,
001000
001010
000100
100000
,
000001
000000
001000
000000
000100
100000
000001
001000
,
000010
100010
000000
010000
,
000100
000000
100000
000000
000001
001000
000000
000100
,
000000
000000
001000
001010
,
010000
000000
000001
000000
100000
000100
001000
000010
,
100000
000000
000001
001000
,
000010
000000
100000
000000
000100
001000
000100
100000
,
000001
000000
000000
010000
,
001000
000000
000000
100000
,
000100
000000
001000
000001
100000
000000
000100
000000
,
001000
000000
000000
000000
000001
000000
000000
000000
100000
000010
000000
000000
010000
000000
000001
000000
,
001000
000000
000100
100000
000100
001000
000000
000000
,
000001
000000
100000
000000
000000
000000
000100
001000
,
000010
100000
000001
001000
,
100010
000001
010001
100000
,
001000
000000
000100
000000
001000
010000
001000
000010
,
001000
000000
000001
000000
100000
001000
010000
001000
,
100000
000000
100001
000000
,
001000
000000
000000
000000
001010
000000
000001
100000
,
000100
000000
001000
000010
010000
000000
010001
000000
,
100010
000000
000000
000000
001000
000000
001000
000100
,
100000
000010
001000
000001
,
100001
010000
100001
000010
,
000100
000000
001000
000000
100000
000010
001000
000001
,
100000
000000
000100
000000
001000
000010
100000
000001
,
001000
000000
100001
001000
,
000100
000000
000000
000000
100100
000000
000001
010000
,
001000
000000
100000
000010
001000
000000
001100
000000
,
100001
000000
100000
000000
000001
010000
000001
010000
,
001000
000000
100000
000000
000100
001000
000001
001000
,
000010
000000
000010
000000
000010
100000
000010
001000
,
000001
000000
000001
000000
010000
000100
001000
000010
,
100000
000000
100000
000000
000100
001000
000001
001000
,
000010
000000
100000
000000
000010
001000
000001
100000
,
000010
000000
001000
000000
000100
100000
001000
000010
,
100000
000000
100000
000000
100000
000100
001000
000001
,
010000
000000
010000
000000
010000
001000
100000
000001
,
000100
000000
000000
000000
;
