#TITLE:Forgotten Ancient;
#SUBTITLE:(Remix);
#ARTIST:Alabaster;
#TITLETRANSLIT:;
#SUBTITLETRANSLIT:;
#ARTISTTRANSLIT:;
#CREDIT:;
#BANNER:../banner.png;
#BACKGROUND:../bg.png;
#LYRICSPATH:;
#CDTITLE:;
#MUSIC:Forgotten Ancient (Remix).ogg;
#OFFSET:0.866;
#SAMPLESTART:166.900;
#SAMPLELENGTH:20.840;
#SELECTABLE:YES;
#BPMS:0.000=185.999;
#STOPS:;
#BGCHANGES:;
// cache tags:
#FIRSTBEAT:8.000;
#LASTBEAT:1035.500;
#SONGFILENAME:Songs/Cirque du Lykan/Forgotten Ancient (Remix) - [Zaia]/Forgotten Ancient (Remix).sm;
#HASMUSIC:1;
#HASBANNER:1;
#MUSICLENGTH:335.520;
// end cache tags

//---------------dance-single - Zaia - 16(mid-high)----------------
#NOTES:
     dance-single:
     Zaia - 16(mid-high):
     Challenge:
     16:
     1.000,1.000,0.051,0.054,1.000,3242.000,17.000,18.000,0.000,0.000:
0000
0000
0000
0000
,
0000
0000
0000
0000
,
1000
0001
0100
0001
1000
0000
0000
0001
,
0100
0010
1000
0001
0010
0000
0000
0100
,
1000
0000
1000
0000
0001
0000
0000
1000
,
0100
0010
0001
1000
0010
0000
0000
0100
,
0001
0000
0001
0000
1000
0000
0000
0100
,
0010
0001
1000
0010
1000
0000
0000
0001
,
0100
0000
0100
0000
0010
0000
0000
0100
,
0001
1000
0100
0010
0001
0000
0000
0010
,
0100
0000
0100
0000
1000
0000
0000
0010
,
0100
0001
1000
0001
0010
0000
0000
0100
,
1000
0000
1000
0000
0010
0000
0000
0100
,
0010
0100
0001
1000
0100
0000
0000
0010
,
0001
0000
0001
0000
1000
0000
0000
0100
,
0010
0001
1000
0001
0100
0000
0000
0010
,
1000
0000
1000
0000
0001
0000
0000
0010
,
0100
1000
0001
0100
0010
0000
0010
0000
,
1000
0001
1000
0010
0100
0001
0100
0010
,
1000
0100
1000
0001
0010
0100
0010
0001
,
1000
0010
0100
0001
1000
0001
0010
0100
,
1000
0010
1000
0001
0100
0001
0010
0100
,
1000
0001
0100
0001
1000
0001
0010
0100
,
1000
0001
0100
0001
1000
0100
0010
0100
,
1000
0010
0100
0001
0010
0100
1000
0001
,
0100
0010
1000
0001
0100
0001
1000
0100
,
1000
0010
1000
0100
0010
0001
0010
0100
,
1000
0010
1000
0001
0100
0010
0100
0001
,
1000
0100
0010
0001
1000
0001
0100
0010
,
1000
0100
1000
0001
0010
0100
1000
0001
,
0100
0010
1000
0001
1000
0010
0100
0001
1000
0010
0100
0001
1000
0100
1000
0001
,
0010
0100
1000
0001
1000
0010
0100
0001
1000
0100
1000
0001
0010
0100
1000
0001
,
1000
0010
0100
0010
1000
0001
1000
0100
1000
0001
0010
0100
0010
0001
1000
0001
,
0100
0001
1000
0010
0100
0001
1000
0001
0100
0000
0010
0000
1000
0001
1000
0001
,
1000
0100
0010
0100
1000
0001
1000
0001
0100
0001
0010
0100
1000
0001
0100
0010
,
1000
0001
1000
0100
1000
0001
0010
0100
0010
0001
1000
0010
0100
0010
1000
0100
,
0010
0001
1000
0001
1000
0100
0010
0001
0010
0001
0100
0010
1000
0001
0010
0100
,
1000
0001
1000
0010
1000
0001
0100
0010
0100
0001
1000
0100
0010
0100
1000
0001
,
0100
0010
0100
0001
1000
0001
1000
0100
1000
0010
0100
0001
1000
0100
0010
0001
,
1000
0001
0100
0001
1000
0010
0100
0010
1000
0001
0010
0100
0010
0001
0100
0010
,
1000
0001
1000
0001
0100
0010
1000
0010
1000
0100
0010
0001
1000
0010
0100
0001
,
1000
0001
0010
0001
1000
0100
0010
0100
1000
0001
0100
0010
0100
0001
0010
0100
,
1000
0010
0100
0010
1000
0001
1000
0001
0010
0001
0100
0010
1000
0001
0010
0100
,
1000
0001
1000
0010
1000
0001
0100
0010
0100
0001
1000
0100
0010
0100
1000
0010
,
0100
0001
1000
0001
1000
0010
0100
0001
0100
0001
0010
0100
1000
0001
0100
0010
,
1000
0001
1000
0100
1000
0001
0010
0100
0010
0001
1000
0010
0100
0010
1000
0001
,
0010
0100
0010
0001
1000
0001
1000
0010
1000
0100
0010
0001
1000
0010
0100
0001
,
1000
0001
0010
0001
1000
0100
0010
0100
1000
0001
0100
0010
0100
0001
0010
0100
,
1000
0001
1000
0001
0010
0100
1000
0100
1000
0010
0100
0001
1000
0100
0010
0001
,
1000
0001
0100
0001
1000
0010
0100
0010
1000
0001
0010
0100
0010
0001
0100
0010
,
1000
0100
1000
0100
1000
0001
1000
0010
0100
0001
1000
0100
0010
0001
1000
0010
,
0100
0001
0100
0010
0100
0001
1000
0100
1000
0001
0100
0001
0010
0100
0010
0001
,
0100
0001
0100
0001
1000
0001
0010
0100
1000
0001
0100
0010
1000
0001
0010
0100
,
1000
0100
0010
0100
1000
0001
0100
0001
1000
0100
1000
0010
0100
0010
0100
0001
,
1000
0010
1000
0010
1000
0001
1000
0100
0010
0001
1000
0010
0100
0001
1000
0100
,
0010
0001
0010
0100
0010
0001
1000
0010
1000
0001
0010
0001
0100
0010
0100
0001
,
0010
0001
0010
0001
1000
0001
0100
0010
1000
0001
0010
0100
1000
0001
0100
0010
,
1000
0010
0100
0010
1000
0001
0010
0001
1000
0010
1000
0100
0010
0100
1000
0001
,
0100
0001
0100
0001
1000
0001
0010
0100
1000
0001
0100
0010
1000
0001
0010
0100
,
1000
0100
0010
0100
1000
0001
0100
0001
1000
0100
1000
0010
0100
0010
1000
0100
,
1000
0100
1000
0001
1000
0010
0100
0001
1000
0100
0010
0001
1000
0010
0100
0001
,
0100
0010
0100
0001
1000
0100
1000
0001
0100
0001
0010
0100
0010
0100
1000
0001
,
1000
0010
1000
0010
1000
0001
1000
0100
0010
0001
1000
0010
0100
0001
1000
0100
,
0010
0001
0010
0100
0010
0001
1000
0010
1000
0001
0010
0001
0100
0010
0100
0001
,
0010
0001
0010
0001
1000
0001
0100
0010
1000
0001
0010
0100
1000
0001
0100
0010
,
1000
0010
0100
0010
1000
0001
0010
0001
1000
0010
1000
0100
0010
0100
0010
0001
,
1000
0100
1000
0100
1000
0001
1000
0010
0100
0001
1000
0100
0010
0001
1000
0010
,
0100
0001
0100
0010
0100
0001
1000
0100
1000
0001
0100
0001
0010
0100
0010
0001
,
0100
0001
0100
0001
1000
0001
0010
0100
1000
0001
0100
0010
1000
0001
0010
0100
,
1000
0100
0010
0100
1000
0001
0100
0001
1000
0100
1000
0010
0100
0010
0100
0001
,
1000
0010
1000
0010
1000
0001
1000
0100
0010
0001
1000
0010
0100
0001
1000
0100
,
0010
0001
0010
0100
0010
0001
1000
0010
1000
0001
0010
0001
0100
0010
0100
0001
,
0010
0001
0010
0001
1000
0001
0100
0010
1000
0001
0010
0100
1000
0001
0100
0010
,
1000
0010
0100
0010
1000
0001
0010
0001
1000
0010
1000
0100
0010
0100
1000
0001
,
0100
0001
0100
0001
1000
0001
0010
0100
1000
0001
0100
0010
1000
0001
0010
0100
,
1000
0100
0010
0100
1000
0001
0100
0001
1000
0100
1000
0010
0100
0010
1000
0100
,
1000
0100
1000
0001
1000
0010
0100
0001
1000
0100
0010
0001
1000
0010
0100
0001
,
0100
0010
0100
0001
1000
0100
1000
0001
0100
0001
0010
0100
0010
0100
1000
0001
,
1000
0010
1000
0010
1000
0001
1000
0100
0010
0001
1000
0010
0100
0001
1000
0100
,
0010
0001
0010
0100
0010
0001
1000
0010
1000
0001
0010
0001
0100
0010
0100
0001
,
0010
0001
0010
0001
1000
0001
0100
0010
1000
0001
0010
0100
1000
0001
0100
0010
,
1000
0010
0100
0010
1000
0001
0010
0001
1000
0010
1000
0100
0010
0100
0010
0001
,
1000
0100
1000
0100
1000
0001
1000
0010
0100
0001
1000
0100
0010
0001
1000
0010
,
0100
0001
0100
0010
0100
0001
1000
0100
1000
0001
0100
0001
0010
0100
0010
0001
,
0100
0001
0100
0001
1000
0001
0010
0100
1000
0001
0100
0010
1000
0001
0010
0100
,
1000
0100
0010
0100
1000
0001
0100
0001
1000
0100
1000
0010
0100
0010
0100
0001
,
1000
0010
1000
0010
1000
0001
1000
0100
0010
0001
1000
0010
0100
0001
1000
0100
,
0010
0001
0010
0100
0010
0001
1000
0010
1000
0001
0010
0001
0100
0010
0100
0001
,
0010
0001
0010
0001
1000
0001
0100
0010
1000
0001
0010
0100
1000
0001
0100
0010
,
1000
0010
0100
0010
1000
0001
0010
0001
1000
0010
1000
0100
0010
0100
1000
0001
,
0100
0001
0100
0001
1000
0001
0010
0100
1000
0001
0100
0010
1000
0001
0010
0100
,
1000
0100
0010
0100
1000
0001
0100
0001
1000
0100
1000
0010
0100
0010
1000
0100
,
1000
0100
1000
0001
1000
0010
0100
0001
1000
0100
0010
0001
1000
0010
0100
0001
,
0100
0010
0100
0001
1000
0100
1000
0001
0100
0001
0010
0100
0010
0100
1000
0001
,
1000
0010
1000
0010
1000
0001
1000
0100
0010
0001
1000
0010
0100
0001
1000
0100
,
0010
0001
0010
0100
0010
0001
1000
0010
1000
0001
0010
0001
0100
0010
0100
0001
,
0010
0001
0010
0001
1000
0001
0100
0010
1000
0001
0010
0100
1000
0001
0100
0010
,
1000
0010
0100
0010
1000
0001
0010
0001
1000
0010
1000
0100
0010
0100
0010
0001
,
2000
0000
0000
0000
,
0000
0000
0000
0000
,
3200
0000
0000
0000
,
0320
0000
0032
2003
,
3020
0000
0000
0000
,
0000
0000
0000
0000
,
0230
0000
0000
0000
,
0000
0000
0000
0000
,
0302
0000
0000
0000
,
0000
0000
0000
0000
,
2003
0000
0000
0000
,
3200
0000
0320
0000
,
0032
0000
0000
0000
,
0000
0000
0000
0000
0000
0000
0023
0230
,
2300
0000
0000
0000
,
3002
0000
0203
0000
,
0310
1000
0001
0010
0100
1000
0100
0010
,
0001
0100
0001
1000
0010
0100
0010
1000
,
0001
0010
0100
1000
0001
1000
0010
0100
,
0001
0010
0001
1000
0100
1000
0010
0100
,
0001
1000
0100
1000
0001
1000
0010
0100
,
0001
1000
0100
1000
0001
0100
0010
0100
,
0001
0010
0100
1000
0010
0100
0001
1000
,
0100
0010
0001
1000
0100
1000
0001
0100
,
0010
1000
0000
0001
0000
1000
1001
0001
,
0101
0100
0000
0010
0000
1000
0000
0000
,
1001
0001
0000
0010
0000
1100
0000
0000
,
0110
0010
0000
0000
0000
0001
0000
0000
,
0100
0001
1000
0001
1000
0100
0010
0001
1000
0100
0010
0001
1000
0010
1000
0001
,
0100
0010
1000
0001
1000
0100
0010
0001
1000
0010
1000
0001
0100
0010
1000
0001
,
1000
0100
0010
0100
1000
0001
1000
0010
1000
0001
0100
0010
0100
0001
1000
0001
,
0010
0001
1000
0100
0010
0001
1000
0001
0010
0000
0000
0000
0000
0000
0000
0000
,
0001
1000
0001
0010
0100
0010
0001
1000
0010
0100
0001
1000
0001
0010
0001
1000
,
0100
0010
0100
1000
0001
1000
0010
0100
0001
1000
0100
1000
0001
1000
0010
0100
,
0001
0010
0100
1000
0001
1000
0010
0100
0001
1000
0100
1000
0001
0010
0001
1000
,
0010
1000
0010
0100
0001
1000
0001
0010
0100
1000
0001
1000
0010
0100
0001
1000
,
0001
0100
0001
0100
0010
1000
0001
0010
0100
0010
0001
1000
0010
0100
0001
1000
,
0100
1000
0001
0100
0001
1000
0100
0010
0100
1000
0001
0100
0010
0100
0001
0100
,
0001
1000
0010
1000
0001
0010
0100
1000
0001
1000
0010
0100
0001
1000
0001
0010
,
0001
1000
0100
1000
0100
0010
0001
1000
0010
0100
0001
1000
0100
1000
0001
0100
,
0010
0100
0001
1000
0001
1000
0100
1000
0001
0010
0100
1000
0001
1000
0010
0100
,
0001
0100
0010
1000
0100
1000
0001
0010
0100
1000
0010
1000
0001
1000
0100
0010
,
0001
0100
0010
1000
0001
1000
0100
0010
0001
1000
0010
1000
0001
0100
0001
1000
,
0100
1000
0100
0010
0001
1000
0001
0100
0010
1000
0001
1000
0100
0010
0001
1000
,
0001
0010
0001
0010
0100
1000
0001
0100
0010
0100
0001
1000
0100
0010
0001
1000
,
0010
1000
0001
0010
0001
1000
0010
0100
0010
1000
0001
0010
0100
0010
0001
0010
,
0001
1000
0100
1000
0001
0100
0010
1000
0001
1000
0100
0010
0001
1000
0001
0100
,
0001
1000
0010
1000
0010
0100
0001
1000
0100
0010
0001
1000
0010
1000
0001
0100
,
0001
1000
0010
0100
0010
1000
0001
0010
0100
1000
0001
1000
0010
1000
0001
0100
,
0010
0100
0001
1000
0001
0010
0100
1000
0001
0100
0001
1000
0001
0010
0100
1000
,
0010
0100
0001
1000
0001
0010
0100
1000
0001
0100
0001
1000
0010
1000
0001
0010
,
0001
0010
0100
1000
0001
1000
0010
0100
0001
1000
0001
0010
0100
1000
0001
1000
,
0100
1000
0100
0010
0001
1000
0010
0100
0010
1000
0001
0010
0100
1000
0001
0100
,
0001
1000
0100
1000
0001
0100
0010
0100
0001
1000
0100
0010
0100
1000
0100
1000
,
0001
0010
0001
1000
0010
0100
0001
1000
0001
0010
0100
1000
0001
1000
0010
1000
,
0001
0100
0001
0100
0010
1000
0001
0010
0100
1000
0001
0100
0001
1000
0100
0010
,
0100
1000
0001
1000
0001
0100
0001
1000
0010
0100
0001
1000
0001
0010
0100
1000
,
0100
0010
0001
0100
0001
1000
0010
0100
0001
0010
0001
1000
0001
0100
0010
1000
,
0100
0010
0001
1000
0001
0100
0010
1000
0001
0010
0001
1000
0100
1000
0001
0100
,
0001
0100
0010
1000
0001
1000
0100
0010
0001
1000
0001
0100
0010
1000
0001
1000
,
0010
1000
0010
0100
0001
1000
0100
0010
0100
1000
0001
0100
0010
1000
0001
0010
,
0001
1000
0010
1000
0001
0010
0100
0010
0001
1000
0010
0100
0010
1000
0010
1000
,
0001
0100
0001
1000
0100
0010
0001
1000
0001
0100
0010
1000
0001
1000
0100
1000
,
0001
0010
0001
0010
0100
1000
0001
0100
0010
1000
0001
0010
0001
1000
0010
0100
,
0001
1000
0010
1000
0001
1000
0100
1000
0001
0010
0100
1000
0001
1000
0010
0100
,
0001
1000
0001
0010
0001
1000
0001
0100
0001
1000
0100
0010
0100
1000
0010
0100
,
0001
1000
0100
1000
0001
1000
0010
0100
0001
0010
0100
1000
0001
0100
0010
1000
,
0001
1000
0100
1000
0010
1000
0001
1000
0010
0100
0001
0010
0100
1000
0001
1000
,
0010
1000
0001
0010
0001
1000
0001
0100
0001
1000
0010
0100
0001
1000
0001
0010
,
0100
1000
0001
1000
0010
1000
0001
1000
0100
1000
0001
0100
0010
0100
0001
0010
,
0100
1000
0001
0010
0001
1000
0001
0100
0010
1000
0100
0010
0001
1000
0010
0100
,
0001
1000
0001
0100
0001
0010
0001
1000
0001
0010
0001
1000
0010
0100
0001
0010
,
0001
1000
0010
1000
0001
1000
0100
1000
0001
0010
0100
1000
0001
1000
0010
0100
,
0001
1000
0001
0010
0001
1000
0001
0100
0001
1000
0100
0010
0100
1000
0010
0100
,
0001
1000
0100
1000
0001
1000
0010
0100
0001
0010
0100
1000
0001
0100
0010
1000
,
0001
1000
0100
1000
0010
1000
0001
1000
0010
0100
0001
0010
0100
1000
0001
1000
,
0010
1000
0001
0010
0001
1000
0001
0100
0001
1000
0010
0100
0001
1000
0001
0010
,
0100
1000
0001
1000
0010
1000
0001
1000
0100
1000
0001
0100
0010
0100
0001
0010
,
0100
1000
0001
0010
0001
1000
0001
0100
0010
1000
0100
0010
0001
1000
0010
0100
,
0010
1000
0001
0100
0001
0010
0001
1000
0001
1000
0010
0100
0001
0100
0010
1000
,
0001
0010
0001
0010
0001
1000
0001
0100
0010
1000
0001
0010
0100
1000
0001
0100
,
0010
1000
0010
0100
0010
1000
0001
0010
0001
1000
0010
1000
0100
0010
0100
1000
,
0010
1000
0010
1000
0001
1000
0100
0010
0001
1000
0010
0100
0001
1000
0100
0010
,
0001
0010
0100
0010
0001
1000
0010
1000
0001
0010
0001
0100
0010
0100
0010
1000
,
0001
0100
0001
0100
0001
1000
0001
0010
0100
1000
0001
0100
0010
1000
0001
0010
,
0100
1000
0100
0010
0100
1000
0001
0100
0001
1000
0100
1000
0010
0100
0010
1000
,
0100
1000
0100
1000
0001
1000
0010
0100
0001
1000
0100
0010
0001
1000
0010
0100
,
0001
0100
0010
0100
0001
1000
0100
1000
0001
0100
0001
0010
0100
0010
0001
1000
,
0010
1000
0010
1000
0001
1000
0100
0010
0001
1000
0010
0100
0001
1000
0100
0010
,
0001
0010
0100
0010
0001
1000
0010
1000
0001
0010
0001
0100
0010
0100
0001
0010
,
0001
0010
0001
1000
0001
0100
0010
1000
0001
0010
0100
1000
0001
0100
0010
1000
,
0010
0100
0010
1000
0001
0010
0001
1000
0010
1000
0100
0010
0100
0010
0001
1000
,
0001
0100
0001
0100
0001
1000
0001
0010
0100
1000
0001
0100
0010
1000
0001
0010
,
0100
1000
0100
0010
0100
1000
0001
0100
0001
1000
0100
1000
0010
0100
0010
1000
,
0100
1000
0100
1000
0001
1000
0010
0100
0001
1000
0100
0010
0001
1000
0010
0100
,
0001
0100
0010
0100
0001
1000
0100
1000
0001
0100
0001
0010
0100
0010
0100
1000
,
0001
0010
0001
0010
0001
1000
0001
0100
0010
1000
0001
0010
0100
1000
0001
0100
,
0010
1000
0010
0100
0010
1000
0001
0010
0001
1000
0010
1000
0100
0010
0100
1000
,
0010
1000
0010
1000
0001
1000
0100
0010
0001
1000
0010
0100
0001
1000
0100
0010
,
0001
0010
0100
0010
0001
1000
0010
1000
0001
0010
0001
0100
0010
0100
0010
1000
,
0001
0100
0001
0100
0001
1000
0001
0010
0100
1000
0001
0100
0010
1000
0001
0010
,
0100
1000
0100
0010
0100
1000
0001
0100
0001
1000
0100
1000
0010
0100
0010
1000
,
0100
1000
0100
1000
0001
1000
0010
0100
0001
1000
0100
0010
0001
1000
0010
0100
,
0001
0100
0010
0100
0001
1000
0100
1000
0001
0100
0001
0010
0100
0010
0001
1000
,
0010
1000
0010
1000
0001
1000
0100
0010
0001
1000
0010
0100
0001
1000
0100
0010
,
0001
0010
0100
0010
0001
1000
0010
1000
0001
0010
0001
0100
0010
0100
0001
0010
,
0001
0010
0001
1000
0001
0100
0010
1000
0001
0010
0100
1000
0001
0100
0010
1000
,
0010
0100
0010
1000
0001
0010
0001
1000
0010
1000
0100
0010
0100
0010
0001
1000
,
0001
0100
0001
0100
0001
1000
0001
0010
0100
1000
0001
0100
0010
1000
0001
0010
,
0100
1000
0100
0010
0100
1000
0001
0100
0001
1000
0100
1000
0010
0100
0010
1000
,
0100
1000
0100
1000
0001
1000
0010
0100
0001
1000
0100
0010
0001
1000
0010
0100
,
0001
0100
0010
0100
0001
1000
0100
1000
0001
0100
0001
0010
0100
0010
0100
1000
,
0001
0010
0001
0010
0001
1000
0001
0100
0010
1000
0001
0010
0100
1000
0001
0100
,
0010
1000
0010
0100
0010
1000
0001
0010
0001
1000
0010
1000
0100
0010
0100
1000
,
0100
1000
0001
0010
0001
0100
0010
1000
0010
1000
0100
0010
0001
1000
0010
0100
,
0001
1000
0001
0010
0001
1000
0100
0010
0100
1000
0001
0100
0010
0100
0001
1000
,
0010
1000
0010
1000
0001
1000
0100
1000
0001
0010
0100
1000
0001
0100
0001
1000
,
0100
0010
0100
1000
0001
1000
0001
0100
0001
1000
0010
1000
0100
0010
0100
1000
,
0010
1000
0001
1000
0010
0100
0001
0100
0001
0010
0100
1000
0001
0100
0010
1000
,
0001
1000
0100
1000
0001
0010
0100
0010
0001
1000
0010
0100
0010
1000
0100
0010
,
0001
0100
0001
0100
0001
1000
0001
0010
0100
1000
0001
0100
0010
1000
0001
0010
,
0100
1000
0100
0010
0100
1000
0001
0100
0001
1000
0100
1000
0010
0100
0010
1000
,
0100
1000
0001
1000
0001
0100
0010
1000
0010
1000
0100
0010
0001
1000
0010
0100
,
0001
1000
0001
0010
0001
1000
0100
0010
0100
1000
0001
0100
0001
1000
0010
1000
,
0001
0010
0001
0010
0001
1000
0001
0100
0010
1000
0001
0010
0100
1000
0001
0100
,
0010
1000
0010
0100
0010
1000
0001
0010
0001
1000
0010
1000
0100
0010
0100
1000
,
0010
1000
0001
1000
0100
0010
0001
0010
0001
0100
0010
1000
0001
0010
0100
1000
,
0001
1000
0010
1000
0001
0100
0010
0100
0001
1000
0100
0010
0100
1000
0010
1000
,
0001
1000
0010
0010
0100
0100
0001
0001
,
1000
1000
0100
0100
0010
0010
0001
0001
,
1000
0010
1000
0100
1000
0001
1000
0010
,
0100
0001
1000
0001
0010
0001
0100
0010
,
1000
1000
0001
0001
0010
0010
0001
0001
,
0100
0100
0010
0010
1000
1000
0001
0001
,
0010
0100
0010
0001
0010
0100
1000
0001
,
0100
0010
1000
0010
0100
0010
1000
0100
,
0010
0010
0001
0001
1000
1000
0010
0010
,
0100
0100
0001
0001
0010
0010
0100
0100
,
1000
0001
0100
0010
0100
0001
1000
0001
,
0010
0100
1000
0100
0010
0001
1000
0001
,
0100
0100
0010
0010
1000
1000
0100
0100
,
1000
1000
0010
0010
0100
0100
0001
0001
,
1000
0100
1000
0001
1000
0100
1000
0010
,
0100
0001
1000
0001
0010
0001
0100
0001
,
1000
1010
0010
0110
,
0100
0101
0001
1001
,
1000
1100
0100
0110
,
0010
0011
0001
1001
,
1000
1000
0010
0010
1000
1000
0100
0100
,
0010
0010
0001
0001
1000
1000
0010
0010
,
0100
0101
0001
1001
,
1000
1100
0100
0110
,
0010
0100
1000
0001
1000
0010
0100
0001
1000
0010
0100
0001
1000
0100
1000
0001
,
0010
0100
1000
0001
1000
0010
0100
0001
1000
0100
1000
0001
0010
0100
1000
0001
,
1000
0010
0100
0010
1000
0001
1000
0100
1000
0001
0010
0100
0010
0001
1000
0001
,
0100
0001
1000
0010
0100
0001
1000
0001
0100
0010
1000
0001
0010
0001
0010
0100
,
1000
0001
0100
0010
1000
0001
0010
0001
1000
0100
0010
0001
1000
0001
1000
0010
,
1000
0001
0100
0010
1000
0001
1000
0100
0010
0100
0010
0001
1000
0010
0100
0001
,
1000
0010
1000
0001
1000
0100
0010
0001
,
1000
0100
0010
0001
1000
0001
0100
0010
1000
0001
0010
0001
1000
0010
0200
0000
,
0000
0000
0000
0000
0000
0000
0000
0300
;
